<?xml version="1.0" standalone="no"?>
<!DOCTYPE svg PUBLIC "-//W3C//DTD SVG 1.1//EN" "http://www.w3.org/Graphics/SVG/1.1/DTD/svg11.dtd" >
<svg xmlns="http://www.w3.org/2000/svg">
<metadata></metadata>
<defs>
<font id="texgyreherositalic" horiz-adv-x="556" >
<font-face units-per-em="1000" ascent="784" descent="-216" />
<missing-glyph horiz-adv-x="278" />
<glyph unicode="&#xfb01;" horiz-adv-x="500" d="M39 0l97 457h-70l14 67h70l19 89q12 56 51.5 87.5t97.5 31.5q22 0 45 -5l-15 -69q-14 2 -27 2q-32 0 -48 -14.5t-24 -52.5l-15 -69h86l-14 -67h-86l-97 -457h-84zM296 0l111 524h84l-111 -524h-84zM413 604l22 103h104l-22 -103h-104z" />
<glyph unicode="&#xfb02;" horiz-adv-x="500" d="M39 0l97 457h-70l14 67h70l19 89q12 56 51.5 87.5t97.5 31.5q22 0 45 -5l-15 -69q-14 2 -27 2q-32 0 -48 -14.5t-24 -52.5l-15 -69h86l-14 -67h-86l-97 -457h-84zM296 0l155 729h84l-155 -729h-84z" />
<glyph unicode="&#xfb03;" horiz-adv-x="757" d="M39 0l97 457h-70l14 67h70l19 89q12 56 51.5 87.5t97.5 31.5q22 0 45 -5l-15 -69q-14 2 -27 2q-32 0 -48 -14.5t-24 -52.5l-15 -69h173l19 89q12 56 51.5 87.5t97.5 31.5q23 0 45 -5l-15 -69q-14 2 -27 2q-32 0 -48 -14.5t-24 -52.5l-15 -69h86l-14 -67h-86l-97 -457h-84 l97 457h-173l-97 -457h-84zM553 0l111 524h84l-111 -524h-84zM670 604l22 103h104l-22 -103h-104z" />
<glyph unicode="&#xfb04;" horiz-adv-x="757" d="M39 0l97 457h-70l14 67h70l19 89q12 56 51.5 87.5t97.5 31.5q22 0 45 -5l-15 -69q-14 2 -27 2q-32 0 -48 -14.5t-24 -52.5l-15 -69h173l19 89q12 56 51.5 87.5t97.5 31.5q23 0 45 -5l-15 -69q-14 2 -27 2q-32 0 -48 -14.5t-24 -52.5l-15 -69h86l-14 -67h-86l-97 -457h-84 l97 457h-173l-97 -457h-84zM553 0l155 729h84l-155 -729h-84z" />
<glyph horiz-adv-x="1000" />
<glyph horiz-adv-x="1000" />
<glyph unicode="&#xd;" horiz-adv-x="1000" />
<glyph unicode=" "  horiz-adv-x="278" />
<glyph unicode="&#x09;" horiz-adv-x="278" />
<glyph unicode="&#xa0;" horiz-adv-x="278" />
<glyph unicode="!" horiz-adv-x="278" d="M47 0l22 103h84l-22 -103h-84zM105 168l23 211l74 350h84l-74 -350l-67 -211h-40z" />
<glyph unicode="&#x22;" horiz-adv-x="355" d="M128 464v134l24 111h94l-24 -111l-55 -134h-39zM287 464v134l24 111h94l-24 -111l-55 -134h-39z" />
<glyph unicode="#" d="M4 191l14 64h112l73 184h-109l13 64h121l77 194h76l-76 -194h124l77 194h76l-77 -194h94l-14 -64h-105l-73 -184h107l-14 -64h-118l-83 -211h-76l83 211h-125l-83 -211h-76l83 211h-101zM206 255h125l73 184h-124z" />
<glyph unicode="$" d="M19 134q0 29 8 74h79l-1 -11q-3 -29 -3 -47q0 -41 23 -64.5t78 -39.5l58 272q-90 31 -114 52q-45 39 -45 99q0 103 65.5 171t178.5 76l11 54h59l-11 -54q75 -4 116.5 -43.5t41.5 -107.5q0 -22 -6 -46h-79l1 15q1 9 1 21q0 39 -24.5 64t-65.5 27l-53 -249q90 -28 121 -48 q57 -38 57 -106q0 -114 -73 -188.5t-194 -77.5l-22 -103h-59l22 103q-88 14 -129 51.5t-41 105.5zM185 501q0 -37 21.5 -58.5t73.5 -37.5l51 240q-63 -4 -104.5 -46t-41.5 -98zM262 46q79 6 122 49t43 116q0 36 -24.5 58t-84.5 40z" />
<glyph unicode="%" horiz-adv-x="889" d="M84 478q0 79 65 141.5t146 62.5q58 0 98 -37.5t40 -92.5q0 -81 -64.5 -143.5t-148.5 -62.5q-59 0 -97.5 37.5t-38.5 94.5zM154 494q0 -35 23.5 -58.5t58.5 -23.5q49 0 88 37.5t39 84.5q0 37 -23 59.5t-61 22.5q-48 0 -86.5 -37.5t-38.5 -84.5zM159 -20l550 729h66 l-550 -729h-66zM496 116q0 79 65 141.5t146 62.5q58 0 98 -37.5t40 -92.5q0 -81 -64.5 -143.5t-148.5 -62.5q-59 0 -97.5 37.5t-38.5 94.5zM566 132q0 -35 23.5 -58.5t58.5 -23.5q49 0 88 37.5t39 84.5q0 37 -23 59.5t-61 22.5q-48 0 -86.5 -37.5t-38.5 -84.5z" />
<glyph unicode="&#x26;" horiz-adv-x="667" d="M33 128q0 83 48 141.5t157 120.5q-7 18 -9 23l-18 42q-14 34 -14 68q0 73 63 129.5t145 56.5q61 0 97 -33t36 -89q0 -65 -44 -116t-137 -93l98 -163q43 50 60 119h79q-20 -99 -100 -183l90 -151h-106l-46 78q-68 -56 -118.5 -78.5t-110.5 -22.5q-79 0 -124.5 40.5 t-45.5 110.5zM121 159q0 -49 29.5 -77t79.5 -28q69 0 168 83l-119 199q-84 -45 -121 -86.5t-37 -90.5zM280 533q0 -21 8 -38.5t39 -60.5q69 35 98.5 67t29.5 73q0 30 -18.5 47.5t-50.5 17.5q-44 0 -75 -31t-31 -75z" />
<glyph unicode="'" horiz-adv-x="191" d="M124 464v134l24 111h94l-24 -111l-55 -134h-39z" />
<glyph unicode="(" horiz-adv-x="333" d="M63 116q0 152 73.5 314t204.5 299h55q-255 -313 -255 -650q0 -149 55 -292h-55q-78 137 -78 329z" />
<glyph unicode=")" horiz-adv-x="333" d="M-57 -213q124 152 189.5 317t65.5 327q0 158 -55 298h55q35 -62 56 -149.5t21 -172.5q0 -156 -73.5 -320t-203.5 -300h-55z" />
<glyph unicode="*" horiz-adv-x="389" d="M119 598l30 59l100 -40l20 112h62l-29 -112l110 38l9 -62l-113 -27l53 -91l-58 -37l-44 96l-81 -95l-47 40l92 88z" />
<glyph unicode="+" horiz-adv-x="584" d="M68 216v68h190v190h68v-190h190v-68h-190v-190h-68v190h-190z" />
<glyph unicode="," horiz-adv-x="278" d="M5 -147l8 38q36 0 54.5 24t28.5 85h-59l22 103h105l-26 -119q-14 -62 -47 -97t-80 -34h-6z" />
<glyph unicode="-" horiz-adv-x="333" d="M47 240l15 72h239l-15 -72h-239z" />
<glyph unicode="." horiz-adv-x="278" d="M37 0l22 103h104l-22 -103h-104z" />
<glyph unicode="/" horiz-adv-x="278" d="M-62 -20l391 749h55l-391 -749h-55z" />
<glyph unicode="0" d="M50 178q0 108 31.5 224t78.5 185q83 122 208 122q85 0 132.5 -51.5t47.5 -143.5q0 -108 -31 -223t-79 -184q-84 -122 -210 -122q-80 0 -129 50t-49 143zM138 189q0 -59 27 -93t74 -34q49 0 85.5 30t66.5 94q28 60 48.5 153.5t20.5 164.5q0 61 -27.5 94.5t-76.5 33.5 q-94 0 -150 -123q-28 -62 -48 -155.5t-20 -164.5z" />
<glyph unicode="1" d="M158 505l13 63q108 15 143.5 37.5t75.5 103.5h58l-151 -709h-88l108 505h-159z" />
<glyph unicode="2" d="M-16 0q33 121 83 179.5t180 127.5l104 52q62 31 96.5 74.5t34.5 91.5t-32 77.5t-84 29.5q-71 0 -114.5 -41t-66.5 -128h-88q29 127 97 186.5t184 59.5q89 0 140.5 -47t51.5 -125q0 -150 -198 -250l-112 -57q-140 -71 -163 -143h377l-19 -87h-471z" />
<glyph unicode="3" d="M23 152q0 24 5 62h88l-2 -13q-3 -16 -3 -39q0 -46 32.5 -73t85.5 -27q84 0 136.5 48.5t52.5 129.5q0 43 -35 67t-97 24q-24 0 -45 -2l16 75h18q98 0 142 35.5t44 105.5q0 40 -28.5 63.5t-77.5 23.5q-67 0 -108.5 -36t-59.5 -116h-88q32 122 98 175.5t170 53.5 q82 0 132 -40t50 -106t-28.5 -111t-92.5 -81q42 -21 60 -48t18 -70q0 -112 -80.5 -190t-209.5 -78q-94 0 -143.5 43t-49.5 124z" />
<glyph unicode="4" d="M13 170l20 92l416 447h66l-98 -461h106l-17 -78h-106l-36 -170h-88l36 170h-299zM108 248h221l65 308z" />
<glyph unicode="5" d="M22 160v22h88q4 -120 125 -120q85 0 139.5 57.5t54.5 149.5q0 58 -33 89.5t-93 31.5q-44 0 -73.5 -13.5t-75.5 -53.5h-80l132 371h370l-18 -87h-300l-67 -183q70 43 140 43q85 0 135.5 -47t50.5 -125q0 -131 -87.5 -220.5t-206.5 -89.5q-91 0 -146 43.5t-55 131.5z" />
<glyph unicode="6" d="M44 171q0 94 30.5 207.5t73.5 181.5q95 149 237 149q80 0 128 -43t48 -115q0 -16 -1 -27h-88l1 5q-2 47 -28.5 75t-73.5 28q-76 0 -133 -73.5t-79 -200.5q84 84 179 84q80 0 129 -47t49 -124q0 -116 -83.5 -201t-194.5 -85q-89 0 -141.5 50t-52.5 136zM132 178 q0 -53 33.5 -84.5t85.5 -31.5q75 0 126 55.5t51 138.5q0 49 -31.5 79t-82.5 30q-77 0 -129.5 -54t-52.5 -133z" />
<glyph unicode="7" d="M87 0q66 154 155.5 282.5t264.5 324.5h-383l19 87h475l-17 -81q-131 -128 -249 -301t-167 -312h-98z" />
<glyph unicode="8" d="M25 149q0 152 158 224l-12 10q-31 25 -41.5 44.5t-10.5 52.5q0 95 75 162t177 67q83 0 133 -41t50 -107q0 -56 -25 -98t-86 -80l-16 -10q84 -48 84 -130q0 -105 -84 -181.5t-194 -76.5q-95 0 -151.5 44t-56.5 120zM113 164q0 -47 35 -74.5t91 -27.5q79 0 131.5 47.5 t52.5 120.5q0 49 -35 76.5t-94 27.5q-76 0 -128.5 -49t-52.5 -121zM207 491q0 -39 28.5 -61t78.5 -22q66 0 109 39.5t43 97.5q0 41 -29 64t-80 23q-65 0 -107.5 -40t-42.5 -101z" />
<glyph unicode="9" d="M35 143q0 16 1 27h87q0 -52 25.5 -80t73.5 -28q151 0 211 270q-57 -48 -91 -64t-87 -16q-81 0 -129 47t-48 126q0 108 78 196t198 88q90 0 142.5 -51.5t52.5 -132.5q0 -102 -40 -251q-36 -134 -116.5 -211.5t-182.5 -77.5q-80 0 -127.5 43t-47.5 115zM165 440 q0 -53 30 -82t84 -29q76 0 129.5 55t53.5 134q0 50 -34.5 82t-85.5 32q-73 0 -125 -56t-52 -136z" />
<glyph unicode=":" horiz-adv-x="278" d="M40 0l22 103h104l-22 -103h-104zM130 421l14 103h112l-22 -103h-104z" />
<glyph unicode=";" horiz-adv-x="278" d="M5 -147l8 38q36 0 54.5 24t28.5 85h-59l22 103h105l-26 -119q-14 -62 -47 -97t-80 -34h-6zM126 421l22 103h104l-22 -103h-104z" />
<glyph unicode="&#x3c;" horiz-adv-x="584" d="M114 224v52l334 293v-90l-260 -229l260 -229v-90z" />
<glyph unicode="=" horiz-adv-x="584" d="M68 125v68h448v-68h-448zM68 307v68h448v-68h-448z" />
<glyph unicode="&#x3e;" horiz-adv-x="584" d="M114 21l260 229l-260 229v90l334 -293v-52l-334 -293v90z" />
<glyph unicode="?" d="M128 507q47 234 265 234q85 0 133 -43t48 -108q0 -58 -34 -110.5t-111 -109.5q-56 -42 -75 -64.5t-29 -59.5l-10 -47h-90l12 55q10 45 32 71.5t104 91.5q58 46 81.5 82t23.5 79q0 38 -30 62t-77 24q-66 0 -103.5 -37.5t-54.5 -119.5h-85zM183 0l22 103h90l-22 -103h-90z " />
<glyph unicode="@" horiz-adv-x="1015" d="M30 182q0 137 81 266t221.5 211t298.5 82q154 0 254.5 -87t100.5 -220q0 -158 -102 -267.5t-238 -109.5q-48 0 -73.5 16.5t-25.5 46.5v14q-6 -4 -19.5 -14t-18 -13t-15 -10.5t-15 -9.5t-13 -7.5t-13.5 -7t-13 -4.5t-14.5 -3.5t-14 -1.5t-16.5 -1q-61 0 -98 38t-37 101 q0 74 47.5 150t121.5 124.5t147 48.5q91 0 109 -89l36 66h82l-149 -280q-24 -45 -24 -58q0 -14 12.5 -25t28.5 -11q53 0 107.5 43.5t89.5 111t35 132.5q0 108 -83 179t-210 71q-121 0 -235.5 -67.5t-185.5 -176.5t-71 -224q0 -117 85 -189t222 -72q82 0 204 32l13 -67 q-115 -42 -245 -42q-150 0 -258.5 90.5t-108.5 233.5zM352 210q0 -37 21.5 -61.5t54.5 -24.5q46 0 95 48.5t79 111t30 106.5q0 65 -68 65q-74 0 -143 -82.5t-69 -162.5z" />
<glyph unicode="A" horiz-adv-x="667" d="M-33 0l415 729h120l101 -729h-102l-27 219h-285l-123 -219h-99zM233 297h231l-40 333z" />
<glyph unicode="B" horiz-adv-x="667" d="M29 0l155 729h296q84 0 132.5 -39.5t48.5 -105.5q0 -67 -35.5 -119t-100.5 -81q53 -23 75 -51.5t22 -74.5q0 -110 -77.5 -184t-185.5 -74h-330zM140 82h227q70 0 114.5 45t44.5 115q0 91 -106 91h-226zM211 415h180q86 0 130 40t44 106q0 86 -124 86h-180z" />
<glyph unicode="C" horiz-adv-x="722" d="M63 247q0 94 34.5 191t93.5 168q117 141 292 141q106 0 168.5 -62t68.5 -182h-96q-12 163 -158 163q-136 0 -226 -133q-81 -121 -81 -268q0 -91 47.5 -146.5t125.5 -55.5q94 0 150 46.5t105 156.5h98q-64 -151 -149.5 -217.5t-217.5 -66.5q-119 0 -187 72t-68 193z" />
<glyph unicode="D" horiz-adv-x="722" d="M39 0l155 729h282q109 0 171 -67.5t62 -173.5q0 -206 -112.5 -347t-275.5 -141h-282zM150 82h172q129 0 210 112.5t81 285.5q0 78 -45.5 122.5t-125.5 44.5h-171z" />
<glyph unicode="E" horiz-adv-x="667" d="M40 0l155 729h506l-17 -82h-412l-50 -233h396l-18 -82h-395l-54 -250h429l-17 -82h-523z" />
<glyph unicode="F" horiz-adv-x="611" d="M40 0l155 729h489l-17 -82h-395l-50 -233h347l-17 -82h-347l-71 -332h-94z" />
<glyph unicode="G" horiz-adv-x="778" d="M60 266q0 118 55 227.5t159 181.5t232 72q117 0 185 -60.5t68 -161.5v-17h-91q-1 75 -51 116.5t-129 41.5q-140 0 -236 -115t-96 -269q0 -105 51.5 -162t154.5 -57q98 0 175.5 59t99.5 155l6 26h-222l18 82h304l-82 -385h-59l-5 86q-69 -58 -129 -81t-139 -23 q-121 0 -195 75t-74 209z" />
<glyph unicode="H" horiz-adv-x="722" d="M33 0l155 729h94l-67 -315h373l67 315h94l-155 -729h-94l71 332h-373l-71 -332h-94z" />
<glyph unicode="I" horiz-adv-x="278" d="M50 0l155 729h94l-155 -729h-94z" />
<glyph unicode="J" horiz-adv-x="500" d="M-2 127q0 23 6 48l13 59h94l-13 -61q-4 -16 -4 -34q0 -34 25 -55t65 -21q56 0 91.5 37t53.5 121l108 508h94l-115 -542q-21 -98 -87 -151.5t-165 -53.5q-78 0 -122 41.5t-44 103.5z" />
<glyph unicode="K" horiz-adv-x="667" d="M29 0l155 729h94l-79 -373l444 373h120l-361 -298l206 -431h-110l-168 376l-154 -127l-53 -249h-94z" />
<glyph unicode="L" d="M30 0l155 729h94l-138 -647h360l-17 -82h-454z" />
<glyph unicode="M" horiz-adv-x="833" d="M25 0l155 729h129l80 -627l346 627h131l-155 -729h-89l129 605l-334 -605h-97l-77 605l-129 -605h-89z" />
<glyph unicode="N" horiz-adv-x="722" d="M26 0l155 729h104l250 -598l127 598h89l-155 -729h-106l-249 591l-126 -591h-89z" />
<glyph unicode="O" horiz-adv-x="778" d="M55 268q0 122 57 232t157.5 178.5t218.5 68.5q136 0 213.5 -73t77.5 -204q0 -127 -53 -237.5t-154.5 -180.5t-229.5 -70q-134 0 -210.5 74.5t-76.5 211.5zM151 276q0 -101 55.5 -157t148.5 -56t169.5 56t117.5 144.5t41 188.5q0 101 -55.5 157.5t-151.5 56.5 q-92 0 -167.5 -56t-116.5 -145t-41 -189z" />
<glyph unicode="P" horiz-adv-x="667" d="M41 0l155 729h302q185 0 185 -161q0 -105 -72 -182t-182 -77h-228l-66 -309h-94zM218 391h194q77 0 126 46t49 113q0 97 -120 97h-194z" />
<glyph unicode="Q" horiz-adv-x="778" d="M55 269q0 121 55.5 230.5t156 178.5t221.5 69q138 0 214.5 -75.5t76.5 -209.5q0 -108 -45 -207.5t-128 -173.5l78 -77l-60 -58l-87 87q-55 -29 -96.5 -40t-99.5 -11q-135 0 -210.5 76t-75.5 211zM151 277q0 -101 55.5 -157.5t153.5 -56.5q54 0 119 29l-62 62l58 56 l74 -73q134 129 134 315q0 102 -56 158t-151 56q-91 0 -167 -56t-117 -145t-41 -188z" />
<glyph unicode="R" horiz-adv-x="722" d="M43 0l155 729h336q96 0 141 -37.5t45 -116.5q0 -74 -34 -124.5t-106 -90.5q35 -23 47.5 -43t12.5 -53q0 -28 -21 -138q-6 -32 -6 -50q0 -34 21 -53l-5 -23h-113q-4 28 -4 47q0 24 3 40.5t21 91.5q8 35 8 60q0 75 -101 75h-239l-67 -314h-94zM221 396h231q83 0 127.5 45.5 t44.5 116.5q0 45 -27 67t-92 22h-230z" />
<glyph unicode="S" horiz-adv-x="667" d="M40 174q0 30 9 63h87q-4 -25 -4 -41q0 -68 40 -100.5t125 -32.5q100 0 163.5 43.5t63.5 107.5q0 35 -26.5 59t-86.5 41l-171 49q-50 14 -80.5 51t-30.5 84q0 38 20.5 85.5t51.5 78.5q82 85 238 85q105 0 165.5 -46.5t60.5 -123.5q0 -19 -8 -56h-88q4 27 4 36 q0 109 -152 109q-86 0 -141 -40.5t-55 -101.5q0 -33 21.5 -51t79.5 -35l172 -49q56 -16 89 -56.5t33 -90.5q0 -42 -24.5 -91.5t-62.5 -84.5q-90 -84 -252 -84q-113 0 -177 51t-64 141z" />
<glyph unicode="T" horiz-adv-x="611" d="M108 647l17 82h573l-17 -82h-238l-138 -647h-94l138 647h-241z" />
<glyph unicode="U" horiz-adv-x="722" d="M75 160q0 30 14 96l101 473h94l-108 -507q-5 -20 -5 -44q0 -52 44.5 -83.5t116.5 -31.5q85 0 142.5 42.5t73.5 116.5l108 507h94l-108 -507q-23 -109 -112.5 -174.5t-215.5 -65.5q-107 0 -173 50t-66 128z" />
<glyph unicode="V" horiz-adv-x="667" d="M135 729h97l83 -617l336 617h99l-408 -729h-100z" />
<glyph unicode="W" horiz-adv-x="944" d="M127 0v729h115v-592l288 592h96l41 -592l263 592h104l-340 -729h-102l-41 592l-290 -592h-134z" />
<glyph unicode="X" horiz-adv-x="667" d="M-28 0l339 374l-167 355h113l125 -285l248 285h114l-323 -355l179 -374h-115l-134 304l-264 -304h-115z" />
<glyph unicode="Y" horiz-adv-x="667" d="M118 729h112l136 -357l289 357h111l-368 -443l-61 -286h-94l61 286z" />
<glyph unicode="Z" horiz-adv-x="611" d="M-22 0l18 84l555 563h-406l17 82h525l-18 -84l-556 -563h438l-17 -82h-556z" />
<glyph unicode="[" horiz-adv-x="278" d="M-31 -213l200 942h186l-15 -72h-102l-170 -798h102l-15 -72h-186z" />
<glyph unicode="\" horiz-adv-x="278" d="M97 729h55l78 -749h-55z" />
<glyph unicode="]" horiz-adv-x="278" d="M-73 -213l15 72h103l170 798h-103l15 72h187l-200 -942h-187z" />
<glyph unicode="^" horiz-adv-x="469" d="M65 329l234 380h73l74 -380h-69l-58 299l-182 -299h-72z" />
<glyph unicode="_" d="M-109 -177l11 50h599l-11 -50h-599z" />
<glyph unicode="`" horiz-adv-x="333" d="M93 729h112l65 -148h-60z" />
<glyph unicode="a" d="M16 109q0 89 81 140q36 23 79.5 33t145.5 20q54 5 75 17t26 42l3 18q2 16 2 19q0 28 -30.5 46t-75.5 18q-108 0 -137 -93h-84q14 83 76.5 126.5t166.5 43.5q79 0 126.5 -31t47.5 -82q0 -10 -6 -37l-61 -287q-1 -3 -1 -10q0 -29 38 -29q8 0 17 2l-13 -65q-51 -9 -53 -9 q-39 0 -59 11.5t-20 40.5l1 15q-53 -44 -98.5 -58.5t-101.5 -14.5q-68 0 -106.5 32.5t-38.5 91.5zM104 119q0 -62 90 -62q66 0 122.5 34.5t66.5 80.5l18 86q-43 -15 -146 -29q-80 -11 -115.5 -37t-35.5 -73z" />
<glyph unicode="b" d="M4 0l155 729h84l-58 -275q48 51 84.5 68t91.5 17q76 0 126.5 -56t50.5 -140q0 -90 -35 -171t-103 -134t-154 -53q-105 0 -149 97l-18 -82h-75zM136 187q0 -59 30 -92t82 -33q82 0 142 76t60 186q0 65 -31 101.5t-86 36.5q-79 0 -138 -79.5t-59 -195.5z" />
<glyph unicode="c" horiz-adv-x="500" d="M27 174q0 160 84 262.5t220 102.5q77 0 125 -43.5t48 -103.5q0 -1 -0.5 -5t-1 -11t-0.5 -13l-1 -15h-84q1 9 1 22q0 43 -27.5 67.5t-74.5 24.5q-87 0 -144 -83t-57 -194q0 -58 31 -90.5t83 -32.5q112 0 155 118h84q-30 -104 -91.5 -149.5t-161.5 -45.5q-86 0 -137 53 t-51 136z" />
<glyph unicode="d" d="M24 174q0 158 82 261.5t207 103.5q53 0 86 -21t57 -70l60 281h84l-155 -729h-81l17 80q-22 -42 -76 -68.5t-109 -26.5q-78 0 -125 51t-47 138zM112 194q0 -64 31 -98t87 -34q79 0 136 79t57 186q0 64 -31 99.5t-87 35.5q-81 0 -137 -80t-56 -188z" />
<glyph unicode="e" d="M35 177q0 61 24 134t59 120q37 50 96.5 79t124.5 29q81 0 136 -49.5t55 -121.5q0 -42 -14 -117l-2 -13h-386q-6 -24 -5 -46q0 -63 32.5 -96.5t92.5 -33.5q100 0 154 97h84q-23 -80 -92 -127t-160 -47q-89 0 -144 56t-55 136zM146 310h294q2 24 2 29q0 56 -31.5 89.5 t-84.5 33.5q-60 0 -110.5 -43t-69.5 -109z" />
<glyph unicode="f" horiz-adv-x="278" d="M39 0l97 457h-70l14 67h70l19 89q12 56 51.5 87.5t97.5 31.5q22 0 45 -5l-15 -69q-14 2 -27 2q-32 0 -48 -14.5t-24 -52.5l-15 -69h86l-14 -67h-86l-97 -457h-84z" />
<glyph unicode="g" d="M-18 -91q0 10 1 18l1 13h84v-14q0 -34 28.5 -53t79.5 -19q80 0 123.5 44t65.5 146l4 20q-76 -79 -172 -79q-77 0 -125 51t-48 133q0 148 84 259t211 111q96 0 139 -93l17 78h76l-93 -439q-20 -95 -43 -147.5t-61 -88.5q-70 -67 -195 -67q-80 0 -128.5 34.5t-48.5 92.5z M112 185q0 -59 29.5 -93.5t79.5 -34.5q87 0 142.5 83.5t55.5 198.5q0 56 -29 89.5t-77 33.5q-86 0 -143.5 -84t-57.5 -193z" />
<glyph unicode="h" d="M20 0l155 729h84l-57 -270q47 44 89 62t98 18q63 0 99 -33.5t36 -92.5q0 -20 -4 -37l-80 -376h-84l73 343q6 27 6 39q0 38 -23.5 61.5t-61.5 23.5q-68 0 -118 -48t-67 -130l-61 -289h-84z" />
<glyph unicode="i" horiz-adv-x="222" d="M19 0l111 524h84l-111 -524h-84zM136 604l22 103h104l-22 -103h-104z" />
<glyph unicode="j" horiz-adv-x="222" d="M-115 -215l15 71q18 -2 25 -2q38 0 53.5 14t24.5 56l127 600h84l-134 -633q-14 -62 -52 -85.5t-124 -23.5q-8 0 -19 3zM136 604l22 103h104l-22 -103h-104z" />
<glyph unicode="k" horiz-adv-x="500" d="M8 0l155 729h84l-90 -423l269 218h108l-222 -181l140 -343h-96l-114 291l-107 -88l-43 -203h-84z" />
<glyph unicode="l" horiz-adv-x="222" d="M18 0l155 729h84l-155 -729h-84z" />
<glyph unicode="m" horiz-adv-x="833" d="M21 0l111 524h76l-13 -65q48 45 87.5 62.5t90.5 17.5q97 0 121 -83q86 83 181 83q61 0 94 -33.5t33 -77.5q0 -33 -6 -55l-79 -373h-84l72 341q9 34 9 49q0 36 -20.5 56.5t-55.5 20.5q-55 0 -100 -39.5t-57 -98.5l-70 -329h-84l77 361q4 17 4 37q0 31 -22.5 50t-59.5 19 q-50 0 -94.5 -40.5t-56.5 -97.5l-70 -329h-84z" />
<glyph unicode="n" d="M20 0l111 524h76l-13 -65q78 80 194 80q62 0 99 -34t37 -91q0 -21 -4 -38l-80 -376h-84l74 349q6 32 6 37q0 35 -25 58t-62 23q-68 0 -117.5 -48t-66.5 -130l-61 -289h-84z" />
<glyph unicode="o" d="M31 168q0 100 36 184t106 135.5t161 51.5q88 0 140 -53t52 -134q0 -158 -85 -262.5t-220 -104.5q-85 0 -137.5 50t-52.5 133zM119 188q0 -59 31 -92.5t85 -33.5q88 0 145.5 79t57.5 192q0 61 -31 95t-86 34q-87 0 -144.5 -81.5t-57.5 -192.5z" />
<glyph unicode="p" d="M-43 -213l157 737h81l-18 -84q20 42 75 70.5t110 28.5q80 0 127 -52.5t47 -142.5q0 -152 -81.5 -255.5t-208.5 -103.5q-53 0 -86.5 20.5t-57.5 66.5l-61 -285h-84zM134 188q0 -59 32.5 -92.5t87.5 -33.5q83 0 138.5 78t55.5 184q0 65 -31.5 101.5t-87.5 36.5 q-81 0 -138 -82.5t-57 -191.5z" />
<glyph unicode="q" d="M22 177q0 91 35 172.5t103.5 135.5t155.5 54q111 0 147 -101l19 86h75l-157 -737h-84l60 279q-52 -50 -86.5 -65.5t-89.5 -15.5q-76 0 -127 54.5t-51 137.5zM110 190q0 -59 32 -93.5t86 -34.5q79 0 137.5 77.5t58.5 193.5q0 59 -30 94t-80 35q-84 0 -144 -78t-60 -194z " />
<glyph unicode="r" horiz-adv-x="333" d="M19 0l111 524h76l-17 -82q46 53 83.5 75t81.5 22q12 0 32 -3l-18 -85h-10q-159 0 -197 -179l-58 -272h-84z" />
<glyph unicode="s" horiz-adv-x="500" d="M13 113q0 23 6 51h89q-2 -20 -2 -25q0 -37 28 -57t80 -20q59 0 101 27t42 69q0 19 -13.5 33.5t-56.5 25.5l-74 19q-77 19 -107.5 45t-30.5 72q0 81 64 133.5t167 52.5q73 0 118.5 -33t45.5 -85q0 -18 -6 -43h-84q1 8 1 22q0 29 -24 45.5t-68 16.5q-57 0 -91.5 -24 t-34.5 -63t85 -60l76 -19q66 -16 93.5 -42.5t27.5 -72.5q0 -89 -67 -142.5t-179 -53.5q-87 0 -136.5 34t-49.5 94z" />
<glyph unicode="t" horiz-adv-x="278" d="M50 72q0 16 3 31l76 354h-71l14 67h71l31 144h84l-31 -144h89l-14 -67h-89l-75 -351q-2 -12 -2 -14q0 -12 10 -19.5t26 -7.5q13 0 48 8l-16 -73q-24 -7 -65 -7t-65 21t-24 58z" />
<glyph unicode="u" d="M40 94q0 19 3 34l84 396h84l-77 -363q-3 -15 -3 -27q0 -35 24 -56t65 -21q64 0 113 48.5t66 129.5l61 289h84l-111 -524h-76l13 61q-83 -76 -192 -76q-65 0 -101.5 29t-36.5 80z" />
<glyph unicode="v" horiz-adv-x="500" d="M72 524h92l49 -422l244 422h91l-311 -524h-91z" />
<glyph unicode="w" horiz-adv-x="722" d="M68 524h110v-408l189 408h116v-408l196 408h91l-264 -524h-107v418l-195 -418h-96z" />
<glyph unicode="x" horiz-adv-x="500" d="M-33 0l239 267l-118 257h93l88 -192l167 192h97l-233 -257l123 -267h-94l-90 200l-174 -200h-98z" />
<glyph unicode="y" horiz-adv-x="500" d="M-42 -208l16 75q36 -4 44 -4q28 0 44 10.5t36 41.5l52 81l-68 528h90l46 -407l233 407h89l-368 -634q-63 -108 -165 -108q-26 0 -49 10z" />
<glyph unicode="z" horiz-adv-x="500" d="M-19 0l18 74l395 378h-294l15 72h392l-18 -75l-392 -377h326l-15 -72h-427z" />
<glyph unicode="{" horiz-adv-x="334" d="M41 224l15 69q44 7 68 39t38 99l36 166q14 66 50.5 99t85.5 33h47l-14 -65h-16q-37 0 -53.5 -14t-24.5 -53l-39 -181q-22 -109 -108 -157q28 -18 38 -38.5t10 -58.5q0 -32 -6 -61l-39 -181q-4 -16 -4 -33q0 -34 54 -34h16l-14 -66h-47q-41 0 -63.5 21t-22.5 58q0 27 6 54 l35 166q9 41 9 67q0 62 -57 71z" />
<glyph unicode="|" horiz-adv-x="260" d="M96 -213v942h68v-942h-68z" />
<glyph unicode="}" horiz-adv-x="334" d="M-66 -213l14 65h16q37 0 53.5 14t24.5 53l39 181q13 67 35.5 100.5t72.5 56.5q-48 42 -48 105q0 26 6 54l39 181q4 16 4 33q0 34 -54 34h-16l14 65h47q38 0 62 -22.5t24 -59.5q0 -21 -6 -50l-35 -166q-9 -45 -9 -72q0 -57 57 -66l-15 -70q-85 -13 -106 -138l-36 -166 q-29 -132 -136 -132h-47z" />
<glyph unicode="~" horiz-adv-x="584" d="M87 293q19 70 54.5 107.5t83.5 37.5q27 0 51 -16l102 -69q26 -17 47 -17q51 0 67 75h52q-12 -68 -49 -105.5t-87 -37.5q-40 0 -74 26l-85 63q-21 15 -39 15q-47 0 -71 -79h-52z" />
<glyph unicode="&#xa1;" horiz-adv-x="278" d="M3 -205l74 350l67 211h40l-23 -211l-74 -350h-84zM136 421l22 103h84l-22 -103h-84z" />
<glyph unicode="&#xa2;" d="M46 171q0 148 78 251t209 116l19 90h40l-19 -90q66 0 114 -43t48 -103q0 -1 -0.5 -5t-1 -11t-0.5 -13l-1 -15h-84q1 9 1 23q0 76 -80 90l-12 2l-87 -410q53 6 87.5 36t57.5 91h84q-26 -99 -85.5 -148t-159.5 -55l-21 -97h-40l21 98q-77 8 -122.5 60.5t-45.5 132.5z M134 183q0 -53 26 -87t71 -40l85 404q-80 -15 -131 -96.5t-51 -180.5z" />
<glyph unicode="&#xa3;" d="M-6 52q174 115 174 219q0 18 -10 50h-113l12 55h83q-6 18 -13 37t-10 26.5t-5 18t-2 22.5q0 97 86 173t196 76q83 0 134.5 -41.5t51.5 -108.5q0 -28 -9 -82h-88q9 33 9 57q0 45 -31.5 71.5t-84.5 26.5q-71 0 -119.5 -46t-48.5 -114q-3 -4 -0.5 -16.5t3 -14.5t7.5 -21 t12 -36l9 -28h160l-12 -55h-137l1 -11q2 -26 2 -27q0 -34 -18 -73q-18 -41 -41.5 -63.5t-105.5 -85.5q78 39 133 39q27 0 53 -9q63 -21 102 -21q40 0 94 31l25 -70q-66 -54 -142 -54q-49 0 -139 35q-31 11 -63 11q-53 0 -118 -37z" />
<glyph unicode="&#xa4;" d="M10 144l66 56q-38 61 -18 151q18 92 81 150l-43 54l58 48l45 -56q70 51 156 51t134 -51l69 56l38 -48l-67 -54q38 -57 19 -150q-19 -88 -82 -151l42 -56l-55 -45l-43 58q-70 -55 -160 -55q-89 0 -138 55l-67 -58zM131 351q-16 -73 23.5 -126t110.5 -53t132.5 53t77.5 126 q15 71 -24.5 124t-110.5 53t-132.5 -53t-76.5 -124z" />
<glyph unicode="&#xa5;" d="M50 175l11 51h174l17 77h-175l11 51h154l-130 355h85l116 -322l248 322h85l-277 -355h154l-11 -51h-172l-17 -77h172l-10 -51h-173l-37 -175h-88l37 175h-174z" />
<glyph unicode="&#xa6;" horiz-adv-x="260" d="M96 164h68v-377h-68v377zM96 352v377h68v-377h-68z" />
<glyph unicode="&#xa7;" d="M13 -75q0 24 11 61h85q-8 -28 -8 -45q0 -34 24.5 -55.5t62.5 -21.5q46 0 79 30.5t33 71.5q0 39 -38 72l-145 124q-63 53 -63 112q0 68 48 123q17 19 33.5 30.5t61.5 35.5q-26 33 -26 77q0 74 65.5 131.5t149.5 57.5q67 0 110 -38t43 -97q0 -11 -1.5 -17.5t-5 -20 t-7.5 -32.5h-84q10 29 10 51q0 35 -22.5 56t-60.5 21q-42 0 -73.5 -30t-31.5 -69q0 -17 8.5 -29.5t33.5 -32.5l127 -101q50 -40 63.5 -62.5t13.5 -60.5q0 -65 -39.5 -119.5t-107.5 -76.5q30 -41 30 -87q0 -73 -64 -135t-153 -62q-73 0 -117.5 38t-44.5 100zM142 309 q0 -24 9 -40.5t35 -39.5l138 -121q97 50 97 123q0 48 -53 91l-131 106q-53 -30 -74 -56.5t-21 -62.5z" />
<glyph unicode="&#xa8;" horiz-adv-x="333" d="M118 604l22 102h91l-22 -102h-91zM280 604l22 102h91l-22 -102h-91z" />
<glyph unicode="&#xa9;" horiz-adv-x="737" d="M21 334q0 144 102 246.5t246 102.5t246.5 -102.5t102.5 -246.5t-102.5 -246t-246.5 -102t-246 102t-102 246zM64 334q0 -127 89 -216t216 -89t216.5 89t89.5 216t-89.5 216.5t-216.5 89.5t-216 -89.5t-89 -216.5zM173 270q-1 51 19 104t54 91q69 78 174 78 q65 0 103 -35.5t42 -103.5h-64q-8 88 -92 88q-77 0 -128 -70q-46 -65 -44 -140q2 -47 29.5 -76.5t71.5 -29.5q55 0 86.5 25t58.5 84h66q-37 -85 -88 -122.5t-131 -37.5q-72 0 -113.5 39.5t-43.5 105.5z" />
<glyph unicode="&#xaa;" horiz-adv-x="370" d="M57 303l11 51h288l-11 -51h-288zM86 479q0 58 50 89q15 9 31 14.5t39 9.5t64 8q36 4 45 10.5t15 30.5q2 10 2 15q0 35 -62 35q-63 0 -80 -57h-56q18 64 52 86t101 22q48 0 76 -17.5t28 -48.5q0 -15 -1 -18l-41 -190l-1 -7q0 -5 5 -9.5t12 -4.5q1 0 4.5 0.5t7.5 1t5 0.5 l-9 -44l-10 -2q-17 -4 -26 -4q-42 0 -47 43q-46 -43 -109 -43q-46 0 -70.5 21t-24.5 59zM146 486q0 -37 53 -37q34 0 66.5 21t37.5 45l10 51q-20 -7 -51 -11q-50 -7 -76 -17t-33 -21.5t-7 -30.5z" />
<glyph unicode="&#xab;" d="M97 227l19 89l177 122l-18 -83l-121 -84l86 -83l-18 -82zM302 227l19 89l177 122l-18 -83l-121 -84l86 -83l-18 -82z" />
<glyph unicode="&#xac;" horiz-adv-x="584" d="M68 307v68h448v-216h-68v148h-380z" />
<glyph unicode="&#xad;" horiz-adv-x="333" d="M47 240l15 72h239l-15 -72h-239z" />
<glyph unicode="&#xae;" horiz-adv-x="737" d="M21 334q0 144 102 246.5t246 102.5t246.5 -102.5t102.5 -246.5t-102.5 -246t-246.5 -102t-246 102t-102 246zM64 334q0 -127 89 -216t216 -89t216.5 89t89.5 216t-89.5 216.5t-216.5 89.5t-216 -89.5t-89 -216.5zM169 135l85 398h201q114 0 115 -86q1 -73 -76 -115 q32 -20 32 -51q0 -17 -11 -75q-3 -17 -3 -26q2 -18 14 -27l-4 -18h-73q-3 20 -3 28q-1 18 12 72q4 15 4 31q0 37 -57 37h-137l-36 -168h-63zM279 355h132q47 0 71.5 23t23.5 59q-1 22 -16.5 33t-51.5 11h-132z" />
<glyph unicode="&#xaf;" horiz-adv-x="333" d="M109 621l15 69h275l-15 -69h-275z" />
<glyph unicode="&#xb0;" horiz-adv-x="400" d="M122 557q14 62 64.5 104t112.5 42t95 -42t20 -104t-64 -104t-113 -42t-95 42t-20 104zM170 557q-8 -40 14.5 -71.5t61.5 -31.5t75.5 31.5t44.5 71.5q9 40 -14 71.5t-62 31.5t-75 -31.5t-45 -71.5z" />
<glyph unicode="&#xb1;" horiz-adv-x="584" d="M68 0v68h448v-68h-448zM68 284v68h190v190h68v-190h190v-68h-190v-155h-68v155h-190z" />
<glyph unicode="&#xb2;" horiz-adv-x="333" d="M50 335q17 64 46.5 97.5t99.5 66.5l58 28q57 27 66 69q6 28 -11 47t-49 19q-72 0 -96 -87h-54q32 134 161 134q57 0 86.5 -31t18.5 -80q-15 -70 -109 -113l-61 -29q-32 -14 -49 -29.5t-30 -40.5h201l-11 -51h-267z" />
<glyph unicode="&#xb3;" horiz-adv-x="333" d="M79 448h55q-7 -41 8 -60t55 -19q37 0 62.5 19t32.5 53q8 38 -14.5 50.5t-81.5 12.5l10 45q56 0 78.5 11t29.5 42q6 28 -8.5 44t-45.5 16q-38 0 -59 -18t-30 -60h-55q30 125 154 125q56 0 83 -28.5t16 -77.5q-11 -52 -66 -74q57 -22 44 -88q-12 -54 -55.5 -86t-105.5 -32 q-64 0 -92 32.5t-15 92.5z" />
<glyph unicode="&#xb4;" horiz-adv-x="333" d="M210 581l128 148h112l-180 -148h-60z" />
<glyph unicode="&#xb5;" d="M-32 -220l158 744h84l-77 -364q-3 -15 -3 -30q0 -37 23 -58.5t63 -21.5q64 0 113.5 48.5t66.5 128.5l63 297h84l-93 -436q-1 -3 -1 -11q0 -31 38 -31q5 0 17 3l-14 -63q-52 -9 -54 -9q-40 0 -57.5 14.5t-17.5 49.5q0 7 3 19q-80 -83 -183 -83q-52 0 -81 29l-48 -226h-84z " />
<glyph unicode="&#xb6;" horiz-adv-x="537" d="M95 436q0 114 86 203.5t196 89.5h250l-14 -64h-56l-179 -843h-64l179 843h-83l-179 -843h-64l93 437q-77 2 -121 49.5t-44 127.5z" />
<glyph unicode="&#xb7;" horiz-adv-x="278" d="M87 250q0 22 15 37t37 15t37 -15t15 -37t-15 -37t-37 -15t-37 15t-15 37z" />
<glyph unicode="&#xb8;" horiz-adv-x="333" d="M-49 -196l28 38q57 -29 94 -29q28 0 45.5 15.5t17.5 39.5q0 17 -9 27.5t-22 10.5q-14 0 -27 -4l-23 6l51 97h51l-31 -59h21q27 0 47 -20.5t20 -46.5q0 -51 -40.5 -80t-104.5 -29q-51 0 -118 34z" />
<glyph unicode="&#xb9;" horiz-adv-x="333" d="M146 595l9 41l13 1q47 3 66.5 16.5t40.5 55.5h37l-80 -374h-54l55 260h-87z" />
<glyph unicode="&#xba;" horiz-adv-x="365" d="M64 303l11 51h263l-11 -51h-263zM99 509q0 101 52 167t135 66q55 0 85.5 -31.5t30.5 -83.5q0 -96 -53 -162t-137 -66q-50 0 -81.5 30.5t-31.5 79.5zM159 525q0 -35 17.5 -54.5t49.5 -19.5q49 0 82.5 48t33.5 118q0 34 -17.5 53.5t-47.5 19.5q-50 0 -84 -47.5t-34 -117.5z " />
<glyph unicode="&#xbb;" d="M71 106l18 83l123 84l-88 83l18 82l127 -121l-19 -89zM270 106l18 83l123 84l-88 83l18 82l127 -121l-19 -89z" />
<glyph unicode="&#xbc;" horiz-adv-x="834" d="M116 -25l608 734h58l-608 -734h-58zM157 595l9 41l13 1q47 3 66.5 16.5t40.5 55.5h37l-80 -374h-54l55 260h-87zM457 88l11 52l229 234h40l-50 -239h59l-10 -47h-59l-19 -88h-54l19 88h-166zM519 135h114l31 149z" />
<glyph unicode="&#xbd;" horiz-adv-x="834" d="M72 -25l608 734h58l-608 -734h-58zM157 595l9 41l13 1q47 3 66.5 16.5t40.5 55.5h37l-80 -374h-54l55 260h-87zM443 0q16 64 46 97.5t100 67.5l57 27q58 27 66 69q7 28 -10.5 47t-49.5 19q-71 0 -95 -87h-55q32 134 161 134q57 0 86.5 -31t19.5 -80q-15 -70 -109 -113 l-61 -29q-32 -14 -49 -29.5t-30 -40.5h201l-11 -51h-267z" />
<glyph unicode="&#xbe;" horiz-adv-x="834" d="M109 448h55q-7 -41 8 -60t55 -19q37 0 62.5 19t32.5 53q8 38 -14.5 50.5t-81.5 12.5l10 45q56 0 78.5 11t29.5 42q6 28 -8.5 44t-45.5 16q-38 0 -59 -18t-30 -60h-55q30 125 154 125q56 0 83 -28.5t16 -77.5q-11 -52 -66 -74q57 -22 44 -88q-12 -54 -55.5 -86t-105.5 -32 q-64 0 -92 32.5t-15 92.5zM136 -25l608 734h58l-608 -734h-58zM447 88l11 52l229 234h40l-50 -239h59l-10 -47h-59l-19 -88h-54l19 88h-166zM509 135h114l31 149z" />
<glyph unicode="&#xbf;" d="M-7 -66q0 58 34 110.5t111 109.5q56 42 75 64.5t29 59.5l10 47h90l-12 -55q-10 -45 -32 -71.5t-104 -91.5q-58 -46 -81.5 -82t-23.5 -79q0 -38 30 -62t77 -24q66 0 103.5 37.5t54.5 119.5h85q-47 -234 -265 -234q-85 0 -133 43t-48 108zM272 421l22 103h90l-22 -103h-90z " />
<glyph unicode="&#xc0;" horiz-adv-x="667" d="M-33 0l415 729h120l101 -729h-102l-27 219h-285l-123 -219h-99zM233 297h231l-40 333zM258 916h134l97 -133h-72z" />
<glyph unicode="&#xc1;" horiz-adv-x="667" d="M-33 0l415 729h120l101 -729h-102l-27 219h-285l-123 -219h-99zM233 297h231l-40 333zM417 783l154 133h134l-216 -133h-72z" />
<glyph unicode="&#xc2;" horiz-adv-x="667" d="M-33 0l415 729h120l101 -729h-102l-27 219h-285l-123 -219h-99zM233 297h231l-40 333zM281 783l154 135h114l76 -135h-75l-67 89l-125 -89h-77z" />
<glyph unicode="&#xc3;" horiz-adv-x="667" d="M-33 0l415 729h120l101 -729h-102l-27 219h-285l-123 -219h-99zM233 297h231l-40 333zM290 796q19 55 43 79t61 24q7 0 64.5 -16t71.5 -16q15 0 24.5 7.5t23.5 29.5h53q-16 -49 -45 -78t-63 -29q-27 0 -103 26q-16 6 -27 6q-17 0 -26 -6.5t-24 -26.5h-53z" />
<glyph unicode="&#xc4;" horiz-adv-x="667" d="M-33 0l415 729h120l101 -729h-102l-27 219h-285l-123 -219h-99zM233 297h231l-40 333zM330 799l22 102h91l-22 -102h-91zM492 799l22 102h91l-22 -102h-91z" />
<glyph unicode="&#xc5;" horiz-adv-x="667" d="M-33 0l415 729h120l101 -729h-102l-27 219h-285l-123 -219h-99zM233 297h231l-40 333zM372 846q0 43 37 79t82 36q34 0 56.5 -21t22.5 -52q0 -47 -36.5 -83t-83.5 -36q-33 0 -55.5 22.5t-22.5 54.5zM423 856q0 -17 10.5 -28t27.5 -11q22 0 40.5 18t18.5 39q0 17 -10.5 28 t-26.5 11q-23 0 -41.5 -18t-18.5 -39z" />
<glyph unicode="&#xc6;" horiz-adv-x="1000" d="M-39 0l454 729h622l-17 -82h-371l-49 -233h351l-18 -82h-351l-53 -250h388l-17 -82h-482l45 214h-269l-130 -214h-103zM243 295h238l74 352h-100z" />
<glyph unicode="&#xc7;" horiz-adv-x="722" d="M63 247q0 94 34.5 191t93.5 168q117 141 292 141q106 0 168.5 -62t68.5 -182h-96q-12 163 -158 163q-136 0 -226 -133q-81 -121 -81 -268q0 -91 47.5 -146.5t125.5 -55.5q94 0 150 46.5t105 156.5h98q-61 -144 -140.5 -210.5t-199.5 -72.5l-19 -37h21q27 0 47 -20.5 t20 -46.5q0 -51 -40.5 -80t-104.5 -29q-51 0 -118 34l28 38q57 -29 94 -29q28 0 45.5 15.5t17.5 39.5q0 17 -9 27.5t-22 10.5q-14 0 -27 -4l-23 6l39 75q-108 7 -169.5 78.5t-61.5 185.5z" />
<glyph unicode="&#xc8;" horiz-adv-x="667" d="M40 0l155 729h506l-17 -82h-412l-50 -233h396l-18 -82h-395l-54 -250h429l-17 -82h-523zM264 916h134l97 -133h-72z" />
<glyph unicode="&#xc9;" horiz-adv-x="667" d="M40 0l155 729h506l-17 -82h-412l-50 -233h396l-18 -82h-395l-54 -250h429l-17 -82h-523zM423 783l154 133h134l-216 -133h-72z" />
<glyph unicode="&#xca;" horiz-adv-x="667" d="M40 0l155 729h506l-17 -82h-412l-50 -233h396l-18 -82h-395l-54 -250h429l-17 -82h-523zM287 783l154 135h114l76 -135h-75l-67 89l-125 -89h-77z" />
<glyph unicode="&#xcb;" horiz-adv-x="667" d="M40 0l155 729h506l-17 -82h-412l-50 -233h396l-18 -82h-395l-54 -250h429l-17 -82h-523zM336 799l22 102h91l-22 -102h-91zM498 799l22 102h91l-22 -102h-91z" />
<glyph unicode="&#xcc;" horiz-adv-x="278" d="M50 0l155 729h94l-155 -729h-94zM79 916h134l97 -133h-72z" />
<glyph unicode="&#xcd;" horiz-adv-x="278" d="M50 0l155 729h94l-155 -729h-94zM216 783l154 133h134l-216 -133h-72z" />
<glyph unicode="&#xce;" horiz-adv-x="278" d="M50 0l155 729h94l-155 -729h-94zM91 783l154 135h114l76 -135h-75l-67 89l-125 -89h-77z" />
<glyph unicode="&#xcf;" horiz-adv-x="278" d="M50 0l155 729h94l-155 -729h-94zM140 799l22 102h91l-22 -102h-91zM302 799l22 102h91l-22 -102h-91z" />
<glyph unicode="&#xd0;" horiz-adv-x="722" d="M39 0l72 341h-68l13 67h70l68 321h282q109 0 171 -67.5t62 -173.5q0 -206 -112.5 -347t-275.5 -141h-282zM150 82h172q129 0 210 112.5t81 285.5q0 79 -45.5 123t-125.5 44h-171l-51 -239h166l-14 -67h-167z" />
<glyph unicode="&#xd1;" horiz-adv-x="722" d="M26 0l155 729h104l250 -598l127 598h89l-155 -729h-106l-249 591l-126 -591h-89zM314 796q19 55 43 79t61 24q7 0 64.5 -16t71.5 -16q15 0 24.5 7.5t23.5 29.5h53q-16 -49 -45 -78t-63 -29q-27 0 -103 26q-16 6 -27 6q-17 0 -26 -6.5t-24 -26.5h-53z" />
<glyph unicode="&#xd2;" horiz-adv-x="778" d="M55 268q0 122 57 232t157.5 178.5t218.5 68.5q136 0 213.5 -73t77.5 -204q0 -127 -53 -237.5t-154.5 -180.5t-229.5 -70q-134 0 -210.5 74.5t-76.5 211.5zM151 276q0 -101 55.5 -157t148.5 -56t169.5 56t117.5 144.5t41 188.5q0 101 -55.5 157.5t-151.5 56.5 q-92 0 -167.5 -56t-116.5 -145t-41 -189zM301 916h134l97 -133h-72z" />
<glyph unicode="&#xd3;" horiz-adv-x="778" d="M55 268q0 122 57 232t157.5 178.5t218.5 68.5q136 0 213.5 -73t77.5 -204q0 -127 -53 -237.5t-154.5 -180.5t-229.5 -70q-134 0 -210.5 74.5t-76.5 211.5zM151 276q0 -101 55.5 -157t148.5 -56t169.5 56t117.5 144.5t41 188.5q0 101 -55.5 157.5t-151.5 56.5 q-92 0 -167.5 -56t-116.5 -145t-41 -189zM459 783l154 133h134l-216 -133h-72z" />
<glyph unicode="&#xd4;" horiz-adv-x="778" d="M55 268q0 122 57 232t157.5 178.5t218.5 68.5q136 0 213.5 -73t77.5 -204q0 -127 -53 -237.5t-154.5 -180.5t-229.5 -70q-134 0 -210.5 74.5t-76.5 211.5zM151 276q0 -101 55.5 -157t148.5 -56t169.5 56t117.5 144.5t41 188.5q0 101 -55.5 157.5t-151.5 56.5 q-92 0 -167.5 -56t-116.5 -145t-41 -189zM323 783l154 135h114l76 -135h-75l-67 89l-125 -89h-77z" />
<glyph unicode="&#xd5;" horiz-adv-x="778" d="M55 268q0 122 57 232t157.5 178.5t218.5 68.5q136 0 213.5 -73t77.5 -204q0 -127 -53 -237.5t-154.5 -180.5t-229.5 -70q-134 0 -210.5 74.5t-76.5 211.5zM151 276q0 -101 55.5 -157t148.5 -56t169.5 56t117.5 144.5t41 188.5q0 101 -55.5 157.5t-151.5 56.5 q-92 0 -167.5 -56t-116.5 -145t-41 -189zM333 796q19 55 43 79t61 24q7 0 64.5 -16t71.5 -16q15 0 24.5 7.5t23.5 29.5h53q-16 -49 -45 -78t-63 -29q-27 0 -103 26q-17 6 -27 6q-17 0 -26 -6.5t-24 -26.5h-53z" />
<glyph unicode="&#xd6;" horiz-adv-x="778" d="M55 268q0 122 57 232t157.5 178.5t218.5 68.5q136 0 213.5 -73t77.5 -204q0 -127 -53 -237.5t-154.5 -180.5t-229.5 -70q-134 0 -210.5 74.5t-76.5 211.5zM151 276q0 -101 55.5 -157t148.5 -56t169.5 56t117.5 144.5t41 188.5q0 101 -55.5 157.5t-151.5 56.5 q-92 0 -167.5 -56t-116.5 -145t-41 -189zM373 799l22 102h91l-22 -102h-91zM535 799l22 102h91l-22 -102h-91z" />
<glyph unicode="&#xd7;" horiz-adv-x="584" d="M110 116l134 134l-134 134l48 48l134 -134l134 134l48 -48l-134 -134l134 -134l-48 -48l-134 134l-134 -134z" />
<glyph unicode="&#xd8;" horiz-adv-x="778" d="M-8 21l100 88q-37 66 -37 159q0 122 57 232t157.5 178.5t218.5 68.5q149 0 227 -86l94 84l33 -37l-99 -87q36 -61 36 -151q0 -127 -53 -237.5t-154.5 -180.5t-229.5 -70q-146 0 -222 87l-96 -85zM151 276q0 -56 18 -98l471 417q-54 71 -164 71q-92 0 -167.5 -56 t-116.5 -145t-41 -189zM194 134q56 -71 161 -71q93 0 169.5 56t117.5 144.5t41 188.5q0 56 -18 100z" />
<glyph unicode="&#xd9;" horiz-adv-x="722" d="M75 160q0 30 14 96l101 473h94l-108 -507q-5 -20 -5 -44q0 -52 44.5 -83.5t116.5 -31.5q85 0 142.5 42.5t73.5 116.5l108 507h94l-108 -507q-23 -109 -112.5 -174.5t-215.5 -65.5q-107 0 -173 50t-66 128zM286 916h134l97 -133h-72z" />
<glyph unicode="&#xda;" horiz-adv-x="722" d="M75 160q0 30 14 96l101 473h94l-108 -507q-5 -20 -5 -44q0 -52 44.5 -83.5t116.5 -31.5q85 0 142.5 42.5t73.5 116.5l108 507h94l-108 -507q-23 -109 -112.5 -174.5t-215.5 -65.5q-107 0 -173 50t-66 128zM445 783l154 133h134l-216 -133h-72z" />
<glyph unicode="&#xdb;" horiz-adv-x="722" d="M75 160q0 30 14 96l101 473h94l-108 -507q-5 -20 -5 -44q0 -52 44.5 -83.5t116.5 -31.5q85 0 142.5 42.5t73.5 116.5l108 507h94l-108 -507q-23 -109 -112.5 -174.5t-215.5 -65.5q-107 0 -173 50t-66 128zM309 783l154 135h114l76 -135h-75l-67 89l-125 -89h-77z" />
<glyph unicode="&#xdc;" horiz-adv-x="722" d="M75 160q0 30 14 96l101 473h94l-108 -507q-5 -20 -5 -44q0 -52 44.5 -83.5t116.5 -31.5q85 0 142.5 42.5t73.5 116.5l108 507h94l-108 -507q-23 -109 -112.5 -174.5t-215.5 -65.5q-107 0 -173 50t-66 128zM358 799l22 102h91l-22 -102h-91zM520 799l22 102h91l-22 -102 h-91z" />
<glyph unicode="&#xdd;" horiz-adv-x="667" d="M118 729h112l136 -357l289 357h111l-368 -443l-61 -286h-94l61 286zM420 783l154 133h134l-216 -133h-72z" />
<glyph unicode="&#xde;" horiz-adv-x="667" d="M41 0l155 729h94l-25 -118h208q185 0 185 -161q0 -105 -72 -182t-182 -77h-228l-41 -191h-94zM193 273h194q77 0 126 46t49 113q0 97 -120 97h-195z" />
<glyph unicode="&#xdf;" horiz-adv-x="611" d="M20 0l114 538q17 82 93 136.5t168 54.5q84 0 141.5 -41.5t57.5 -109.5q0 -57 -37.5 -107t-95.5 -70q49 -14 77 -52.5t28 -90.5q0 -22 -4 -39q-23 -110 -97.5 -174.5t-177.5 -64.5q-47 0 -83 4l18 83q40 -5 75 -5q73 0 127.5 55.5t54.5 135.5q0 54 -40.5 75t-122.5 21 l17 82q64 0 118 36.5t54 93.5q0 41 -36 65.5t-88 24.5q-57 0 -105.5 -32t-58.5 -81l-114 -538h-83z" />
<glyph unicode="&#xe0;" d="M16 109q0 89 81 140q36 23 79.5 33t145.5 20q54 5 75 17t26 42l3 18q2 16 2 19q0 28 -30.5 46t-75.5 18q-108 0 -137 -93h-84q14 83 76.5 126.5t166.5 43.5q79 0 126.5 -31t47.5 -82q0 -10 -6 -37l-61 -287q-1 -3 -1 -10q0 -29 38 -29q8 0 17 2l-13 -65q-51 -9 -53 -9 q-39 0 -59 11.5t-20 40.5l1 15q-53 -44 -98.5 -58.5t-101.5 -14.5q-68 0 -106.5 32.5t-38.5 91.5zM104 119q0 -62 90 -62q66 0 122.5 34.5t66.5 80.5l18 86q-43 -15 -146 -29q-80 -11 -115.5 -37t-35.5 -73zM206 729h112l65 -148h-60z" />
<glyph unicode="&#xe1;" d="M16 109q0 89 81 140q36 23 79.5 33t145.5 20q54 5 75 17t26 42l3 18q2 16 2 19q0 28 -30.5 46t-75.5 18q-108 0 -137 -93h-84q14 83 76.5 126.5t166.5 43.5q79 0 126.5 -31t47.5 -82q0 -10 -6 -37l-61 -287q-1 -3 -1 -10q0 -29 38 -29q8 0 17 2l-13 -65q-51 -9 -53 -9 q-39 0 -59 11.5t-20 40.5l1 15q-53 -44 -98.5 -58.5t-101.5 -14.5q-68 0 -106.5 32.5t-38.5 91.5zM104 119q0 -62 90 -62q66 0 122.5 34.5t66.5 80.5l18 86q-43 -15 -146 -29q-80 -11 -115.5 -37t-35.5 -73zM322 581l128 148h112l-180 -148h-60z" />
<glyph unicode="&#xe2;" d="M16 109q0 89 81 140q36 23 79.5 33t145.5 20q54 5 75 17t26 42l3 18q2 16 2 19q0 28 -30.5 46t-75.5 18q-108 0 -137 -93h-84q14 83 76.5 126.5t166.5 43.5q79 0 126.5 -31t47.5 -82q0 -10 -6 -37l-61 -287q-1 -3 -1 -10q0 -29 38 -29q8 0 17 2l-13 -65q-51 -9 -53 -9 q-39 0 -59 11.5t-20 40.5l1 15q-53 -44 -98.5 -58.5t-101.5 -14.5q-68 0 -106.5 32.5t-38.5 91.5zM104 119q0 -62 90 -62q66 0 122.5 34.5t66.5 80.5l18 86q-43 -15 -146 -29q-80 -11 -115.5 -37t-35.5 -73zM208 580l128 150h95l64 -150h-63l-56 99l-104 -99h-64z" />
<glyph unicode="&#xe3;" d="M16 109q0 89 81 140q36 23 79.5 33t145.5 20q54 5 75 17t26 42l3 18q2 16 2 19q0 28 -30.5 46t-75.5 18q-108 0 -137 -93h-84q14 83 76.5 126.5t166.5 43.5q79 0 126.5 -31t47.5 -82q0 -10 -6 -37l-61 -287q-1 -3 -1 -10q0 -29 38 -29q8 0 17 2l-13 -65q-51 -9 -53 -9 q-39 0 -59 11.5t-20 40.5l1 15q-53 -44 -98.5 -58.5t-101.5 -14.5q-68 0 -106.5 32.5t-38.5 91.5zM104 119q0 -62 90 -62q66 0 122.5 34.5t66.5 80.5l18 86q-43 -15 -146 -29q-80 -11 -115.5 -37t-35.5 -73zM190 601q19 55 43 79t61 24q7 0 64.5 -16t71.5 -16q15 0 24.5 7.5 t23.5 29.5h53q-16 -49 -45 -78t-63 -29q-27 0 -103 26q-16 6 -27 6q-17 0 -26 -6.5t-24 -26.5h-53z" />
<glyph unicode="&#xe4;" d="M16 109q0 89 81 140q36 23 79.5 33t145.5 20q54 5 75 17t26 42l3 18q2 16 2 19q0 28 -30.5 46t-75.5 18q-108 0 -137 -93h-84q14 83 76.5 126.5t166.5 43.5q79 0 126.5 -31t47.5 -82q0 -10 -6 -37l-61 -287q-1 -3 -1 -10q0 -29 38 -29q8 0 17 2l-13 -65q-51 -9 -53 -9 q-39 0 -59 11.5t-20 40.5l1 15q-53 -44 -98.5 -58.5t-101.5 -14.5q-68 0 -106.5 32.5t-38.5 91.5zM104 119q0 -62 90 -62q66 0 122.5 34.5t66.5 80.5l18 86q-43 -15 -146 -29q-80 -11 -115.5 -37t-35.5 -73zM230 604l22 102h91l-22 -102h-91zM392 604l22 102h91l-22 -102 h-91z" />
<glyph unicode="&#xe5;" d="M16 109q0 89 81 140q36 23 79.5 33t145.5 20q54 5 75 17t26 42l3 18q2 16 2 19q0 28 -30.5 46t-75.5 18q-108 0 -137 -93h-84q14 83 76.5 126.5t166.5 43.5q79 0 126.5 -31t47.5 -82q0 -10 -6 -37l-61 -287q-1 -3 -1 -10q0 -29 38 -29q8 0 17 2l-13 -65q-51 -9 -53 -9 q-39 0 -59 11.5t-20 40.5l1 15q-53 -44 -98.5 -58.5t-101.5 -14.5q-68 0 -106.5 32.5t-38.5 91.5zM104 119q0 -62 90 -62q66 0 122.5 34.5t66.5 80.5l18 86q-43 -15 -146 -29q-80 -11 -115.5 -37t-35.5 -73zM269 636q0 43 37 79t82 36q34 0 56.5 -21t22.5 -52 q0 -47 -36.5 -83t-83.5 -36q-33 0 -55.5 22.5t-22.5 54.5zM320 646q0 -17 10.5 -28t27.5 -11q22 0 40.5 18t18.5 39q0 17 -10.5 28t-26.5 11q-23 0 -41.5 -18t-18.5 -39z" />
<glyph unicode="&#xe6;" horiz-adv-x="889" d="M9 105q0 43 22 81.5t60 62.5q37 23 79.5 32.5t142.5 18.5q53 5 73 17t27 44l5 25q2 14 2 19q0 26 -28 41.5t-76 15.5q-59 0 -92 -22t-49 -71h-84q21 77 53 109q63 61 193 61q55 0 101 -18.5t58 -46.5q73 65 182 65q76 0 131.5 -50t55.5 -119q0 -44 -14 -119l-3 -17h-386 q-5 -22 -5 -53v-18q2 -37 36.5 -69t90.5 -32q99 0 153 97h84q-23 -76 -93 -125t-160 -49q-117 0 -174 102q-105 -102 -241 -102q-66 0 -105 31t-39 89zM98 119q0 -62 91 -62q63 0 118.5 35t65.5 80l18 85q-43 -15 -142 -28q-81 -11 -116 -37t-35 -73zM480 306h294q3 22 3 33 q0 56 -31 89.5t-84 33.5q-62 0 -110.5 -41.5t-71.5 -114.5z" />
<glyph unicode="&#xe7;" horiz-adv-x="500" d="M27 174q0 160 84 262.5t220 102.5q77 0 125 -43.5t48 -103.5q0 -1 -0.5 -5t-1 -11t-0.5 -13l-1 -15h-84q1 9 1 22q0 43 -27.5 67.5t-74.5 24.5q-87 0 -144 -83t-57 -194q0 -58 31 -90.5t83 -32.5q112 0 155 118h84q-29 -98 -85.5 -144t-145.5 -50l-21 -40h21 q27 0 47 -20.5t20 -46.5q0 -51 -40.5 -80t-104.5 -29q-51 0 -118 34l28 38q57 -29 94 -29q28 0 45.5 15.5t17.5 39.5q0 17 -9 27.5t-22 10.5q-14 0 -27 -4l-23 6l41 79q-74 9 -116.5 60t-42.5 127z" />
<glyph unicode="&#xe8;" d="M35 177q0 61 24 134t59 120q37 50 96.5 79t124.5 29q81 0 136 -49.5t55 -121.5q0 -42 -14 -117l-2 -13h-386q-6 -24 -5 -46q0 -63 32.5 -96.5t92.5 -33.5q100 0 154 97h84q-23 -80 -92 -127t-160 -47q-89 0 -144 56t-55 136zM146 310h294q2 24 2 29q0 56 -31.5 89.5 t-84.5 33.5q-60 0 -110.5 -43t-69.5 -109zM205 729h112l65 -148h-60z" />
<glyph unicode="&#xe9;" d="M35 177q0 61 24 134t59 120q37 50 96.5 79t124.5 29q81 0 136 -49.5t55 -121.5q0 -42 -14 -117l-2 -13h-386q-6 -24 -5 -46q0 -63 32.5 -96.5t92.5 -33.5q100 0 154 97h84q-23 -80 -92 -127t-160 -47q-89 0 -144 56t-55 136zM146 310h294q2 24 2 29q0 56 -31.5 89.5 t-84.5 33.5q-60 0 -110.5 -43t-69.5 -109zM321 581l128 148h112l-180 -148h-60z" />
<glyph unicode="&#xea;" d="M35 177q0 61 24 134t59 120q37 50 96.5 79t124.5 29q81 0 136 -49.5t55 -121.5q0 -42 -14 -117l-2 -13h-386q-6 -24 -5 -46q0 -63 32.5 -96.5t92.5 -33.5q100 0 154 97h84q-23 -80 -92 -127t-160 -47q-89 0 -144 56t-55 136zM146 310h294q2 24 2 29q0 56 -31.5 89.5 t-84.5 33.5q-60 0 -110.5 -43t-69.5 -109zM207 580l128 150h95l64 -150h-63l-56 99l-104 -99h-64z" />
<glyph unicode="&#xeb;" d="M35 177q0 61 24 134t59 120q37 50 96.5 79t124.5 29q81 0 136 -49.5t55 -121.5q0 -42 -14 -117l-2 -13h-386q-6 -24 -5 -46q0 -63 32.5 -96.5t92.5 -33.5q100 0 154 97h84q-23 -80 -92 -127t-160 -47q-89 0 -144 56t-55 136zM146 310h294q2 24 2 29q0 56 -31.5 89.5 t-84.5 33.5q-60 0 -110.5 -43t-69.5 -109zM229 604l22 102h91l-22 -102h-91zM391 604l22 102h91l-22 -102h-91z" />
<glyph unicode="&#xec;" horiz-adv-x="278" d="M47 0l111 524h84l-111 -524h-84zM78 729h112l65 -148h-60z" />
<glyph unicode="&#xed;" horiz-adv-x="278" d="M47 0l111 524h84l-111 -524h-84zM171 581l128 148h112l-180 -148h-60z" />
<glyph unicode="&#xee;" horiz-adv-x="278" d="M47 0l111 524h84l-111 -524h-84zM68 580l128 150h95l64 -150h-63l-56 99l-104 -99h-64z" />
<glyph unicode="&#xef;" horiz-adv-x="278" d="M47 0l111 524h84l-111 -524h-84zM90 604l22 102h91l-22 -102h-91zM252 604l22 102h91l-22 -102h-91z" />
<glyph unicode="&#xf0;" d="M32 172q-1 92 32.5 174t101 135t153.5 53q32 0 66 -17q-38 50 -84 92l-100 -45l-32 39l89 41q-11 10 -17 14.5t-9.5 5.5t-16 10t-32.5 24l42 45l22 -14q34 -20 80 -53l99 43l39 -38l-95 -41q156 -134 156 -293q0 -152 -85 -257t-216 -105q-89 0 -141 52.5t-52 134.5z M120 192q0 -60 31 -95t84 -35q88 0 145.5 79t57.5 192q0 61 -31 95t-86 34q-87 0 -144 -79.5t-57 -190.5z" />
<glyph unicode="&#xf1;" d="M20 0l111 524h76l-13 -65q78 80 194 80q62 0 99 -34t37 -91q0 -21 -4 -38l-80 -376h-84l74 349q6 32 6 37q0 35 -25 58t-62 23q-68 0 -117.5 -48t-66.5 -130l-61 -289h-84zM189 601q19 55 43 79t61 24q7 0 64.5 -16t71.5 -16q15 0 24.5 7.5t23.5 29.5h53q-16 -49 -45 -78 t-63 -29q-27 0 -103 26q-17 6 -27 6q-17 0 -26 -6.5t-24 -26.5h-53z" />
<glyph unicode="&#xf2;" d="M31 168q0 100 36 184t106 135.5t161 51.5q88 0 140 -53t52 -134q0 -158 -85 -262.5t-220 -104.5q-85 0 -137.5 50t-52.5 133zM119 188q0 -59 31 -92.5t85 -33.5q88 0 145.5 79t57.5 192q0 61 -31 95t-86 34q-87 0 -144.5 -81.5t-57.5 -192.5zM196 729h112l65 -148h-60z " />
<glyph unicode="&#xf3;" d="M31 168q0 100 36 184t106 135.5t161 51.5q88 0 140 -53t52 -134q0 -158 -85 -262.5t-220 -104.5q-85 0 -137.5 50t-52.5 133zM119 188q0 -59 31 -92.5t85 -33.5q88 0 145.5 79t57.5 192q0 61 -31 95t-86 34q-87 0 -144.5 -81.5t-57.5 -192.5zM312 581l128 148h112 l-180 -148h-60z" />
<glyph unicode="&#xf4;" d="M31 168q0 100 36 184t106 135.5t161 51.5q88 0 140 -53t52 -134q0 -158 -85 -262.5t-220 -104.5q-85 0 -137.5 50t-52.5 133zM119 188q0 -59 31 -92.5t85 -33.5q88 0 145.5 79t57.5 192q0 61 -31 95t-86 34q-87 0 -144.5 -81.5t-57.5 -192.5zM198 580l128 150h95l64 -150 h-63l-56 99l-104 -99h-64z" />
<glyph unicode="&#xf5;" d="M31 168q0 100 36 184t106 135.5t161 51.5q88 0 140 -53t52 -134q0 -158 -85 -262.5t-220 -104.5q-85 0 -137.5 50t-52.5 133zM119 188q0 -59 31 -92.5t85 -33.5q88 0 145.5 79t57.5 192q0 61 -31 95t-86 34q-87 0 -144.5 -81.5t-57.5 -192.5zM180 601q19 55 43 79t61 24 q7 0 64.5 -16t71.5 -16q15 0 24.5 7.5t23.5 29.5h53q-16 -49 -45 -78t-63 -29q-27 0 -103 26q-16 6 -27 6q-17 0 -26 -6.5t-24 -26.5h-53z" />
<glyph unicode="&#xf6;" d="M31 168q0 100 36 184t106 135.5t161 51.5q88 0 140 -53t52 -134q0 -158 -85 -262.5t-220 -104.5q-85 0 -137.5 50t-52.5 133zM119 188q0 -59 31 -92.5t85 -33.5q88 0 145.5 79t57.5 192q0 61 -31 95t-86 34q-87 0 -144.5 -81.5t-57.5 -192.5zM220 604l22 102h91l-22 -102 h-91zM382 604l22 102h91l-22 -102h-91z" />
<glyph unicode="&#xf7;" horiz-adv-x="584" d="M68 216v68h448v-68h-448zM240 68q0 21 15 36.5t37 15.5t37 -15.5t15 -36.5q0 -22 -15 -37t-37 -15t-37 15t-15 37zM240 432q0 22 15 37t37 15t37 -15t15 -37q0 -21 -15 -36.5t-37 -15.5t-37 15.5t-15 36.5z" />
<glyph unicode="&#xf8;" horiz-adv-x="611" d="M-10 21l61 58q-20 38 -20 89q0 100 36 184t106 135.5t161 51.5q92 0 145 -58l58 53l30 -31l-62 -59q21 -41 21 -92q0 -158 -85 -262.5t-220 -104.5q-90 0 -144 57l-56 -52zM119 188q0 -26 5 -42l290 273q-31 43 -93 43q-87 0 -144.5 -81.5t-57.5 -192.5zM143 104 q31 -42 92 -42q88 0 145.5 79t57.5 192q0 21 -5 44z" />
<glyph unicode="&#xf9;" d="M40 94q0 19 3 34l84 396h84l-77 -363q-3 -15 -3 -27q0 -35 24 -56t65 -21q64 0 113 48.5t66 129.5l61 289h84l-111 -524h-76l13 61q-83 -76 -192 -76q-65 0 -101.5 29t-36.5 80zM205 729h112l65 -148h-60z" />
<glyph unicode="&#xfa;" d="M40 94q0 19 3 34l84 396h84l-77 -363q-3 -15 -3 -27q0 -35 24 -56t65 -21q64 0 113 48.5t66 129.5l61 289h84l-111 -524h-76l13 61q-83 -76 -192 -76q-65 0 -101.5 29t-36.5 80zM321 581l128 148h112l-180 -148h-60z" />
<glyph unicode="&#xfb;" d="M40 94q0 19 3 34l84 396h84l-77 -363q-3 -15 -3 -27q0 -35 24 -56t65 -21q64 0 113 48.5t66 129.5l61 289h84l-111 -524h-76l13 61q-83 -76 -192 -76q-65 0 -101.5 29t-36.5 80zM207 580l128 150h95l64 -150h-63l-56 99l-104 -99h-64z" />
<glyph unicode="&#xfc;" d="M40 94q0 19 3 34l84 396h84l-77 -363q-3 -15 -3 -27q0 -35 24 -56t65 -21q64 0 113 48.5t66 129.5l61 289h84l-111 -524h-76l13 61q-83 -76 -192 -76q-65 0 -101.5 29t-36.5 80zM229 604l22 102h91l-22 -102h-91zM391 604l22 102h91l-22 -102h-91z" />
<glyph unicode="&#xfd;" horiz-adv-x="500" d="M-42 -208l16 75q36 -4 44 -4q28 0 44 10.5t36 41.5l52 81l-68 528h90l46 -407l233 407h89l-368 -634q-63 -108 -165 -108q-26 0 -49 10zM293 581l128 148h112l-180 -148h-60z" />
<glyph unicode="&#xfe;" d="M-43 -213l200 942h84l-61 -289q22 43 73.5 71t108.5 28q80 0 127 -52.5t47 -142.5q2 -147 -81 -253t-209 -106q-53 0 -86.5 21t-56.5 70l-62 -289h-84zM135 192q0 -60 32 -95t87 -35q82 0 139 80.5t55 181.5q0 65 -31.5 101.5t-87.5 36.5q-81 0 -137.5 -81t-56.5 -189z " />
<glyph unicode="&#xff;" horiz-adv-x="500" d="M-42 -208l16 75q36 -4 44 -4q28 0 44 10.5t36 41.5l52 81l-68 528h90l46 -407l233 407h89l-368 -634q-63 -108 -165 -108q-26 0 -49 10zM201 604l22 102h91l-22 -102h-91zM363 604l22 102h91l-22 -102h-91z" />
<glyph unicode="&#x152;" horiz-adv-x="1000" d="M51 219q0 143 53 263t144 189.5t198 69.5q121 0 166 -88l16 76h430l-17 -82h-336l-51 -238h327l-18 -82h-326l-53 -245h340l-17 -82h-434l18 85q-81 -100 -207 -100q-105 0 -169 63t-64 171zM147 222q0 -75 42 -115.5t115 -40.5q125 0 210 124l74 349q-28 121 -158 121 q-133 0 -211 -137q-30 -52 -51 -140.5t-21 -160.5z" />
<glyph unicode="&#x153;" horiz-adv-x="944" d="M37 173q0 61 20.5 129.5t54.5 119.5q78 117 224 117q127 0 172 -103q32 44 94 73.5t123 29.5q81 0 136 -49.5t55 -121.5q0 -42 -14 -117l-3 -17h-386q-7 -36 -7 -58q2 -50 36.5 -82t92.5 -32q99 0 153 97h84q-23 -76 -93 -125t-160 -49q-58 0 -106 27t-70 80 q-38 -51 -94.5 -79t-121.5 -28q-89 0 -139.5 53.5t-50.5 134.5zM125 189q0 -59 30 -93t82 -34q87 0 143.5 78t56.5 194q0 60 -31 94t-85 34q-82 0 -140 -80.5t-56 -192.5zM531 306h294q3 21 3 32q0 57 -31 90.5t-83 33.5q-61 0 -112 -43.5t-71 -112.5z" />
<glyph unicode="&#x178;" horiz-adv-x="667" d="M118 729h112l136 -357l289 357h111l-368 -443l-61 -286h-94l61 286zM333 799l22 102h91l-22 -102h-91zM495 799l22 102h91l-22 -102h-91z" />
<glyph unicode="&#x2c6;" horiz-adv-x="333" d="M96 580l128 150h95l64 -150h-63l-56 99l-104 -99h-64z" />
<glyph unicode="&#x2dc;" horiz-adv-x="333" d="M78 601q19 55 43 79t61 24q7 0 64.5 -16t71.5 -16q15 0 24.5 7.5t23.5 29.5h53q-16 -49 -45 -78t-63 -29q-27 0 -103 26q-17 6 -27 6q-17 0 -26 -6.5t-24 -26.5h-53z" />
<glyph unicode="&#x2000;" horiz-adv-x="480" />
<glyph unicode="&#x2001;" horiz-adv-x="961" />
<glyph unicode="&#x2002;" horiz-adv-x="480" />
<glyph unicode="&#x2003;" horiz-adv-x="961" />
<glyph unicode="&#x2004;" horiz-adv-x="320" />
<glyph unicode="&#x2005;" horiz-adv-x="240" />
<glyph unicode="&#x2006;" horiz-adv-x="160" />
<glyph unicode="&#x2007;" horiz-adv-x="160" />
<glyph unicode="&#x2008;" horiz-adv-x="120" />
<glyph unicode="&#x2009;" horiz-adv-x="192" />
<glyph unicode="&#x200a;" horiz-adv-x="53" />
<glyph unicode="&#x2010;" horiz-adv-x="333" d="M47 240l15 72h239l-15 -72h-239z" />
<glyph unicode="&#x2011;" horiz-adv-x="333" d="M47 240l15 72h239l-15 -72h-239z" />
<glyph unicode="&#x2012;" horiz-adv-x="333" d="M47 240l15 72h239l-15 -72h-239z" />
<glyph unicode="&#x2013;" d="M-4 240l15 72h567l-15 -72h-567z" />
<glyph unicode="&#x2014;" horiz-adv-x="1000" d="M-8 240l15 72h1011l-15 -72h-1011z" />
<glyph unicode="&#x2018;" horiz-adv-x="222" d="M113 477l21 100q13 60 45.5 94.5t78.5 37.5l-8 -39q-29 -3 -45 -24t-24 -66h47l-22 -103h-93z" />
<glyph unicode="&#x2019;" horiz-adv-x="222" d="M116 477l8 38q52 7 67 90h-48l22 103h94l-21 -100q-13 -59 -44.5 -93.5t-77.5 -37.5z" />
<glyph unicode="&#x201a;" horiz-adv-x="222" d="M-13 -128l8 38q52 7 67 90h-48l22 103h94l-21 -100q-13 -59 -44.5 -93.5t-77.5 -37.5z" />
<glyph unicode="&#x201c;" horiz-adv-x="333" d="M96 477l21 100q12 59 44 93.5t77 38.5l-8 -39q-52 -7 -66 -90h47l-22 -103h-93zM257 477l21 100q12 59 44 93.5t77 38.5l-8 -39q-51 -7 -67 -90h48l-22 -103h-93z" />
<glyph unicode="&#x201d;" horiz-adv-x="333" d="M100 477l8 38q52 7 67 90h-48l22 103h94l-21 -100q-13 -59 -44.5 -93.5t-77.5 -37.5zM259 477l8 38q52 7 67 90h-48l22 103h94l-21 -100q-13 -59 -44.5 -93.5t-77.5 -37.5z" />
<glyph unicode="&#x201e;" horiz-adv-x="333" d="M-30 -128l8 38q52 7 67 90h-48l22 103h94l-21 -100q-13 -59 -44.5 -93.5t-77.5 -37.5zM129 -128l8 38q52 7 67 90h-48l22 103h94l-21 -100q-13 -59 -44.5 -93.5t-77.5 -37.5z" />
<glyph unicode="&#x2022;" horiz-adv-x="350" d="M70 318q0 59 47 105.5t107 46.5q45 0 73.5 -27.5t28.5 -70.5q0 -59 -47.5 -105.5t-108.5 -46.5q-42 0 -71 28.5t-29 69.5z" />
<glyph unicode="&#x2026;" horiz-adv-x="1000" d="M65 0l22 103h104l-22 -103h-104zM398 0l22 103h104l-22 -103h-104zM731 0l22 103h104l-22 -103h-104z" />
<glyph unicode="&#x202f;" horiz-adv-x="192" />
<glyph unicode="&#x2039;" horiz-adv-x="333" d="M90 227l19 89l177 122l-18 -83l-121 -84l86 -83l-18 -82z" />
<glyph unicode="&#x203a;" horiz-adv-x="333" d="M59 106l18 83l123 84l-88 83l18 82l127 -121l-19 -89z" />
<glyph unicode="&#x205f;" horiz-adv-x="240" />
<glyph unicode="&#x20ac;" d="M-38 254l35 59h55q5 30 16 66h-79l35 59h63q47 123 130.5 197t190.5 74q98 0 178 -67l-49 -80q-46 40 -79 55.5t-72 15.5q-65 0 -114.5 -46t-94.5 -149h285l-36 -59h-270q-10 -29 -15 -66h246l-36 -59h-215v-14q0 -177 128 -177q37 0 74 12.5t105 48.5l-20 -93 q-85 -46 -178 -46q-200 0 -200 240q0 18 1 29h-84z" />
<glyph unicode="&#x2122;" horiz-adv-x="1000" d="M212 678l11 51h341l-11 -51h-138l-73 -342h-62l72 342h-140zM545 336l84 393h81l53 -324l190 324h83l-83 -393h-60l65 303l-178 -303h-62l-49 303l-64 -303h-60z" />
<glyph unicode="&#xe000;" horiz-adv-x="525" d="M0 0v525h525v-525h-525z" />
</font>
</defs>
</svg>
