<?xml version="1.0" standalone="no"?>
<!DOCTYPE svg PUBLIC "-//W3C//DTD SVG 1.1//EN" "http://www.w3.org/Graphics/SVG/1.1/DTD/svg11.dtd" >
<svg xmlns="http://www.w3.org/2000/svg">
<metadata></metadata>
<defs>
<font id="texgyreherosbold_italic" horiz-adv-x="556" >
<font-face units-per-em="1000" ascent="784" descent="-216" />
<missing-glyph horiz-adv-x="278" />
<glyph unicode="&#xfb01;" horiz-adv-x="611" d="M50 0l93 436h-77l20 93h76l14 65q15 70 56.5 102.5t114.5 32.5l77 -3l-22 -105q-36 4 -42 4q-37 0 -46 -43l-12 -53h83l-20 -93h-82l-93 -436h-140zM360 0l115 540h140l-115 -540h-140zM490 610l27 131h140l-27 -131h-140z" />
<glyph unicode="&#xfb02;" horiz-adv-x="611" d="M50 0l93 436h-77l20 93h76l14 65q15 70 56.5 102.5t114.5 32.5l77 -3l-22 -105q-36 4 -42 4q-37 0 -46 -43l-12 -53h83l-20 -93h-82l-93 -436h-140zM360 0l155 729h140l-155 -729h-140z" />
<glyph unicode="&#xfb03;" horiz-adv-x="921" d="M50 0l93 436h-77l20 93h76l14 65q15 70 56.5 102.5t114.5 32.5l77 -3l-22 -105q-36 4 -42 4q-37 0 -46 -43l-12 -53h170l14 65q15 70 56.5 102.5t114.5 32.5l77 -3l-22 -105q-36 4 -42 4q-37 0 -46 -43l-12 -53h83l-20 -93h-82l-93 -436h-140l93 436h-170l-93 -436h-140z M670 0l115 540h140l-115 -540h-140zM800 610l27 131h140l-27 -131h-140z" />
<glyph unicode="&#xfb04;" horiz-adv-x="921" d="M50 0l93 436h-77l20 93h76l14 65q15 70 56.5 102.5t114.5 32.5l77 -3l-22 -105q-36 4 -42 4q-37 0 -46 -43l-12 -53h170l14 65q15 70 56.5 102.5t114.5 32.5l77 -3l-22 -105q-36 4 -42 4q-37 0 -46 -43l-12 -53h83l-20 -93h-82l-93 -436h-140l93 436h-170l-93 -436h-140z M670 0l155 729h140l-155 -729h-140z" />
<glyph horiz-adv-x="1000" />
<glyph horiz-adv-x="1000" />
<glyph unicode="&#xd;" horiz-adv-x="1000" />
<glyph unicode=" "  horiz-adv-x="278" />
<glyph unicode="&#x09;" horiz-adv-x="278" />
<glyph unicode="&#xa0;" horiz-adv-x="278" />
<glyph unicode="!" horiz-adv-x="333" d="M52 0l31 146h150l-31 -146h-150zM138 207l24 309l45 210h150l-45 -210l-107 -309h-67z" />
<glyph unicode="&#x22;" horiz-adv-x="474" d="M137 599l28 130h138l-28 -130l-69 -129h-56zM373 599l28 130h138l-28 -130l-69 -129h-56z" />
<glyph unicode="#" d="M-7 -32l83 204h-77l21 100h97l62 152h-99l22 100h118l71 173h106l-72 -173h103l71 173h106l-72 -173h87l-21 -100h-106l-62 -152h99l-21 -100h-119l-84 -204h-105l83 204h-102l-84 -204h-105zM222 272h103l62 152h-102z" />
<glyph unicode="$" d="M19 148q0 26 8 59h130q-1 -19 -1 -33q0 -75 65 -88l46 213q-165 42 -165 176q0 93 69.5 158t182.5 76l11 54h68l-12 -54q167 -15 167 -162q0 -21 -5 -49h-128q3 29 3 40q0 60 -58 70l-43 -201q93 -28 134.5 -68.5t41.5 -101.5q0 -106 -73.5 -175.5t-193.5 -82.5l-22 -105 h-68l23 105q-87 9 -133.5 52.5t-46.5 116.5zM232 501q0 -50 62 -74l38 181q-47 -9 -73.5 -37.5t-26.5 -69.5zM289 86q48 11 74.5 40.5t26.5 71.5q0 60 -59 84z" />
<glyph unicode="%" horiz-adv-x="889" d="M89 482q0 85 68.5 152t154.5 67q67 0 110 -41t43 -103q0 -86 -68.5 -153t-156.5 -67q-65 0 -108 41.5t-43 103.5zM166 -20l550 729h77l-551 -729h-76zM189 501q0 -28 21 -47t52 -19q41 0 72 30.5t31 70.5q0 29 -21.5 48t-52.5 19q-40 0 -71 -31t-31 -71zM487 125 q0 85 68.5 152t154.5 67q67 0 110 -41t43 -103q0 -86 -68.5 -153t-156.5 -67q-65 0 -108 41.5t-43 103.5zM587 144q0 -28 21 -47t52 -19q41 0 72 30.5t31 70.5q0 29 -21.5 48t-52.5 19q-40 0 -71 -31t-31 -71z" />
<glyph unicode="&#x26;" horiz-adv-x="722" d="M49 156q0 81 51 138t159 107q-53 75 -53 122q0 80 67.5 140t157.5 60q68 0 110.5 -32.5t42.5 -85.5q0 -64 -35.5 -112.5t-123.5 -100.5l82 -137q25 23 38.5 49t21.5 69h113q-8 -55 -41 -114t-77 -99l94 -160h-160l-37 60q-69 -50 -111.5 -66.5t-100.5 -16.5 q-93 0 -145.5 47.5t-52.5 131.5zM186 187q0 -39 26 -66.5t63 -27.5q25 0 53 12.5t78 46.5l-99 167l-52 -29q-69 -39 -69 -103zM343 552q0 -13 6 -26.5t30 -55.5q80 42 80 104q0 19 -13.5 30t-37.5 11q-29 0 -47 -17.5t-18 -45.5z" />
<glyph unicode="'" horiz-adv-x="238" d="M137 599l28 130h138l-28 -130l-70 -129h-55z" />
<glyph unicode="(" horiz-adv-x="333" d="M44 122q0 151 65.5 297t208.5 310h100q-142 -194 -198.5 -329.5t-56.5 -287.5q0 -69 12.5 -136.5t45.5 -175.5h-100q-77 177 -77 322z" />
<glyph unicode=")" horiz-adv-x="333" d="M-61 -200q146 197 202 330.5t56 285.5q0 70 -13 136.5t-48 176.5h100q80 -176 80 -323q0 -155 -67.5 -299.5t-209.5 -306.5h-100z" />
<glyph unicode="*" horiz-adv-x="389" d="M105 580l37 69l101 -36l24 116h72l-25 -116l117 36l7 -70l-116 -35l47 -94l-67 -43l-47 94l-87 -94l-49 43l87 94z" />
<glyph unicode="+" horiz-adv-x="584" d="M74 200v100h182v182h100v-182h182v-100h-182v-182h-100v182h-182z" />
<glyph unicode="," horiz-adv-x="278" d="M-13 -174l12 56q92 16 111 118h-86l31 146h150l-29 -137q-14 -82 -60 -126.5t-129 -56.5z" />
<glyph unicode="-" horiz-adv-x="333" d="M30 207l29 135h272l-29 -135h-272z" />
<glyph unicode="." horiz-adv-x="278" d="M24 0l31 146h150l-31 -146h-150z" />
<glyph unicode="/" horiz-adv-x="278" d="M-41 -14l361 728h67l-361 -728h-67z" />
<glyph unicode="0" d="M44 190q0 76 22.5 179.5t54.5 171.5q40 88 107.5 135.5t152.5 47.5q90 0 141.5 -53t51.5 -145q0 -76 -23 -180t-54 -172q-85 -183 -263 -183q-88 0 -139 53.5t-51 145.5zM187 197q0 -38 20.5 -61t55.5 -23q44 0 72 32t49 106q47 165 47 277q0 38 -21 61t-56 23 q-52 0 -88 -57q-25 -40 -52 -162.5t-27 -195.5z" />
<glyph unicode="1" d="M132 489l20 93q184 0 244 127h93l-151 -709h-140l104 489h-170z" />
<glyph unicode="2" d="M-10 0q25 99 71.5 156.5t151.5 120.5q131 79 178 127q54 56 54 128q0 38 -23 59t-63 21q-52 0 -84.5 -38.5t-42.5 -111.5h-134q19 126 93 194t190 68q97 0 152 -45.5t55 -126.5q0 -97 -65 -174q-42 -50 -152 -119q-90 -57 -122 -81.5t-51 -52.5h300l-26 -125h-482z" />
<glyph unicode="3" d="M30 165q0 23 6 57h136l1 -32q2 -77 90 -77q50 0 86 39t36 92q-1 44 -33 62t-107 18l20 94h12q68 0 108 32.5t40 91.5q0 31 -21.5 50.5t-55.5 19.5q-49 0 -75 -28.5t-42 -97.5h-129q24 124 90.5 181t180.5 57q95 0 147.5 -39.5t52.5 -111.5q0 -113 -119 -186 q72 -44 72 -123q0 -119 -78.5 -196t-212.5 -77q-97 0 -151 45.5t-54 128.5z" />
<glyph unicode="4" d="M17 157l25 118l352 434h165l-93 -436h74l-25 -116h-73l-34 -157h-140l34 157h-285zM142 273h184l65 304z" />
<glyph unicode="5" d="M22 155q0 19 5 44h138q-2 -18 -2 -22q0 -29 24 -46.5t64 -17.5q62 0 100 44t38 119q0 45 -23 71.5t-66 26.5q-67 0 -101 -53h-126l145 388h383l-27 -125h-296l-53 -141q65 43 132 43q81 0 128 -51t47 -135q0 -132 -89 -220.5t-221 -88.5q-90 0 -145 45t-55 119z" />
<glyph unicode="6" d="M46 178q0 91 29.5 205.5t69.5 180.5q98 160 258 160q85 0 133.5 -41t48.5 -112q0 -14 -1 -23h-130q-7 34 -25.5 49t-54.5 15q-60 0 -91.5 -43t-62.5 -158q74 56 149 56q79 0 123.5 -44.5t44.5 -122.5q0 -125 -83.5 -217t-206.5 -92q-92 0 -146.5 49.5t-54.5 137.5z M176 195q0 -38 24.5 -60t63.5 -22q56 0 93 43.5t37 112.5q0 38 -22.5 62t-59.5 24q-56 0 -96 -46.5t-40 -113.5z" />
<glyph unicode="7" d="M91 0q60 182 143.5 312.5t229.5 271.5h-353l27 125h501l-23 -110l-105 -108q-110 -123 -174 -235.5t-104 -255.5h-142z" />
<glyph unicode="8" d="M21 162q0 72 38.5 127t121.5 97q-35 27 -50 52t-15 57q0 94 78.5 161.5t187.5 67.5q88 0 143 -43t55 -111q0 -108 -129 -184q47 -29 66 -55.5t19 -70.5q0 -111 -85.5 -190t-211.5 -79q-101 0 -159.5 45t-58.5 126zM164 187q0 -34 27 -54t69 -20q60 0 96.5 38.5 t36.5 102.5q0 37 -24.5 56.5t-66.5 19.5q-59 0 -98.5 -40.5t-39.5 -102.5zM238 500q0 -34 23.5 -54.5t61.5 -20.5q53 0 90 33.5t37 81.5q0 32 -25.5 52t-66.5 20q-50 0 -85 -32.5t-35 -79.5z" />
<glyph unicode="9" d="M31 146q0 12 4 33h135q-1 -5 -1 -12q0 -24 22 -39t57 -15q60 0 94 46t57 146q-42 -36 -73.5 -49.5t-73.5 -13.5q-78 0 -123.5 47t-45.5 128q0 133 83 220t207 87q90 0 144 -56t54 -149q0 -90 -27.5 -190t-73.5 -180q-91 -158 -259 -158q-80 0 -130 43t-50 112zM218 438 q0 -39 22 -59.5t60 -20.5q60 0 101 48t41 120q0 42 -25 64t-68 22q-56 0 -93.5 -49.5t-37.5 -124.5z" />
<glyph unicode=":" horiz-adv-x="333" d="M51 0l31 146h150l-31 -146h-150zM131 374l31 146h150l-31 -146h-150z" />
<glyph unicode=";" horiz-adv-x="333" d="M14 -174l12 56q92 16 111 118h-86l31 146h150l-29 -137q-14 -82 -60 -126.5t-129 -56.5zM131 374l31 146h150l-31 -146h-150z" />
<glyph unicode="&#x3c;" horiz-adv-x="584" d="M102 212v76l376 317v-130l-266 -225l266 -225v-130z" />
<glyph unicode="=" horiz-adv-x="584" d="M74 109v100h464v-100h-464zM74 291v100h464v-100h-464z" />
<glyph unicode="&#x3e;" horiz-adv-x="584" d="M102 25l266 225l-266 225v130l376 -317v-76l-376 -317v130z" />
<glyph unicode="?" horiz-adv-x="611" d="M122 481q59 263 288 263q102 0 159 -49t57 -129q0 -87 -51 -153q-33 -42 -116 -93q-51 -32 -66 -51t-25 -68h-122q5 57 37.5 103t102.5 95q63 44 80 71t17 63q0 38 -25.5 62.5t-65.5 24.5q-51 0 -86 -36.5t-48 -102.5h-136zM191 0l31 146h150l-31 -146h-150z" />
<glyph unicode="@" horiz-adv-x="975" d="M33 181q0 143 82.5 273.5t221 210.5t293.5 80q151 0 256.5 -87.5t105.5 -218.5q0 -75 -31 -147t-78.5 -123t-105.5 -82t-112 -31q-85 0 -108 70q-75 -73 -159 -73q-61 0 -99 38t-38 98q0 70 51 148t128 129.5t146 51.5q38 0 60 -16t37 -53l27 59h90l-136 -280 q-20 -42 -19 -54q0 -16 11 -25.5t28 -9.5q68 0 141.5 94.5t73.5 191.5q0 98 -86 167.5t-212 69.5q-113 0 -208 -48t-161 -139q-99 -137 -99 -279q0 -110 85 -180t218 -70q84 0 212 41l12 -79q-110 -45 -247 -45q-175 0 -277.5 88.5t-102.5 229.5zM361 215q0 -35 18.5 -57 t48.5 -22q63 0 133 84t70 156q0 31 -19.5 50.5t-50.5 19.5q-64 0 -132 -78t-68 -153z" />
<glyph unicode="A" horiz-adv-x="722" d="M-14 0l407 729h173l97 -729h-153l-18 147h-272l-81 -147h-153zM289 272h189l-35 283z" />
<glyph unicode="B" horiz-adv-x="722" d="M42 0l155 729h325q95 0 147.5 -42.5t52.5 -115.5q0 -106 -117 -183q38 -30 54.5 -61t16.5 -72q0 -44 -22 -92.5t-59 -84.5q-81 -78 -225 -78h-328zM219 125h178q64 0 97.5 33t33.5 87q0 69 -91 69h-178zM285 439h164q63 0 93.5 29t30.5 74q0 32 -21.5 47t-67.5 15h-164z " />
<glyph unicode="C" horiz-adv-x="722" d="M68 241q0 215 123 357.5t302 142.5q116 0 188 -58t72 -151q0 -13 -4 -50h-141q0 131 -132 131q-120 0 -189 -109q-70 -109 -70 -234q0 -154 148 -154q152 0 194 133h143q-33 -127 -126.5 -194t-231.5 -67q-129 0 -202.5 67t-73.5 186z" />
<glyph unicode="D" horiz-adv-x="722" d="M37 0l155 729h285q136 0 197.5 -59.5t61.5 -190.5q0 -184 -112 -339q-55 -76 -124 -108t-178 -32h-285zM214 125h134q65 0 106 23.5t73 79.5q26 44 43 113t17 128q0 135 -137 135h-135z" />
<glyph unicode="E" horiz-adv-x="667" d="M39 0l155 729h528l-27 -125h-378l-35 -165h349l-26 -125h-349l-40 -189h395l-27 -125h-545z" />
<glyph unicode="F" horiz-adv-x="611" d="M34 0l155 729h512l-27 -125h-362l-35 -165h320l-27 -125h-319l-67 -314h-150z" />
<glyph unicode="G" horiz-adv-x="778" d="M68 268q0 122 57 230.5t159 175.5t223 67q122 0 197 -58.5t75 -153.5q0 -5 -2 -33h-138q-6 56 -47.5 86.5t-112.5 30.5q-114 0 -188 -93t-74 -230q0 -77 48.5 -125.5t122.5 -48.5q72 0 131.5 38.5t82.5 112.5h-166l27 125h292l-84 -392h-90l8 94q-55 -58 -108 -82 t-124 -24q-133 0 -211 75t-78 205z" />
<glyph unicode="H" horiz-adv-x="722" d="M28 0l155 729h150l-58 -273h288l58 273h151l-155 -729h-150l70 331h-289l-70 -331h-150z" />
<glyph unicode="I" horiz-adv-x="278" d="M23 0l155 729h150l-155 -729h-150z" />
<glyph unicode="J" d="M21 144q0 34 7 65l13 61h150l-14 -66q-4 -17 -4 -34q0 -24 18.5 -39t47.5 -15q80 0 99 85l113 528h150l-113 -528q-45 -213 -279 -213q-88 0 -138 41.5t-50 114.5z" />
<glyph unicode="K" horiz-adv-x="722" d="M34 0l155 729h150l-68 -320l354 320h178l-361 -319l235 -410h-179l-173 314l-91 -80l-50 -234h-150z" />
<glyph unicode="L" horiz-adv-x="611" d="M40 0l155 729h150l-128 -604h349l-27 -125h-499z" />
<glyph unicode="M" horiz-adv-x="833" d="M26 0l155 729h237v-560l254 560h219l-155 -729h-142l132 619l-269 -619h-157v619l-132 -619h-142z" />
<glyph unicode="N" horiz-adv-x="722" d="M28 0l155 729h150l192 -515l109 515h142l-155 -729h-148l-192 523l-111 -523h-142z" />
<glyph unicode="O" horiz-adv-x="778" d="M67 267q0 86 32.5 171.5t91.5 155.5q123 147 307 147q137 0 213.5 -75.5t76.5 -210.5q0 -181 -122 -325q-64 -76 -138 -109t-171 -33q-134 0 -212 74t-78 205zM216 288q0 -81 44.5 -126.5t120.5 -45.5q109 0 183.5 93.5t74.5 227.5q0 83 -42.5 129.5t-117.5 46.5 q-110 0 -186.5 -96.5t-76.5 -228.5z" />
<glyph unicode="P" horiz-adv-x="667" d="M36 0l155 729h308q101 0 154.5 -47t53.5 -122q0 -120 -81 -210t-198 -90h-187l-55 -260h-150zM268 385h153q64 0 100.5 38t36.5 102q0 35 -25 57t-65 22h-154z" />
<glyph unicode="Q" horiz-adv-x="778" d="M70 268q0 86 32.5 171.5t89.5 154.5q122 147 306 147q137 0 215 -77t78 -211q0 -92 -39.5 -184.5t-103.5 -154.5l64 -76l-93 -81l-69 81q-90 -50 -191 -50q-133 0 -211 74.5t-78 205.5zM219 288q0 -81 43 -126.5t118 -45.5q49 0 89 19l-62 73l94 81l65 -78q76 96 76 225 q0 83 -43.5 130t-120.5 47q-108 0 -183.5 -96.5t-75.5 -228.5z" />
<glyph unicode="R" horiz-adv-x="722" d="M40 0l155 729h377q78 0 125.5 -42t47.5 -108q0 -75 -39.5 -129.5t-127.5 -97.5q78 -26 78 -82q0 -33 -28 -183q-3 -15 -3 -26q0 -20 18 -34l-6 -27h-159q-8 25 -8 41q-1 33 26 132q12 48 12 61q0 55 -85 55h-172l-61 -289h-150zM278 414h181q62 0 99.5 33t37.5 87 q0 70 -110 70h-168z" />
<glyph unicode="S" horiz-adv-x="667" d="M38 185q0 17 4 44h146q-2 -18 -2 -23q0 -43 37.5 -66.5t105.5 -23.5q79 0 124.5 28t45.5 78q0 34 -24.5 49t-96.5 30l-98 20q-89 18 -129 53.5t-40 97.5q0 114 89 191.5t233 77.5q119 0 185.5 -45.5t66.5 -126.5q0 -25 -8 -62h-140q2 18 2 23q0 83 -132 83 q-68 0 -107.5 -28t-39.5 -76q0 -28 25 -43.5t96 -29.5l109 -22q158 -33 158 -143q0 -128 -91 -205.5t-250 -77.5q-125 0 -197 52t-72 145z" />
<glyph unicode="T" horiz-adv-x="611" d="M102 604l27 125h584l-27 -125h-212l-129 -604h-150l129 604h-222z" />
<glyph unicode="U" horiz-adv-x="722" d="M81 178q0 36 11 88l99 463h150l-103 -483q-5 -20 -5 -45q0 -40 32.5 -62.5t90.5 -22.5q68 0 107 31.5t53 98.5l103 483h150l-103 -483q-27 -125 -117.5 -191.5t-220.5 -66.5q-113 0 -180 51.5t-67 138.5z" />
<glyph unicode="V" horiz-adv-x="667" d="M139 729h151l45 -549l276 549h151l-402 -729h-127z" />
<glyph unicode="W" horiz-adv-x="944" d="M128 729h156v-546l224 546h155v-548l225 548h159l-357 -729h-139v555l-237 -555h-135z" />
<glyph unicode="X" horiz-adv-x="667" d="M-18 0l310 367l-145 362h178l79 -236l183 236h175l-303 -357l156 -372h-179l-90 249l-189 -249h-175z" />
<glyph unicode="Y" horiz-adv-x="667" d="M142 729h167l82 -315l207 315h167l-328 -459l-58 -270h-150l58 270z" />
<glyph unicode="Z" horiz-adv-x="611" d="M-10 0l27 125l474 479h-373l27 125h548l-27 -125l-474 -479h373l-27 -125h-548z" />
<glyph unicode="[" horiz-adv-x="333" d="M-17 -200l197 929h243l-22 -100h-113l-154 -729h113l-21 -100h-243z" />
<glyph unicode="\" horiz-adv-x="278" d="M98 709h74l73 -732h-75z" />
<glyph unicode="]" horiz-adv-x="333" d="M-65 -200l22 100h113l154 729h-113l21 100h243l-197 -929h-243z" />
<glyph unicode="^" horiz-adv-x="584" d="M79 270l255 425h125l81 -425h-113l-58 300l-178 -300h-112z" />
<glyph unicode="_" d="M-114 -189l15 69h600l-15 -69h-600z" />
<glyph unicode="`" horiz-adv-x="333" d="M111 752h156l37 -154h-100z" />
<glyph unicode="a" d="M11 115q0 74 53.5 127.5t147.5 68.5l58 9q12 2 26.5 4t20 3t13.5 2.5t10.5 2t7 2t7 3l7.5 4.5q34 17 34 53q0 43 -73 43q-48 0 -73.5 -17t-38.5 -58h-131q21 98 84.5 142.5t181.5 44.5q93 0 142.5 -32t49.5 -89q0 -18 -6 -45l-63 -300q-3 -12 -3 -21q0 -21 21 -45l-4 -17 h-153q-7 15 -7 27q0 14 4 34q-43 -39 -81.5 -54.5t-83.5 -15.5q-70 0 -110.5 34t-40.5 90zM154 146q0 -43 75 -43q51 0 86 33.5t48 94.5l5 24q-14 -8 -18.5 -9t-28.5 -5l-66 -11q-101 -17 -101 -84z" />
<glyph unicode="b" horiz-adv-x="611" d="M19 0l155 729h140l-55 -259q66 79 166 79q79 0 127 -56.5t48 -150.5q0 -141 -89 -246t-205 -105q-97 0 -134 71l-13 -62h-140zM209 209q0 -50 24.5 -78t65.5 -28q64 0 111 62.5t47 153.5q0 55 -23.5 86.5t-64.5 31.5q-65 0 -112.5 -67.5t-47.5 -160.5z" />
<glyph unicode="c" d="M38 179q0 71 27.5 146t72.5 129q78 95 220 95q88 0 143.5 -48t55.5 -120q0 -11 -4 -43h-134q-1 58 -20 78.5t-62 20.5q-71 0 -113.5 -71.5t-42.5 -166.5q0 -51 22.5 -73.5t68.5 -22.5q43 0 68 16.5t47 67.5h134q-61 -196 -266 -196q-103 0 -160 51.5t-57 136.5z" />
<glyph unicode="d" horiz-adv-x="611" d="M40 192q0 137 85 247t207 110q99 0 133 -79l55 259h140l-155 -729h-140l13 62q-68 -71 -164 -71q-79 0 -126.5 54t-47.5 147zM183 213q0 -53 24 -81.5t65 -28.5q65 0 110.5 63.5t45.5 156.5q0 52 -23.5 83t-64.5 31q-63 0 -110 -67t-47 -157z" />
<glyph unicode="e" d="M25 192q0 95 36.5 175t109.5 131t168 51q98 0 155 -56.5t57 -141.5q0 -54 -17 -118h-363q-1 -9 -1 -38q0 -41 26 -66.5t69 -25.5q34 0 64.5 15t44.5 34h138q-40 -74 -112.5 -117.5t-161.5 -43.5q-95 0 -154 54.5t-59 146.5zM189 326h220v15q0 51 -22 73.5t-65 22.5 q-102 0 -133 -111z" />
<glyph unicode="f" horiz-adv-x="333" d="M50 0l93 436h-77l20 93h76l14 65q15 70 56.5 102.5t114.5 32.5l77 -3l-22 -105q-36 4 -42 4q-37 0 -46 -43l-12 -53h83l-20 -93h-82l-93 -436h-140z" />
<glyph unicode="g" horiz-adv-x="611" d="M-14 -96q0 13 3 31h144l-1 -12q0 -22 24.5 -36.5t61.5 -14.5q55 0 95 30.5t51 79.5l17 80q-47 -40 -82.5 -55.5t-81.5 -15.5q-77 0 -127 50.5t-50 132.5q0 97 38.5 183t107.5 139t152 53q87 0 127 -92l18 83h133l-119 -558q-20 -96 -98.5 -148t-203.5 -52 q-98 0 -153.5 32.5t-55.5 89.5zM183 208q0 -51 23 -78t63 -27q67 0 114.5 60.5t47.5 151.5q0 56 -25 89t-67 33q-62 0 -109 -68.5t-47 -160.5z" />
<glyph unicode="h" horiz-adv-x="611" d="M27 0l155 729h140l-58 -271q77 91 180 91q65 0 105 -36.5t40 -95.5q0 -27 -6 -55l-77 -362h-140l67 313q4 20 6 48q0 76 -73 76q-48 0 -84.5 -36t-49.5 -97l-65 -304h-140z" />
<glyph unicode="i" horiz-adv-x="278" d="M27 0l115 540h140l-115 -540h-140zM157 610l27 131h140l-27 -131h-140z" />
<glyph unicode="j" horiz-adv-x="278" d="M-83 -213l24 111q5 -4 25 -4q23 0 34.5 10t16.5 34l128 602h140l-135 -634q-14 -65 -58.5 -94.5t-129.5 -29.5q-28 0 -45 5zM160 610l27 131h140l-27 -131h-140z" />
<glyph unicode="k" d="M19 0l155 729h140l-85 -399l223 210h159l-232 -206l129 -334h-164l-79 239l-68 -62l-38 -177h-140z" />
<glyph unicode="l" horiz-adv-x="278" d="M27 0l155 729h140l-155 -729h-140z" />
<glyph unicode="m" horiz-adv-x="889" d="M20 0l115 540h139l-17 -81q44 49 83 69.5t88 20.5q46 0 79.5 -22t44.5 -60q79 82 177 82q67 0 104.5 -33.5t37.5 -92.5q0 -22 -8 -61l-77 -362h-140l72 340q5 23 5 41q0 56 -58 56q-47 0 -79.5 -29.5t-43.5 -83.5l-69 -324h-140l74 346q3 17 3 33q0 26 -17 42t-46 16 q-44 0 -75.5 -30.5t-42.5 -82.5l-69 -324h-140z" />
<glyph unicode="n" horiz-adv-x="611" d="M23 0l115 540h140l-18 -82q41 48 83.5 69.5t98.5 21.5q67 0 107 -36t40 -96q0 -27 -6 -55l-77 -362h-140l67 313q3 15 6 49q0 75 -74 75q-51 0 -87.5 -35.5t-49.5 -97.5l-65 -304h-140z" />
<glyph unicode="o" horiz-adv-x="611" d="M43 184q0 157 92.5 261t237.5 104q103 0 162 -53.5t59 -146.5q0 -159 -92 -258.5t-240 -99.5q-100 0 -159.5 51.5t-59.5 141.5zM186 212q0 -52 27.5 -80.5t73.5 -28.5q69 0 116.5 63t47.5 154q0 53 -27 85t-73 32q-68 0 -116.5 -65t-48.5 -160z" />
<glyph unicode="p" horiz-adv-x="611" d="M-29 -218l161 758h140l-17 -80q69 89 169 89q80 0 126.5 -56t46.5 -151q0 -150 -84 -250.5t-206 -100.5q-100 0 -134 81l-62 -290h-140zM208 209q0 -50 24 -78t65 -28q65 0 111 63t46 157q0 52 -24 83t-64 31q-65 0 -111.5 -67t-46.5 -161z" />
<glyph unicode="q" horiz-adv-x="611" d="M34 188q0 142 85 251.5t210 109.5q103 0 133 -89l17 80h140l-161 -758h-140l62 290q-69 -81 -169 -81q-80 0 -128.5 53t-48.5 144zM177 210q0 -51 24.5 -79t65.5 -28q66 0 112.5 63.5t46.5 157.5q0 52 -24 82.5t-65 30.5q-65 0 -112.5 -67t-47.5 -160z" />
<glyph unicode="r" horiz-adv-x="389" d="M23 0l115 540h140l-23 -106q35 55 81 85t94 30q9 0 17 -1l-30 -142q-24 4 -43 4q-124 0 -150 -123l-61 -287h-140z" />
<glyph unicode="s" d="M23 141q0 10 4 30h137q3 -68 106 -68q102 0 102 48q-1 12 -16 21t-61 24l-79 25q-129 41 -129 124q0 84 70.5 144t189.5 60q94 0 148 -38.5t54 -106.5q0 -16 -5 -38h-135q3 13 3 19q0 24 -23.5 38t-64.5 14q-40 0 -64 -14.5t-24 -38.5q0 -15 13.5 -24.5t51.5 -20.5 l96 -28q63 -18 93 -46t30 -71q0 -95 -74 -149t-202 -54q-99 0 -160 41t-61 109z" />
<glyph unicode="t" horiz-adv-x="333" d="M64 75q0 18 5 41l67 320h-69l20 93h69l31 145h140l-31 -145h78l-20 -93h-78l-59 -282q-6 -25 -6 -34q0 -25 38 -25q12 0 33 3l-20 -98q-54 -4 -84 -4q-114 0 -114 79z" />
<glyph unicode="u" horiz-adv-x="611" d="M51 123q0 27 6 55l77 362h140l-67 -313q-4 -17 -6 -49q0 -75 76 -75q49 0 85 36t49 97l65 304h140l-115 -540h-140l16 75q-77 -84 -180 -84q-66 0 -106 36t-40 96z" />
<glyph unicode="v" d="M89 540h148l30 -395l196 395h148l-301 -540h-147z" />
<glyph unicode="w" horiz-adv-x="778" d="M80 540h150v-378l159 378h144v-378l163 378h145l-264 -540h-150v380l-166 -380h-144z" />
<glyph unicode="x" d="M-24 0l233 274l-111 266h168l51 -163l123 163h168l-237 -266l123 -274h-168l-59 168l-123 -168h-168z" />
<glyph unicode="y" d="M-3 -215l23 109q11 -2 28 -2q52 0 82.5 25t30.5 68l-77 555h154l36 -393l195 393h144l-358 -638q-42 -75 -86 -98t-128 -23q-27 0 -44 4z" />
<glyph unicode="z" horiz-adv-x="500" d="M-19 0l24 113l334 314h-249l24 113h421l-24 -113l-332 -314h274l-24 -113h-448z" />
<glyph unicode="{" horiz-adv-x="389" d="M44 223l20 92h16q64 0 78 63l45 211q14 67 54 103.5t99 36.5h76l-21 -99h-37q-28 0 -39 -11t-18 -46l-41 -195q-11 -54 -39 -78.5t-82 -30.5q42 -7 60.5 -22t18.5 -47q0 -16 -5 -41l-42 -195q-5 -21 -5 -40q0 -25 39 -25h35l-21 -99h-77q-43 0 -70 28t-27 73q0 22 4 39 l45 210q5 25 5 34q0 35 -54 38z" />
<glyph unicode="|" horiz-adv-x="280" d="M104 -200v929h100v-929h-100z" />
<glyph unicode="}" horiz-adv-x="389" d="M-11 -200l21 99h38q28 0 39 11t18 46l41 195q11 54 39 78.5t82 30.5q-42 6 -60.5 21.5t-18.5 47.5q0 16 5 41l42 195q2 7 5 40q0 25 -39 25h-36l21 99h78q43 0 70 -28t27 -73q0 -22 -4 -39l-45 -210q-5 -25 -5 -34q0 -35 54 -38l18 -1l-20 -92h-17q-64 0 -78 -63 l-45 -211q-14 -67 -54 -103.5t-99 -36.5h-77z" />
<glyph unicode="~" horiz-adv-x="584" d="M57 169q39 145 159 145q47 0 76 -25l49 -42q29 -26 56 -25q28 0 42 14t25 52h77q-17 -71 -57.5 -108.5t-100.5 -37.5q-48 0 -77 26l-48 42q-28 24 -56 24q-29 0 -43 -14t-24 -51h-78z" />
<glyph unicode="&#xa1;" horiz-adv-x="333" d="M11 -186l45 210l107 309h67l-24 -309l-45 -210h-150zM135 394l31 146h150l-31 -146h-150z" />
<glyph unicode="&#xa2;" d="M39 172q0 63 23.5 135.5t60.5 125.5q73 105 205 115l19 86h66l-19 -87q72 -9 118 -55t46 -111q0 -11 -4 -43h-134q0 45 -11 66.5t-39 30.5l-73 -346q31 7 52 30t39 68h134q-27 -92 -94 -148.5t-155 -60.5l-21 -102h-66l22 104q-78 13 -123.5 63t-45.5 129zM182 191 q0 -41 11.5 -63.5t38.5 -34.5l72 342q-56 -15 -89 -87.5t-33 -156.5z" />
<glyph unicode="&#xa3;" d="M9 80q78 46 111 87.5t33 93.5q0 20 -5 55h-89l12 55h60q-26 76 -26 107q0 94 81.5 165.5t198.5 71.5q204 0 204 -176q0 -22 -4 -55h-131q1 10 1 26q0 93 -93 93q-46 0 -80 -32t-34 -75q0 -3 6 -29.5t13.5 -57.5t8.5 -38h139l-12 -55h-122q2 -13 2 -26q0 -53 -34.5 -99.5 t-116.5 -104.5q48 22 66.5 27.5t41.5 5.5q19 0 65 -9q42 -8 66 -8q49 0 114 29l18 -109q-87 -45 -155 -45q-16 0 -93.5 15t-97.5 15q-50 0 -115 -28z" />
<glyph unicode="&#xa4;" d="M-13 142l119 98q-20 52 -6 117q13 63 55 115l-77 98l80 66l77 -98q61 33 124 33q67 0 110 -33l119 98l52 -66l-119 -98q22 -50 9 -115q-14 -66 -58 -117l77 -98l-80 -66l-77 98q-57 -33 -124 -33q-63 0 -110 33l-119 -98zM212 357q-11 -48 10.5 -80.5t67.5 -32.5 t81.5 32.5t46.5 80.5q10 48 -12.5 79.5t-68.5 31.5t-80.5 -31.5t-44.5 -79.5z" />
<glyph unicode="&#xa5;" d="M67 180l13 60h146l11 52h-146l12 60h140l-128 352h139l85 -254l187 254h136l-267 -352h139l-13 -60h-144l-11 -52h144l-13 -60h-144l-38 -180h-140l38 180h-146z" />
<glyph unicode="&#xa6;" horiz-adv-x="280" d="M104 172h100v-372h-100v372zM104 357v372h100v-372h-100z" />
<glyph unicode="&#xa7;" d="M16 -59q0 26 9 59h131q-3 -26 -3 -34q0 -55 65 -55q38 0 64 21.5t26 52.5q0 20 -9 30.5t-46 33.5l-150 100q-54 37 -54 98q0 59 25.5 96.5t101.5 84.5q-38 39 -38 96q0 80 71 139.5t176 59.5q80 0 125.5 -34t45.5 -95q0 -15 -7 -50h-127q1 7 1 18q0 59 -62 59 q-32 0 -53.5 -18t-21.5 -44q0 -30 71 -74l112 -70q69 -43 69 -113q0 -67 -30 -108.5t-100 -67.5q48 -39 48 -99q0 -93 -77 -160.5t-187 -67.5q-81 0 -128.5 38.5t-47.5 103.5zM179 301q0 -30 39 -54l125 -77q65 30 65 77q0 18 -10 30.5t-36 28.5l-127 76q-56 -29 -56 -81z " />
<glyph unicode="&#xa8;" horiz-adv-x="333" d="M97 618l25 115h126l-25 -115h-126zM292 618l25 115h126l-25 -115h-126z" />
<glyph unicode="&#xa9;" horiz-adv-x="737" d="M35 340q0 144 102 246.5t246 102.5t246.5 -102.5t102.5 -246.5t-102.5 -246t-246.5 -102t-246 102t-102 246zM94 340q0 -120 84.5 -204.5t204.5 -84.5t205 84.5t85 204.5t-85 205t-205 85t-204.5 -85t-84.5 -205zM190 277q-2 111 66 184t170 73q66 0 107 -30.5t43 -78.5 q0 -4 -3 -34h-91q1 33 -16.5 48.5t-50.5 15.5q-61 0 -94 -49q-36 -51 -34 -111q1 -70 76 -70q80 0 97 66h93q-16 -70 -69 -107.5t-134 -37.5q-74 0 -116.5 35t-43.5 96z" />
<glyph unicode="&#xaa;" horiz-adv-x="370" d="M56 262l17 80h283l-16 -80h-284zM94 463q0 48 33 80.5t89 42.5l34 6q50 7 63 15.5t13 28.5q0 25 -44 25q-29 0 -44.5 -10t-22.5 -34h-79q25 112 161 112q53 0 83.5 -19t30.5 -53q0 -11 -3 -28l-39 -180q-1 -5 -1 -13q0 -12 12 -27l-2 -10h-92q-4 8 -4 16q0 6 2 16 q-52 -46 -107 -46q-38 0 -60.5 21t-22.5 57zM181 483q0 -30 42 -30q31 0 52.5 20t28.5 56l5 23q-10 -4 -16 -6q-8 -1 -16.5 -2.5t-19 -3.5t-16.5 -3q-60 -11 -60 -54z" />
<glyph unicode="&#xab;" d="M95 218l24 114l199 149l-25 -117l-120 -89l82 -89l-24 -114zM308 218l24 114l199 149l-25 -117l-120 -89l82 -89l-24 -114z" />
<glyph unicode="&#xac;" horiz-adv-x="584" d="M74 291v100h464v-232h-100v132h-364z" />
<glyph unicode="&#xad;" horiz-adv-x="333" d="M30 207l29 135h272l-29 -135h-272z" />
<glyph unicode="&#xae;" horiz-adv-x="737" d="M35 340q0 144 102 246.5t246 102.5t246.5 -102.5t102.5 -246.5t-102.5 -246t-246.5 -102t-246 102t-102 246zM94 340q0 -120 84.5 -204.5t204.5 -84.5t205 84.5t85 204.5t-85 205t-205 85t-204.5 -85t-84.5 -205zM186 152l80 376h213q46 0 73.5 -22.5t28.5 -57.5 q1 -71 -77 -113q30 -13 32 -40q0 -20 -14 -92q-1 -4 -1 -11q0 -8 11 -15l-6 -25h-98q-7 18 -7 26q-1 17 13 68q6 24 6 28q-1 21 -41 21h-86l-30 -143h-97zM330 372h91q29 0 46.5 14t17.5 36q-2 29 -55 29h-84z" />
<glyph unicode="&#xaf;" horiz-adv-x="333" d="M109 635l17 80h300l-17 -80h-300z" />
<glyph unicode="&#xb0;" horiz-adv-x="400" d="M138 569q13 59 63.5 101t109.5 42t92.5 -42t20.5 -101t-63.5 -101t-109.5 -42t-92.5 42t-20.5 101zM194 569q-8 -36 12 -61.5t56 -25.5t67.5 25.5t38.5 61.5t-13 61.5t-56 25.5t-66.5 -25.5t-38.5 -61.5z" />
<glyph unicode="&#xb1;" horiz-adv-x="584" d="M74 0v100h464v-100h-464zM74 300v100h182v182h100v-182h182v-100h-182v-110h-100v110h-182z" />
<glyph unicode="&#xb2;" horiz-adv-x="333" d="M59 336q13 54 39 84.5t85 64.5q73 42 95 62t28 49q11 57 -42 57q-52 0 -66 -63l-2 -14h-81q10 68 53.5 105t114.5 37q64 0 92 -30.5t16 -87.5q-9 -40 -32.5 -65.5t-85.5 -63.5l-25 -15q-38 -22 -54 -39q-2 -1 -5 -4l-6 -6h165l-16 -71h-273z" />
<glyph unicode="&#xb3;" horiz-adv-x="333" d="M86 450h81q-9 -58 44 -58q24 0 43 15t24 38q5 26 -11 40.5t-52 14.5h-14l12 55h10q66 0 77 51q4 22 -6 35t-31 13q-27 0 -41.5 -15.5t-22.5 -50.5h-78q33 130 159 130q58 0 86.5 -28t18.5 -75q-12 -51 -63 -78q54 -29 40 -91q-12 -55 -57.5 -88.5t-108.5 -33.5 q-65 0 -93.5 33t-16.5 93z" />
<glyph unicode="&#xb4;" horiz-adv-x="333" d="M204 598l102 154h156l-158 -154h-100z" />
<glyph unicode="&#xb5;" horiz-adv-x="611" d="M-29 -220l162 760h140l-71 -333q-7 -33 -7 -46q0 -29 20.5 -45.5t55.5 -16.5q50 0 85.5 28t46.5 75l72 338h140l-83 -390q-7 -29 -7 -50q0 -23 21 -23q8 0 21 4l-18 -86q-36 -18 -74 -18q-34 0 -52.5 12t-30.5 43q-36 -31 -67 -43t-74 -12q-61 0 -95 38l-50 -235h-135z " />
<glyph unicode="&#xb6;" d="M81 435q0 109 78.5 201.5t182.5 92.5h302l-15 -73h-44l-180 -847h-98l180 847h-62l-180 -847h-98l97 458q-75 4 -119 49t-44 119z" />
<glyph unicode="&#xb7;" horiz-adv-x="278" d="M78 250q0 31 22 53t53 22t53 -22t22 -53t-22 -53t-53 -22t-53 22t-22 53z" />
<glyph unicode="&#xb8;" horiz-adv-x="333" d="M-53 -201l30 51q51 -25 98 -25q29 0 48.5 10.5t19.5 28.5q0 16 -12.5 27.5t-31.5 11.5h-50l60 99h60l-36 -58h33q29 0 46.5 -19.5t17.5 -47.5q0 -49 -41 -78t-109 -29q-59 0 -133 29z" />
<glyph unicode="&#xb9;" horiz-adv-x="333" d="M138 589l12 54q102 0 136 66h56l-80 -374h-84l54 254h-94z" />
<glyph unicode="&#xba;" horiz-adv-x="365" d="M52 262l17 80h301l-17 -80h-301zM100 506q0 94 56 158.5t143 64.5q62 0 97 -32t35 -87q0 -97 -57 -160.5t-145 -63.5q-59 0 -94 32.5t-35 87.5zM187 520q0 -32 16 -51.5t42 -19.5q40 0 69.5 42t29.5 99q0 32 -16 51.5t-42 19.5q-41 0 -70 -41.5t-29 -99.5z" />
<glyph unicode="&#xbb;" d="M63 72l25 117l120 89l-82 89l24 114l136 -146l-24 -115zM270 72l25 117l120 89l-82 89l24 114l136 -146l-24 -115z" />
<glyph unicode="&#xbc;" horiz-adv-x="834" d="M115 -25l580 740h87l-580 -740h-87zM149 589l12 54q101 0 136 66h56l-80 -374h-84l54 254h-94zM453 82l14 65l194 227h96l-48 -226h40l-14 -66h-40l-17 -82h-84l17 82h-158zM532 148h93l31 144z" />
<glyph unicode="&#xbd;" horiz-adv-x="834" d="M89 -25l580 740h87l-580 -740h-87zM149 589l12 54q101 0 136 66h56l-80 -374h-84l54 254h-94zM460 0q13 53 38.5 84t84.5 65q73 42 95 62t28 49q6 27 -5 42t-37 15q-53 0 -66 -63l-1 -14h-81q2 14 2 16q13 61 56 93.5t109 32.5q64 0 91.5 -30.5t15.5 -87.5 q-8 -40 -32 -66t-84 -62q-50 -30 -58.5 -36t-32.5 -29h165l-15 -71h-273z" />
<glyph unicode="&#xbe;" horiz-adv-x="834" d="M119 450h81q-9 -58 44 -58q24 0 43 15t24 38q5 26 -11 40.5t-52 14.5h-14l12 55h10q66 0 77 51q4 22 -6 35t-31 13q-27 0 -41.5 -15.5t-22.5 -50.5h-78q33 130 159 130q58 0 86.5 -28t18.5 -75q-12 -51 -63 -78q54 -29 40 -91q-12 -55 -57.5 -88.5t-108.5 -33.5 q-65 0 -93.5 33t-16.5 93zM147 -25l580 740h87l-580 -740h-87zM453 82l14 65l194 227h96l-48 -226h40l-14 -66h-40l-17 -82h-84l17 82h-158zM532 148h93l31 144z" />
<glyph unicode="&#xbf;" horiz-adv-x="611" d="M20 -26q0 87 51 153q33 42 116 93q51 32 66 51t25 68h122q-5 -57 -37.5 -103t-102.5 -95q-63 -44 -80 -71t-17 -63q0 -38 25.5 -62.5t65.5 -24.5q51 0 86 36.5t48 102.5h136q-59 -263 -288 -263q-102 0 -159 49t-57 129zM274 394l31 146h150l-31 -146h-150z" />
<glyph unicode="&#xc0;" horiz-adv-x="722" d="M-14 0l407 729h173l97 -729h-153l-18 147h-272l-81 -147h-153zM289 272h189l-35 283zM308 921h172l64 -135h-104z" />
<glyph unicode="&#xc1;" horiz-adv-x="722" d="M-14 0l407 729h173l97 -729h-153l-18 147h-272l-81 -147h-153zM289 272h189l-35 283zM439 786l122 135h172l-190 -135h-104z" />
<glyph unicode="&#xc2;" horiz-adv-x="722" d="M-14 0l407 729h173l97 -729h-153l-18 147h-272l-81 -147h-153zM289 272h189l-35 283zM301 788l167 132h129l86 -132h-86l-82 53l-123 -53h-91z" />
<glyph unicode="&#xc3;" horiz-adv-x="722" d="M-14 0l407 729h173l97 -729h-153l-18 147h-272l-81 -147h-153zM289 272h189l-35 283zM312 795q17 56 48.5 86.5t72.5 30.5q31 0 71 -17l50 -21q25 -11 33 -10q33 0 54 51h54q-17 -62 -52.5 -92t-80.5 -30q-32 0 -51 11l-50 25q-30 14 -44 14q-26 0 -51 -48h-54z" />
<glyph unicode="&#xc4;" horiz-adv-x="722" d="M-14 0l407 729h173l97 -729h-153l-18 147h-272l-81 -147h-153zM289 272h189l-35 283zM334 797l25 115h126l-25 -115h-126zM529 797l25 115h126l-25 -115h-126z" />
<glyph unicode="&#xc5;" horiz-adv-x="722" d="M-14 0l407 729h173l97 -729h-153l-18 147h-272l-81 -147h-153zM289 272h189l-35 283zM408 842q0 47 37.5 83.5t85.5 36.5q34 0 56.5 -22t22.5 -56q0 -47 -37.5 -83.5t-85.5 -36.5q-34 0 -56.5 22t-22.5 56zM461 854q0 -15 11 -25t27 -10q22 0 39.5 16.5t17.5 37.5 q0 15 -10 24.5t-26 9.5q-23 0 -41 -16t-18 -37z" />
<glyph unicode="&#xc6;" horiz-adv-x="1000" d="M-39 0l420 729h683l-26 -125h-367l-36 -165h339l-26 -125h-339l-40 -189h386l-27 -125h-536l32 152h-219l-85 -152h-159zM270 277h181l70 327h-66z" />
<glyph unicode="&#xc7;" horiz-adv-x="722" d="M68 241q0 215 123 357.5t302 142.5q116 0 188 -58t72 -151q0 -13 -4 -50h-141q0 131 -132 131q-120 0 -189 -109q-70 -109 -70 -234q0 -154 148 -154q152 0 194 133h143q-30 -118 -113.5 -184.5t-207.5 -75.5l-28 -45h33q29 0 46.5 -19.5t17.5 -47.5q0 -49 -41 -78 t-109 -29q-59 0 -133 29l30 51q51 -25 98 -25q29 0 48.5 10.5t19.5 28.5q0 16 -12.5 27.5t-31.5 11.5h-50l52 86q-119 6 -186 72t-67 180z" />
<glyph unicode="&#xc8;" horiz-adv-x="667" d="M39 0l155 729h528l-27 -125h-378l-35 -165h349l-26 -125h-349l-40 -189h395l-27 -125h-545zM286 921h172l64 -135h-104z" />
<glyph unicode="&#xc9;" horiz-adv-x="667" d="M39 0l155 729h528l-27 -125h-378l-35 -165h349l-26 -125h-349l-40 -189h395l-27 -125h-545zM417 786l122 135h172l-190 -135h-104z" />
<glyph unicode="&#xca;" horiz-adv-x="667" d="M39 0l155 729h528l-27 -125h-378l-35 -165h349l-26 -125h-349l-40 -189h395l-27 -125h-545zM279 788l167 132h129l86 -132h-86l-82 53l-123 -53h-91z" />
<glyph unicode="&#xcb;" horiz-adv-x="667" d="M39 0l155 729h528l-27 -125h-378l-35 -165h349l-26 -125h-349l-40 -189h395l-27 -125h-545zM312 797l25 115h126l-25 -115h-126zM507 797l25 115h126l-25 -115h-126z" />
<glyph unicode="&#xcc;" horiz-adv-x="278" d="M23 0l155 729h150l-155 -729h-150zM104 921h172l64 -135h-104z" />
<glyph unicode="&#xcd;" horiz-adv-x="278" d="M23 0l155 729h150l-155 -729h-150zM190 786l122 135h172l-190 -135h-104z" />
<glyph unicode="&#xce;" horiz-adv-x="278" d="M23 0l155 729h150l-155 -729h-150zM74 788l167 132h129l86 -132h-86l-82 53l-123 -53h-91z" />
<glyph unicode="&#xcf;" horiz-adv-x="278" d="M23 0l155 729h150l-155 -729h-150zM107 797l25 115h126l-25 -115h-126zM302 797l25 115h126l-25 -115h-126z" />
<glyph unicode="&#xd0;" horiz-adv-x="722" d="M33 341l17 80h76l66 308h285q136 0 197.5 -59.5t61.5 -190.5q0 -184 -112 -339q-55 -76 -124 -108t-178 -32h-285l73 341h-77zM214 125h134q65 0 106 23.5t73 79.5q26 44 43 113t17 128q0 135 -137 135h-135l-39 -183h174l-17 -80h-173z" />
<glyph unicode="&#xd1;" horiz-adv-x="722" d="M28 0l155 729h150l192 -515l109 515h142l-155 -729h-148l-192 523l-111 -523h-142zM312 795q17 56 48.5 86.5t72.5 30.5q31 0 71 -17l50 -21q25 -11 33 -10q33 0 54 51h54q-17 -62 -52.5 -92t-80.5 -30q-32 0 -51 11l-50 25q-30 14 -44 14q-26 0 -51 -48h-54z" />
<glyph unicode="&#xd2;" horiz-adv-x="778" d="M67 267q0 86 32.5 171.5t91.5 155.5q123 147 307 147q137 0 213.5 -75.5t76.5 -210.5q0 -181 -122 -325q-64 -76 -138 -109t-171 -33q-134 0 -212 74t-78 205zM216 288q0 -81 44.5 -126.5t120.5 -45.5q109 0 183.5 93.5t74.5 227.5q0 83 -42.5 129.5t-117.5 46.5 q-110 0 -186.5 -96.5t-76.5 -228.5zM323 921h172l64 -135h-104z" />
<glyph unicode="&#xd3;" horiz-adv-x="778" d="M67 267q0 86 32.5 171.5t91.5 155.5q123 147 307 147q137 0 213.5 -75.5t76.5 -210.5q0 -181 -122 -325q-64 -76 -138 -109t-171 -33q-134 0 -212 74t-78 205zM216 288q0 -81 44.5 -126.5t120.5 -45.5q109 0 183.5 93.5t74.5 227.5q0 83 -42.5 129.5t-117.5 46.5 q-110 0 -186.5 -96.5t-76.5 -228.5zM455 786l122 135h172l-190 -135h-104z" />
<glyph unicode="&#xd4;" horiz-adv-x="778" d="M67 267q0 86 32.5 171.5t91.5 155.5q123 147 307 147q137 0 213.5 -75.5t76.5 -210.5q0 -181 -122 -325q-64 -76 -138 -109t-171 -33q-134 0 -212 74t-78 205zM216 288q0 -81 44.5 -126.5t120.5 -45.5q109 0 183.5 93.5t74.5 227.5q0 83 -42.5 129.5t-117.5 46.5 q-110 0 -186.5 -96.5t-76.5 -228.5zM317 788l167 132h129l86 -132h-86l-82 53l-123 -53h-91z" />
<glyph unicode="&#xd5;" horiz-adv-x="778" d="M67 267q0 86 32.5 171.5t91.5 155.5q123 147 307 147q137 0 213.5 -75.5t76.5 -210.5q0 -181 -122 -325q-64 -76 -138 -109t-171 -33q-134 0 -212 74t-78 205zM216 288q0 -81 44.5 -126.5t120.5 -45.5q109 0 183.5 93.5t74.5 227.5q0 83 -42.5 129.5t-117.5 46.5 q-110 0 -186.5 -96.5t-76.5 -228.5zM327 795q17 56 48.5 86.5t72.5 30.5q31 0 71 -17l50 -21q25 -11 33 -10q33 0 54 51h54q-17 -62 -52.5 -92t-80.5 -30q-32 0 -51 11l-50 25q-30 14 -44 14q-26 0 -51 -48h-54z" />
<glyph unicode="&#xd6;" horiz-adv-x="778" d="M67 267q0 86 32.5 171.5t91.5 155.5q123 147 307 147q137 0 213.5 -75.5t76.5 -210.5q0 -181 -122 -325q-64 -76 -138 -109t-171 -33q-134 0 -212 74t-78 205zM216 288q0 -81 44.5 -126.5t120.5 -45.5q109 0 183.5 93.5t74.5 227.5q0 83 -42.5 129.5t-117.5 46.5 q-110 0 -186.5 -96.5t-76.5 -228.5zM349 797l25 115h126l-25 -115h-126zM544 797l25 115h126l-25 -115h-126z" />
<glyph unicode="&#xd7;" horiz-adv-x="584" d="M107 121l128 129l-128 129l70 70l129 -128l129 128l70 -70l-128 -129l128 -129l-70 -70l-129 128l-129 -128z" />
<glyph unicode="&#xd8;" horiz-adv-x="778" d="M13 55l84 74q-30 62 -30 138q0 86 32.5 171.5t91.5 155.5q123 147 307 147q135 0 212 -74l79 71l55 -64l-85 -75q29 -63 29 -144q0 -181 -122 -325q-64 -76 -138 -109t-171 -33q-132 0 -210 73l-79 -70zM216 288q0 -25 5 -50l375 329q-43 46 -117 46q-110 0 -186.5 -96.5 t-76.5 -228.5zM261 161q45 -45 120 -45q109 0 183.5 93.5t74.5 227.5q0 25 -5 52z" />
<glyph unicode="&#xd9;" horiz-adv-x="722" d="M81 178q0 36 11 88l99 463h150l-103 -483q-5 -20 -5 -45q0 -40 32.5 -62.5t90.5 -22.5q68 0 107 31.5t53 98.5l103 483h150l-103 -483q-27 -125 -117.5 -191.5t-220.5 -66.5q-113 0 -180 51.5t-67 138.5zM308 921h172l64 -135h-104z" />
<glyph unicode="&#xda;" horiz-adv-x="722" d="M81 178q0 36 11 88l99 463h150l-103 -483q-5 -20 -5 -45q0 -40 32.5 -62.5t90.5 -22.5q68 0 107 31.5t53 98.5l103 483h150l-103 -483q-27 -125 -117.5 -191.5t-220.5 -66.5q-113 0 -180 51.5t-67 138.5zM439 786l122 135h172l-190 -135h-104z" />
<glyph unicode="&#xdb;" horiz-adv-x="722" d="M81 178q0 36 11 88l99 463h150l-103 -483q-5 -20 -5 -45q0 -40 32.5 -62.5t90.5 -22.5q68 0 107 31.5t53 98.5l103 483h150l-103 -483q-27 -125 -117.5 -191.5t-220.5 -66.5q-113 0 -180 51.5t-67 138.5zM301 788l167 132h129l86 -132h-86l-82 53l-123 -53h-91z" />
<glyph unicode="&#xdc;" horiz-adv-x="722" d="M81 178q0 36 11 88l99 463h150l-103 -483q-5 -20 -5 -45q0 -40 32.5 -62.5t90.5 -22.5q68 0 107 31.5t53 98.5l103 483h150l-103 -483q-27 -125 -117.5 -191.5t-220.5 -66.5q-113 0 -180 51.5t-67 138.5zM334 797l25 115h126l-25 -115h-126zM529 797l25 115h126l-25 -115 h-126z" />
<glyph unicode="&#xdd;" horiz-adv-x="667" d="M142 729h167l82 -315l207 315h167l-328 -459l-58 -270h-150l58 270zM419 786l122 135h172l-190 -135h-104z" />
<glyph unicode="&#xde;" horiz-adv-x="667" d="M36 0l155 729h150l-26 -120h159q99 0 153 -47t54 -122q0 -120 -81 -210t-197 -90h-187l-30 -140h-150zM242 265h153q64 0 100.5 37.5t36.5 102.5q0 35 -25 57t-65 22h-153z" />
<glyph unicode="&#xdf;" horiz-adv-x="611" d="M27 0l119 558q17 78 89 124.5t177 46.5q91 0 146.5 -40.5t55.5 -106.5q0 -58 -33 -104.5t-89 -66.5q47 -11 72.5 -46t25.5 -88q0 -120 -86 -210t-195 -90q-23 0 -68 7l24 112h14q79 0 123.5 45.5t44.5 109.5q0 98 -113 98h-15l20 95q62 0 97 31t35 77q0 31 -24 48t-65 17 q-84 0 -101 -80l-114 -537h-140z" />
<glyph unicode="&#xe0;" d="M11 115q0 74 53.5 127.5t147.5 68.5l58 9q12 2 26.5 4t20 3t13.5 2.5t10.5 2t7 2t7 3l7.5 4.5q34 17 34 53q0 43 -73 43q-48 0 -73.5 -17t-38.5 -58h-131q21 98 84.5 142.5t181.5 44.5q93 0 142.5 -32t49.5 -89q0 -18 -6 -45l-63 -300q-3 -12 -3 -21q0 -21 21 -45l-4 -17 h-153q-7 15 -7 27q0 14 4 34q-43 -39 -81.5 -54.5t-83.5 -15.5q-70 0 -110.5 34t-40.5 90zM154 146q0 -43 75 -43q51 0 86 33.5t48 94.5l5 24q-14 -8 -18.5 -9t-28.5 -5l-66 -11q-101 -17 -101 -84zM214 752h156l37 -154h-100z" />
<glyph unicode="&#xe1;" d="M11 115q0 74 53.5 127.5t147.5 68.5l58 9q12 2 26.5 4t20 3t13.5 2.5t10.5 2t7 2t7 3l7.5 4.5q34 17 34 53q0 43 -73 43q-48 0 -73.5 -17t-38.5 -58h-131q21 98 84.5 142.5t181.5 44.5q93 0 142.5 -32t49.5 -89q0 -18 -6 -45l-63 -300q-3 -12 -3 -21q0 -21 21 -45l-4 -17 h-153q-7 15 -7 27q0 14 4 34q-43 -39 -81.5 -54.5t-83.5 -15.5q-70 0 -110.5 34t-40.5 90zM154 146q0 -43 75 -43q51 0 86 33.5t48 94.5l5 24q-14 -8 -18.5 -9t-28.5 -5l-66 -11q-101 -17 -101 -84zM306 598l102 154h156l-158 -154h-100z" />
<glyph unicode="&#xe2;" d="M11 115q0 74 53.5 127.5t147.5 68.5l58 9q12 2 26.5 4t20 3t13.5 2.5t10.5 2t7 2t7 3l7.5 4.5q34 17 34 53q0 43 -73 43q-48 0 -73.5 -17t-38.5 -58h-131q21 98 84.5 142.5t181.5 44.5q93 0 142.5 -32t49.5 -89q0 -18 -6 -45l-63 -300q-3 -12 -3 -21q0 -21 21 -45l-4 -17 h-153q-7 15 -7 27q0 14 4 34q-43 -39 -81.5 -54.5t-83.5 -15.5q-70 0 -110.5 34t-40.5 90zM154 146q0 -43 75 -43q51 0 86 33.5t48 94.5l5 24q-14 -8 -18.5 -9t-28.5 -5l-66 -11q-101 -17 -101 -84zM187 598l140 154h127l71 -154h-88l-66 77l-98 -77h-86z" />
<glyph unicode="&#xe3;" d="M11 115q0 74 53.5 127.5t147.5 68.5l58 9q12 2 26.5 4t20 3t13.5 2.5t10.5 2t7 2t7 3l7.5 4.5q34 17 34 53q0 43 -73 43q-48 0 -73.5 -17t-38.5 -58h-131q21 98 84.5 142.5t181.5 44.5q93 0 142.5 -32t49.5 -89q0 -18 -6 -45l-63 -300q-3 -12 -3 -21q0 -21 21 -45l-4 -17 h-153q-7 15 -7 27q0 14 4 34q-43 -39 -81.5 -54.5t-83.5 -15.5q-70 0 -110.5 34t-40.5 90zM154 146q0 -43 75 -43q51 0 86 33.5t48 94.5l5 24q-14 -8 -18.5 -9t-28.5 -5l-66 -11q-101 -17 -101 -84zM177 616q17 56 48.5 86.5t72.5 30.5q31 0 71 -17l50 -21q25 -11 33 -10 q33 0 54 51h54q-17 -62 -52.5 -92t-80.5 -30q-32 0 -51 11l-50 25q-30 14 -44 14q-26 0 -51 -48h-54z" />
<glyph unicode="&#xe4;" d="M11 115q0 74 53.5 127.5t147.5 68.5l58 9q12 2 26.5 4t20 3t13.5 2.5t10.5 2t7 2t7 3l7.5 4.5q34 17 34 53q0 43 -73 43q-48 0 -73.5 -17t-38.5 -58h-131q21 98 84.5 142.5t181.5 44.5q93 0 142.5 -32t49.5 -89q0 -18 -6 -45l-63 -300q-3 -12 -3 -21q0 -21 21 -45l-4 -17 h-153q-7 15 -7 27q0 14 4 34q-43 -39 -81.5 -54.5t-83.5 -15.5q-70 0 -110.5 34t-40.5 90zM154 146q0 -43 75 -43q51 0 86 33.5t48 94.5l5 24q-14 -8 -18.5 -9t-28.5 -5l-66 -11q-101 -17 -101 -84zM199 618l25 115h126l-25 -115h-126zM394 618l25 115h126l-25 -115h-126z " />
<glyph unicode="&#xe5;" d="M11 115q0 74 53.5 127.5t147.5 68.5l58 9q12 2 26.5 4t20 3t13.5 2.5t10.5 2t7 2t7 3l7.5 4.5q34 17 34 53q0 43 -73 43q-48 0 -73.5 -17t-38.5 -58h-131q21 98 84.5 142.5t181.5 44.5q93 0 142.5 -32t49.5 -89q0 -18 -6 -45l-63 -300q-3 -12 -3 -21q0 -21 21 -45l-4 -17 h-153q-7 15 -7 27q0 14 4 34q-43 -39 -81.5 -54.5t-83.5 -15.5q-70 0 -110.5 34t-40.5 90zM154 146q0 -43 75 -43q51 0 86 33.5t48 94.5l5 24q-14 -8 -18.5 -9t-28.5 -5l-66 -11q-101 -17 -101 -84zM271 654q0 47 37.5 83.5t85.5 36.5q34 0 56.5 -22t22.5 -56 q0 -47 -37.5 -83.5t-85.5 -36.5q-34 0 -56.5 22t-22.5 56zM325 666q0 -15 10.5 -25t26.5 -10q22 0 39.5 16.5t17.5 37.5q0 15 -10 24.5t-26 9.5q-23 0 -40.5 -16t-17.5 -37z" />
<glyph unicode="&#xe6;" horiz-adv-x="889" d="M15 113q0 76 53.5 129.5t147.5 68.5l57 9q12 2 26.5 4t20 3t13.5 2.5t10.5 2t7 2t7.5 3t8 4.5q34 17 34 53q0 43 -73 43q-48 0 -73.5 -17t-38.5 -58h-131q21 101 85.5 144t182.5 43q113 0 161 -49q73 49 165 49q94 0 151.5 -57t57.5 -141q0 -57 -18 -125h-362 q-7 -30 -7 -51q2 -29 30 -50.5t69 -21.5q35 0 66 15t45 34h138q-38 -71 -114.5 -116t-164.5 -45q-137 0 -181 100q-52 -56 -99.5 -78t-116.5 -22q-74 0 -115.5 31t-41.5 91zM158 146q0 -43 73 -43q52 0 87.5 33t48.5 94l5 24q-22 -11 -47 -13l-66 -11q-101 -17 -101 -84z M528 319h216v27q0 43 -22 67t-63 24q-99 0 -131 -118z" />
<glyph unicode="&#xe7;" d="M38 179q0 71 27.5 146t72.5 129q78 95 220 95q88 0 143.5 -48t55.5 -120q0 -11 -4 -43h-134q-1 58 -20 78.5t-62 20.5q-71 0 -113.5 -71.5t-42.5 -166.5q0 -51 22.5 -73.5t68.5 -22.5q43 0 68 16.5t47 67.5h134q-56 -177 -228 -194l-30 -49h33q29 0 46.5 -19.5 t17.5 -47.5q0 -49 -41 -78t-109 -29q-59 0 -133 29l30 51q51 -25 98 -25q29 0 48.5 10.5t19.5 28.5q0 16 -12.5 27.5t-31.5 11.5h-50l54 89q-93 6 -144 56.5t-51 130.5z" />
<glyph unicode="&#xe8;" d="M25 192q0 95 36.5 175t109.5 131t168 51q98 0 155 -56.5t57 -141.5q0 -54 -17 -118h-363q-1 -9 -1 -38q0 -41 26 -66.5t69 -25.5q34 0 64.5 15t44.5 34h138q-40 -74 -112.5 -117.5t-161.5 -43.5q-95 0 -154 54.5t-59 146.5zM189 326h220v15q0 51 -22 73.5t-65 22.5 q-102 0 -133 -111zM223 752h156l37 -154h-100z" />
<glyph unicode="&#xe9;" d="M25 192q0 95 36.5 175t109.5 131t168 51q98 0 155 -56.5t57 -141.5q0 -54 -17 -118h-363q-1 -9 -1 -38q0 -41 26 -66.5t69 -25.5q34 0 64.5 15t44.5 34h138q-40 -74 -112.5 -117.5t-161.5 -43.5q-95 0 -154 54.5t-59 146.5zM189 326h220v15q0 51 -22 73.5t-65 22.5 q-102 0 -133 -111zM315 598l102 154h156l-158 -154h-100z" />
<glyph unicode="&#xea;" d="M25 192q0 95 36.5 175t109.5 131t168 51q98 0 155 -56.5t57 -141.5q0 -54 -17 -118h-363q-1 -9 -1 -38q0 -41 26 -66.5t69 -25.5q34 0 64.5 15t44.5 34h138q-40 -74 -112.5 -117.5t-161.5 -43.5q-95 0 -154 54.5t-59 146.5zM189 326h220v15q0 51 -22 73.5t-65 22.5 q-102 0 -133 -111zM196 598l140 154h127l71 -154h-88l-66 77l-98 -77h-86z" />
<glyph unicode="&#xeb;" d="M25 192q0 95 36.5 175t109.5 131t168 51q98 0 155 -56.5t57 -141.5q0 -54 -17 -118h-363q-1 -9 -1 -38q0 -41 26 -66.5t69 -25.5q34 0 64.5 15t44.5 34h138q-40 -74 -112.5 -117.5t-161.5 -43.5q-95 0 -154 54.5t-59 146.5zM189 326h220v15q0 51 -22 73.5t-65 22.5 q-102 0 -133 -111zM208 618l25 115h126l-25 -115h-126zM403 618l25 115h126l-25 -115h-126z" />
<glyph unicode="&#xec;" horiz-adv-x="278" d="M27 0l115 540h140l-115 -540h-140zM102 752h156l37 -154h-100z" />
<glyph unicode="&#xed;" horiz-adv-x="278" d="M27 0l115 540h140l-115 -540h-140zM155 598l102 154h156l-158 -154h-100z" />
<glyph unicode="&#xee;" horiz-adv-x="278" d="M27 0l115 540h140l-115 -540h-140zM55 598l140 154h127l71 -154h-88l-66 77l-98 -77h-86z" />
<glyph unicode="&#xef;" horiz-adv-x="278" d="M27 0l115 540h140l-115 -540h-140zM67 618l25 115h126l-25 -115h-126zM262 618l25 115h126l-25 -115h-126z" />
<glyph unicode="&#xf0;" horiz-adv-x="611" d="M46 192q-2 83 30.5 159.5t98 127.5t147.5 51q41 0 90 -27q-37 63 -97 106l-97 -45l-41 43l88 41l-70 46l70 50q7 -3 18 -7.5t15.5 -7t14 -7t20.5 -11.5t27 -18l104 45l43 -43l-93 -41q97 -72 138 -142.5t41 -166.5q0 -152 -89 -253t-236 -101q-104 0 -163 53.5t-59 147.5 zM190 220q0 -60 27.5 -88.5t71.5 -28.5q71 0 116.5 61t45.5 162q0 52 -30 78.5t-74 26.5q-70 0 -113.5 -61t-43.5 -150z" />
<glyph unicode="&#xf1;" horiz-adv-x="611" d="M23 0l115 540h140l-18 -82q41 48 83.5 69.5t98.5 21.5q67 0 107 -36t40 -96q0 -27 -6 -55l-77 -362h-140l67 313q3 15 6 49q0 75 -74 75q-51 0 -87.5 -35.5t-49.5 -97.5l-65 -304h-140zM214 616q17 56 48.5 86.5t72.5 30.5q31 0 71 -17l50 -21q25 -11 33 -10q33 0 54 51 h54q-17 -62 -52.5 -92t-80.5 -30q-32 0 -51 11l-50 25q-30 14 -44 14q-26 0 -51 -48h-54z" />
<glyph unicode="&#xf2;" horiz-adv-x="611" d="M43 184q0 157 92.5 261t237.5 104q103 0 162 -53.5t59 -146.5q0 -159 -92 -258.5t-240 -99.5q-100 0 -159.5 51.5t-59.5 141.5zM186 212q0 -52 27.5 -80.5t73.5 -28.5q69 0 116.5 63t47.5 154q0 53 -27 85t-73 32q-68 0 -116.5 -65t-48.5 -160zM250 752h156l37 -154h-100 z" />
<glyph unicode="&#xf3;" horiz-adv-x="611" d="M43 184q0 157 92.5 261t237.5 104q103 0 162 -53.5t59 -146.5q0 -159 -92 -258.5t-240 -99.5q-100 0 -159.5 51.5t-59.5 141.5zM186 212q0 -52 27.5 -80.5t73.5 -28.5q69 0 116.5 63t47.5 154q0 53 -27 85t-73 32q-68 0 -116.5 -65t-48.5 -160zM343 598l102 154h156 l-158 -154h-100z" />
<glyph unicode="&#xf4;" horiz-adv-x="611" d="M43 184q0 157 92.5 261t237.5 104q103 0 162 -53.5t59 -146.5q0 -159 -92 -258.5t-240 -99.5q-100 0 -159.5 51.5t-59.5 141.5zM186 212q0 -52 27.5 -80.5t73.5 -28.5q69 0 116.5 63t47.5 154q0 53 -27 85t-73 32q-68 0 -116.5 -65t-48.5 -160zM224 598l140 154h127 l71 -154h-88l-66 77l-98 -77h-86z" />
<glyph unicode="&#xf5;" horiz-adv-x="611" d="M43 184q0 157 92.5 261t237.5 104q103 0 162 -53.5t59 -146.5q0 -159 -92 -258.5t-240 -99.5q-100 0 -159.5 51.5t-59.5 141.5zM186 212q0 -52 27.5 -80.5t73.5 -28.5q69 0 116.5 63t47.5 154q0 53 -27 85t-73 32q-68 0 -116.5 -65t-48.5 -160zM214 616q17 56 48.5 86.5 t72.5 30.5q31 0 71 -17l50 -21q25 -11 33 -10q33 0 54 51h54q-17 -62 -52.5 -92t-80.5 -30q-32 0 -51 11l-50 25q-30 14 -44 14q-26 0 -51 -48h-54z" />
<glyph unicode="&#xf6;" horiz-adv-x="611" d="M43 184q0 157 92.5 261t237.5 104q103 0 162 -53.5t59 -146.5q0 -159 -92 -258.5t-240 -99.5q-100 0 -159.5 51.5t-59.5 141.5zM186 212q0 -52 27.5 -80.5t73.5 -28.5q69 0 116.5 63t47.5 154q0 53 -27 85t-73 32q-68 0 -116.5 -65t-48.5 -160zM236 618l25 115h126 l-25 -115h-126zM431 618l25 115h126l-25 -115h-126z" />
<glyph unicode="&#xf7;" horiz-adv-x="584" d="M74 200v100h464v-100h-464zM231 68q0 31 22 53t53 22t53 -22t22 -53t-22 -53t-53 -22t-53 22t-22 53zM231 432q0 31 22 53t53 22t53 -22t22 -53t-22 -53t-53 -22t-53 22t-22 53z" />
<glyph unicode="&#xf8;" horiz-adv-x="611" d="M10 55l51 43q-18 41 -18 86q0 157 92.5 261t237.5 104q99 0 157 -49l50 43l49 -58l-53 -45q18 -40 18 -91q0 -159 -92 -258.5t-240 -99.5q-95 0 -155 47l-48 -41zM186 212l1 -6l235 201q-27 30 -71 30q-68 0 -116.5 -65t-48.5 -160zM215 130q25 -27 72 -27q69 0 116.5 63 t47.5 154v12z" />
<glyph unicode="&#xf9;" horiz-adv-x="611" d="M51 123q0 27 6 55l77 362h140l-67 -313q-4 -17 -6 -49q0 -75 76 -75q49 0 85 36t49 97l65 304h140l-115 -540h-140l16 75q-77 -84 -180 -84q-66 0 -106 36t-40 96zM250 752h156l37 -154h-100z" />
<glyph unicode="&#xfa;" horiz-adv-x="611" d="M51 123q0 27 6 55l77 362h140l-67 -313q-4 -17 -6 -49q0 -75 76 -75q49 0 85 36t49 97l65 304h140l-115 -540h-140l16 75q-77 -84 -180 -84q-66 0 -106 36t-40 96zM343 598l102 154h156l-158 -154h-100z" />
<glyph unicode="&#xfb;" horiz-adv-x="611" d="M51 123q0 27 6 55l77 362h140l-67 -313q-4 -17 -6 -49q0 -75 76 -75q49 0 85 36t49 97l65 304h140l-115 -540h-140l16 75q-77 -84 -180 -84q-66 0 -106 36t-40 96zM224 598l140 154h127l71 -154h-88l-66 77l-98 -77h-86z" />
<glyph unicode="&#xfc;" horiz-adv-x="611" d="M51 123q0 27 6 55l77 362h140l-67 -313q-4 -17 -6 -49q0 -75 76 -75q49 0 85 36t49 97l65 304h140l-115 -540h-140l16 75q-77 -84 -180 -84q-66 0 -106 36t-40 96zM236 618l25 115h126l-25 -115h-126zM431 618l25 115h126l-25 -115h-126z" />
<glyph unicode="&#xfd;" d="M-3 -215l23 109q11 -2 28 -2q52 0 82.5 25t30.5 68l-77 555h154l36 -393l195 393h144l-358 -638q-42 -75 -86 -98t-128 -23q-27 0 -44 4zM315 598l102 154h156l-158 -154h-100z" />
<glyph unicode="&#xfe;" horiz-adv-x="611" d="M-29 -218l201 947h140l-57 -269q69 89 169 89q79 0 126 -56t47 -150q2 -141 -84 -246.5t-206 -105.5q-102 0 -133 87l-63 -296h-140zM209 216q0 -51 24 -82t64 -31q64 0 111.5 67.5t45.5 152.5q0 52 -24 83t-64 31q-65 0 -111 -64t-46 -157z" />
<glyph unicode="&#xff;" d="M-3 -215l23 109q11 -2 28 -2q52 0 82.5 25t30.5 68l-77 555h154l36 -393l195 393h144l-358 -638q-42 -75 -86 -98t-128 -23q-27 0 -44 4zM208 618l25 115h126l-25 -115h-126zM403 618l25 115h126l-25 -115h-126z" />
<glyph unicode="&#x152;" horiz-adv-x="1000" d="M50 245q0 126 53.5 240.5t144.5 185t194 70.5q49 0 82 -14.5t61 -49.5l11 52h471l-27 -125h-326l-35 -165h298l-27 -125h-298l-40 -189h345l-26 -125h-490l15 73q-42 -45 -79.5 -63.5t-87.5 -18.5q-108 0 -173.5 67.5t-65.5 186.5zM199 274q0 -78 38.5 -116.5 t108.5 -38.5q75 0 130 73l74 348q-27 73 -108 73q-98 0 -170.5 -102.5t-72.5 -236.5z" />
<glyph unicode="&#x153;" horiz-adv-x="944" d="M34 190q-2 149 92.5 254t236.5 105q59 0 106.5 -19t73.5 -53q74 72 195 72q94 0 151 -57t57 -141q0 -57 -18 -125h-362q-7 -30 -7 -52q2 -28 30 -49.5t69 -21.5q35 0 66 15t45 34h138q-38 -71 -114 -116t-164 -45q-55 0 -101 20t-67 53q-83 -73 -210 -73 q-101 0 -159 53.5t-58 145.5zM177 219q0 -53 27 -84.5t72 -31.5q69 0 116.5 63t47.5 154q0 53 -27 85t-73 32q-68 0 -115.5 -62t-47.5 -156zM587 319h216v28q0 43 -22.5 66.5t-62.5 23.5q-99 0 -131 -118z" />
<glyph unicode="&#x178;" horiz-adv-x="667" d="M142 729h167l82 -315l207 315h167l-328 -459l-58 -270h-150l58 270zM314 797l25 115h126l-25 -115h-126zM509 797l25 115h126l-25 -115h-126z" />
<glyph unicode="&#x2c6;" horiz-adv-x="333" d="M85 598l140 154h127l71 -154h-88l-66 77l-98 -77h-86z" />
<glyph unicode="&#x2dc;" horiz-adv-x="333" d="M75 616q17 56 48.5 86.5t72.5 30.5q31 0 71 -17l50 -21q25 -11 33 -10q33 0 54 51h54q-17 -62 -52.5 -92t-80.5 -30q-32 0 -51 11l-50 25q-30 14 -44 14q-26 0 -51 -48h-54z" />
<glyph unicode="&#x2000;" horiz-adv-x="481" />
<glyph unicode="&#x2001;" horiz-adv-x="962" />
<glyph unicode="&#x2002;" horiz-adv-x="481" />
<glyph unicode="&#x2003;" horiz-adv-x="962" />
<glyph unicode="&#x2004;" horiz-adv-x="320" />
<glyph unicode="&#x2005;" horiz-adv-x="240" />
<glyph unicode="&#x2006;" horiz-adv-x="160" />
<glyph unicode="&#x2007;" horiz-adv-x="160" />
<glyph unicode="&#x2008;" horiz-adv-x="120" />
<glyph unicode="&#x2009;" horiz-adv-x="192" />
<glyph unicode="&#x200a;" horiz-adv-x="53" />
<glyph unicode="&#x2010;" horiz-adv-x="333" d="M30 207l29 135h272l-29 -135h-272z" />
<glyph unicode="&#x2011;" horiz-adv-x="333" d="M30 207l29 135h272l-29 -135h-272z" />
<glyph unicode="&#x2012;" horiz-adv-x="333" d="M30 207l29 135h272l-29 -135h-272z" />
<glyph unicode="&#x2013;" d="M-5 207l22 104h567l-22 -104h-567z" />
<glyph unicode="&#x2014;" horiz-adv-x="1000" d="M-3 207l22 104h1011l-22 -104h-1011z" />
<glyph unicode="&#x2018;" horiz-adv-x="278" d="M127 469l23 109q10 65 55 105.5t112 45.5l-10 -46q-86 -15 -99 -89h81l-27 -125h-135z" />
<glyph unicode="&#x2019;" horiz-adv-x="278" d="M125 469l10 46q86 15 99 89h-81l27 125h136l-23 -109q-9 -66 -53.5 -106t-114.5 -45z" />
<glyph unicode="&#x201a;" horiz-adv-x="278" d="M-3 -135l10 46q86 15 99 89h-81l27 125h136l-23 -109q-9 -66 -53.5 -106t-114.5 -45z" />
<glyph unicode="&#x201c;" horiz-adv-x="500" d="M131 469l23 109q10 65 55 105.5t112 45.5l-10 -46q-86 -15 -99 -89h81l-27 -125h-135zM358 469l23 109q10 65 55 105.5t112 45.5l-10 -46q-86 -15 -99 -89h81l-27 -125h-135z" />
<glyph unicode="&#x201d;" horiz-adv-x="500" d="M133 469l10 46q86 15 99 89h-81l27 125h135l-23 -109q-10 -65 -55 -105.5t-112 -45.5zM365 469l10 46q86 15 99 89h-81l27 125h135l-23 -109q-10 -65 -55 -105.5t-112 -45.5z" />
<glyph unicode="&#x201e;" horiz-adv-x="500" d="M-3 -135l10 46q86 15 99 89h-81l27 125h135l-23 -109q-10 -65 -55 -105.5t-112 -45.5zM232 -135l10 46q86 15 99 89h-81l27 125h135l-23 -109q-10 -65 -55 -105.5t-112 -45.5z" />
<glyph unicode="&#x2022;" horiz-adv-x="350" d="M71 279q0 58 44.5 102t102.5 44q46 0 77.5 -30t31.5 -74q0 -56 -46 -101t-104 -45q-46 0 -76 29.5t-30 74.5z" />
<glyph unicode="&#x2026;" horiz-adv-x="1000" d="M52 0l31 146h150l-31 -146h-150zM385 0l31 146h150l-31 -146h-150zM718 0l31 146h150l-31 -146h-150z" />
<glyph unicode="&#x202f;" horiz-adv-x="192" />
<glyph unicode="&#x2039;" horiz-adv-x="333" d="M88 218l24 114l199 149l-25 -117l-120 -89l82 -89l-24 -114z" />
<glyph unicode="&#x203a;" horiz-adv-x="333" d="M56 72l25 117l120 89l-82 89l24 114l136 -146l-24 -115z" />
<glyph unicode="&#x205f;" horiz-adv-x="240" />
<glyph unicode="&#x20ac;" d="M-19 250l39 68h39q7 39 15 68h-64l39 68h48q56 128 145.5 199t196.5 71q53 0 88 -14t81 -54l-73 -129q-38 37 -67.5 52t-62.5 15q-97 0 -162 -140h251l-39 -68h-240q-9 -32 -16 -68h217l-38 -68h-181q10 -128 106 -128q31 0 61 10t96 42l-31 -149q-110 -34 -161 -34 q-58 0 -109 31t-73 80q-31 69 -32 148h-73z" />
<glyph unicode="&#x2122;" horiz-adv-x="1014" d="M211 647l18 82h355l-18 -82h-123l-68 -318h-103l68 318h-129zM556 329l85 400h152l6 -269l129 269h141l-85 -400h-98l56 266l-121 -266h-104l-6 264l-56 -264h-99z" />
<glyph unicode="&#xe000;" horiz-adv-x="540" d="M0 0v540h540v-540h-540z" />
</font>
</defs>
</svg>
