<?xml version="1.0" standalone="no"?>
<!DOCTYPE svg PUBLIC "-//W3C//DTD SVG 1.1//EN" "http://www.w3.org/Graphics/SVG/1.1/DTD/svg11.dtd" >
<svg xmlns="http://www.w3.org/2000/svg" xmlns:xlink="http://www.w3.org/1999/xlink" version="1.1">
<metadata></metadata>
<defs>
<font id="aleobolditalic" horiz-adv-x="1685" >
<font-face units-per-em="2048" ascent="1649" descent="-399" />
<missing-glyph horiz-adv-x="473" />
<glyph unicode="&#xfb01;" horiz-adv-x="1320" d="M963 1237q-8 25 -5 61q0 5 5 25q-89 24 -189 0q-68 -19 -106 -49q-49 -37 -72 -86q-24 -52 -33 -121l-2 -27h651l-102 -837q8 -1 30 -5t31 -5q8 -1 19.5 -4t15.5 -3q5 0 11 -1l6 -1q49 -12 43 -63l-15 -121h-168h-252l25 203l21 172l12 98l49 389h-391v-2h-2l-23 -184 l-78 -633q-12 -106 -51 -186q-44 -83 -104 -129q-70 -51 -160 -74q-91 -23 -221 -23v131q0 78 82 78q36 0 73 13q39 14 62 34q26 23 45 66q20 44 25 96l77 627v4l7 61l14 119h2l-90 14q-31 7 -45 21q-16 16 -13 43l13 104h155l4 33q12 95 56 178q45 86 112 144q65 57 175 94 q103 35 237 35h37q3 0 6 -1t4 -1h6q18 -2 35 -2q36 -3 66 -13q103 -23 178 -82q12 -9 18 -18q19 -22 27 -47q9 -30 6 -64q-2 -25 -22 -61q-14 -26 -41 -49t-56 -35q-30 -12 -65 -12q-33 0 -60 12t-47 35q-19 22 -28 49z" />
<glyph unicode="&#xfb02;" horiz-adv-x="1374" d="M545 860l-23 -184l-78 -633q-12 -106 -51 -186q-44 -83 -104 -129q-70 -51 -160 -74q-91 -23 -221 -23v131q0 78 82 78q36 0 73 13q39 14 62 34q26 23 45 66q20 44 25 96l77 627v4l7 61l14 119v0l-88 14q-31 7 -45 21q-16 16 -13 43l13 104h155l7 43q9 85 47 162 q33 73 96 133q65 62 147 95q82 36 203 36q93 0 176 -6q82 -6 166 -6h141l-145 -1182q-3 -37 0 -67q3 -28 16 -47q15 -15 41 -25q24 -6 62 -6q39 0 51 -6t12 -27l-8 -135q-56 -15 -63 -16q-40 -4 -68 -4q-92 0 -154 24q-60 26 -94 72q-33 44 -45 106q-10 69 -2 129l125 1010 h-195q-115 0 -182 -61q-69 -66 -84 -181l-4 -43h250l-23 -180h-243z" />
<glyph horiz-adv-x="0" />
<glyph unicode="&#xd;" horiz-adv-x="180" />
<glyph horiz-adv-x="180" />
<glyph horiz-adv-x="180" />
<glyph unicode=" "  horiz-adv-x="473" />
<glyph unicode="&#x09;" horiz-adv-x="473" />
<glyph unicode="&#xa0;" horiz-adv-x="473" />
<glyph unicode="!" horiz-adv-x="528" d="M487 1481l-73 -586q-15 -115 -31 -182q-31 -130 -47 -191h-172q-4 134 -2 191q3 101 14 182l72 586h239zM45 139q4 36 18 62q16 29 39 49q24 21 54 33t63 12t60 -12t45 -33q16 -18 26 -49q8 -24 4 -62q-3 -30 -20 -61q-12 -22 -37 -47q-20 -20 -53 -33q-30 -12 -64 -12 q-32 0 -59 12t-45 33q-19 22 -27 47q-7 22 -4 61z" />
<glyph unicode="&#x22;" horiz-adv-x="739" d="M313 1481l-34 -295l-46 -160q-12 -47 -32 -70q-19 -22 -66 -22q-39 0 -55 22q-21 28 -21 70l-2 160l37 295h219zM690 1481l-35 -295l-45 -160q-12 -47 -32 -70q-19 -22 -66 -22q-39 0 -55 22q-21 28 -21 70l-2 160l37 295h219z" />
<glyph unicode="#" horiz-adv-x="1277" d="M846 418l-131 -418h-115q-32 0 -51 25q-17 23 -14 59q0 2 1 5t1 5q0 6 2 10l98 314h-209l-100 -326q-16 -54 -49 -72q-36 -20 -76 -20h-113l129 418h-117q-33 0 -49 16q-13 13 -10 51q0 2 2 15t4 20l25 80h194l88 283h-219l33 104q13 42 39 60q27 18 82 18h112l105 330 q13 43 45 63q38 23 74 23h114l-129 -416h209l129 416h113q34 0 55 -21q20 -20 17 -51q0 -12 -2 -16l-105 -328h209l-33 -107q-11 -39 -39 -57q-27 -18 -82 -18h-102l-88 -283h145q33 0 49 -16q17 -17 11 -54q-4 -20 -8 -32l-23 -80h-221zM475 600h211l86 283h-209z" />
<glyph unicode="$" horiz-adv-x="1222" d="M418 -8q-122 16 -217 63q-100 50 -164 123l92 115q14 18 31 26q18 9 37 9q21 0 45 -15q9 -5 27 -19t26 -20q26 -18 70 -41q46 -24 96 -32l94 458q-47 14 -137 50q-71 28 -119 71q-50 44 -78 117q-26 68 -14 172q9 78 51 154q42 77 107 133t157 94q96 39 205 45l29 127 q8 31 24 45q24 21 51 21h93l-41 -203q105 -17 180 -62q69 -41 125 -100l-74 -92q-14 -20 -33 -31q-17 -10 -34 -10t-37 10l-45 23q-7 4 -16 8.5l-21 10.5t-19 9q-35 17 -69 25l-88 -424q45 -13 139 -51q71 -28 121 -70q58 -48 82 -106q28 -67 16 -162q-12 -97 -55 -178 q-45 -85 -111 -148t-162 -104q-88 -37 -211 -47l-30 -150q-7 -30 -25 -45q-23 -20 -51 -20h-92zM864 424q6 38 -4 70q-8 26 -33 51q-23 23 -55 39q-42 21 -70 30l-86 -417q111 15 175 73q60 55 73 154zM449 1094q-5 -32 6 -68q9 -28 30 -53q18 -21 52 -41q31 -19 67 -33 l78 379q-45 -5 -98 -23q-40 -17 -70 -43q-33 -30 -45 -53q-17 -35 -20 -65z" />
<glyph unicode="%" horiz-adv-x="1628" d="M786 1122q-9 -83 -47 -151q-35 -63 -90 -115q-52 -49 -119 -74q-65 -24 -133 -24q-74 0 -133 24q-56 23 -98 74q-39 48 -57 115q-17 62 -7 151q9 82 45 156t84 119q50 47 119 73q67 25 139 25q73 0 134 -25t100 -73q39 -47 57 -119q16 -62 6 -156zM590 1122q7 66 2 99 q-6 39 -25 65q-16 22 -43 35q-20 10 -55 10q-37 0 -59 -10q-32 -14 -50 -35q-24 -28 -38 -65q-18 -48 -23 -99q-7 -66 -2 -96q6 -35 22 -61q15 -25 43 -35q21 -8 56 -8t59 8q29 10 51 35q27 31 39 61q18 49 23 96zM1317 1442q8 8 35 26q20 13 53 13h182l-1276 -1444 q-16 -16 -35 -27q-18 -10 -47 -10h-188zM1526 348q-10 -87 -45 -151q-35 -63 -90 -115q-52 -49 -119 -74q-70 -26 -133 -26q-70 0 -133 26q-58 24 -99 74q-39 48 -57 115q-17 65 -8 151q9 82 45 156q34 70 86 119t117 73q67 25 139 25t133 -25t100 -73q40 -49 58 -119 q16 -62 6 -156zM1331 348q7 68 2 101q-6 39 -24 63q-16 22 -43 35q-24 12 -58 12q-30 0 -57 -12q-33 -15 -51 -35q-24 -27 -37 -63q-20 -55 -25 -101q-6 -57 0 -96q5 -33 23 -62q15 -24 41 -34q29 -11 57 -11q27 0 60 11q30 10 51 34q28 32 39 62q17 45 22 96z" />
<glyph unicode="&#x26;" horiz-adv-x="1435" d="M793 1497q89 0 157 -27q67 -27 113 -73q41 -41 65 -107t21 -123l-166 -32q-1 0 -3 -1t-3 -1h-6q-18 0 -31 10q-12 9 -18 31q-6 27 -17 49q-12 24 -31 43q-14 14 -45 28q-25 11 -61 11q-40 0 -78 -15q-31 -12 -63 -41q-30 -26 -43 -57q-19 -43 -21 -70q-3 -31 0 -59 q4 -40 12 -57q14 -32 31 -60t49 -65l344 -408q34 50 70 135q29 69 45 146q5 21 21 37t39 16h157q-19 -140 -69 -258q-48 -112 -138 -227l271 -322h-248q-23 0 -33 2q-22 4 -29 8q-6 3 -22 15q-9 7 -23 24l-90 105q-106 -78 -233 -125q-122 -45 -266 -45q-90 0 -164 28 q-77 29 -137 86t-89 133q-28 75 -16 177q9 70 39 131q31 63 76 114q52 59 106 97q64 45 129 73q-46 75 -61 150q-15 73 -6 145q10 85 45 148q33 63 98 118q63 54 141 82q85 31 181 31zM303 428q-6 -56 8 -100q17 -52 43 -78q28 -28 74 -47q41 -17 92 -17q92 0 168 27 q71 25 146 80l-340 399q-89 -53 -136 -121q-46 -67 -55 -143z" />
<glyph unicode="'" horiz-adv-x="362" d="M313 1481l-34 -295l-46 -160q-12 -47 -32 -70q-19 -22 -66 -22q-39 0 -55 22q-21 28 -21 70l-2 160l37 295h219z" />
<glyph unicode="(" horiz-adv-x="624" d="M274 643q-26 -225 0 -416q28 -211 99 -383q8 -16 8 -24v-21q-3 -21 -14 -32q-12 -12 -27 -21l-123 -70q-56 106 -100 234q-40 114 -58 237q-18 120 -18 244q0 132 14 252q13 110 47 250q33 134 78 244q50 120 117 237q61 106 158 234l104 -68q18 -14 23 -20q9 -13 6 -33 q-3 -15 -19 -45q-110 -168 -192 -385q-80 -212 -103 -414z" />
<glyph unicode=")" horiz-adv-x="626" d="M350 643q25 224 0 414q-29 217 -98 385q-10 31 -8 45q4 23 14 33q6 7 29 20l121 68q56 -106 100 -234q38 -109 57 -237q21 -140 21 -244t-17 -250q-15 -129 -45 -252q-30 -122 -80 -244q-52 -126 -116 -237q-61 -106 -158 -234l-104 70q-17 12 -23 21q-9 12 -6 32 q0 3 2.5 11t3.5 10q3 12 12 24q114 174 193 383q78 207 102 416z" />
<glyph unicode="*" horiz-adv-x="784" d="M291 856l22 188q5 37 6 39q7 21 15 37q-4 -4 -9 -8.5t-11.5 -8.5t-10.5 -7q-6 -5 -19.5 -13.5t-15.5 -9.5l-174 -94l-47 102l174 95q15 10 39 18q21 7 39 10q-25 4 -37 10q-18 9 -33 19l-151 96l72 103l151 -97q5 -4 15.5 -11t15.5 -11q11 -9 22 -27q-4 12 -4 37 q0 27 2 41l23 188h121l-23 -188q-4 -30 -8 -41q-9 -27 -14 -37q7 8 30 27q6 4 19 11.5t18 10.5l172 95l49 -103l-174 -94q-18 -12 -39 -19t-39 -10q29 -5 70 -28l152 -95l-72 -102l-152 94q-7 5 -30 23q-18 14 -25 26q10 -37 4 -78l-22 -188h-121z" />
<glyph unicode="+" horiz-adv-x="1114" d="M723 1200l-51 -418h397l-22 -188h-400l-51 -422h-205l51 422h-395l23 188h397l51 418h205z" />
<glyph unicode="," horiz-adv-x="446" d="M88 156q4 33 16 53q18 29 37 45q17 15 49 29q23 10 64 10q38 0 65 -12q26 -11 43 -39t23 -56q4 -20 0 -65q-6 -49 -27 -105q-19 -49 -57 -106q-43 -63 -84 -107q-48 -51 -106 -94l-41 41q-16 16 -13 37q0 5 9 18q10 15 14 19q3 4 14.5 14t18.5 17q25 25 37 41 q30 40 36 49q17 25 27 59q-37 0 -57 10q-27 14 -41 33q-21 30 -25 47q-5 24 -2 62z" />
<glyph unicode="-" horiz-adv-x="677" d="M86 725h530l-26 -213h-529z" />
<glyph unicode="." horiz-adv-x="430" d="M59 139q3 34 19 62q16 29 39 49q25 22 53 33q30 12 63 12t60 -12t45 -33q17 -20 27 -49q8 -24 4 -62q-2 -28 -21 -61q-13 -22 -37 -47q-20 -20 -53 -33q-30 -12 -63 -12t-60 12t-45 33q-19 22 -27 47q-7 22 -4 61z" />
<glyph unicode="/" horiz-adv-x="1112" d="M293 -4q-8 -15 -29 -41q-8 -10 -37 -29q-11 -8 -41 -16q-28 -8 -39 -8h-106l784 1532q19 38 60 65q36 23 82 23h106z" />
<glyph unicode="0" horiz-adv-x="1198" d="M1143 741q-24 -193 -84 -338t-144 -235q-87 -94 -190 -139q-102 -45 -221 -45q-120 0 -209 45q-92 47 -154 139q-59 88 -84 235q-24 142 0 338q24 197 82 336q59 141 144 236q84 93 188 139q102 45 219 45q120 0 211 -45q93 -46 156 -139q61 -91 86 -236q24 -142 0 -336z M881 741q19 165 10 267q-8 97 -43 168q-30 62 -80 86q-54 26 -102 26q-49 0 -109 -26q-52 -22 -100 -86q-42 -55 -82 -168q-41 -114 -58 -267q-18 -155 -8 -266q9 -102 41 -168q31 -64 78 -88q50 -26 102 -26q51 0 111 26q52 22 100 86q44 58 84 170q38 106 56 266z" />
<glyph unicode="1" horiz-adv-x="919" d="M840 170q43 -9 37 -51l-17 -119h-401h-15h-403l16 119q6 42 47 51q50 7 261 23l106 860q4 29 16 106l-235 -178q-17 -14 -29 -16q-20 -4 -26 -4q-24 0 -37 8q-19 11 -23 20l-67 111l499 383h207l-158 -1293q184 -14 222 -20z" />
<glyph unicode="2" horiz-adv-x="1212" d="M1108 221l-27 -221h-24h-60h-956l12 84q4 29 17 53q16 29 41 51l503 451q65 58 115 109q48 48 88 104q42 59 60 104q22 56 28 111q6 50 -4 94q-8 38 -35 68q-26 29 -63 41q-44 14 -88 14q-91 0 -156 -47q-60 -43 -96 -123q-14 -38 -41 -55q-30 -19 -60 -19q-8 0 -32 4 l-131 23q27 110 82 188q56 81 127 134q78 56 161 81q88 27 187 27q102 0 184 -31q83 -31 135 -86q54 -57 78 -133q24 -77 12 -172q-9 -81 -43 -151q-39 -79 -80 -133q-52 -68 -110 -123q-86 -82 -129 -121l-375 -342q40 11 98 22q74 9 92 9h326q6 33 21 92q12 37 53 37h108z " />
<glyph unicode="3" horiz-adv-x="1173" d="M727 1497q103 0 180 -29q79 -30 131 -82q57 -57 76 -120q21 -71 12 -152q-8 -66 -30 -123q-16 -42 -60 -94q-34 -40 -82 -68q-55 -32 -104 -47q130 -44 184 -127q54 -84 39 -217q-12 -107 -65 -194q-54 -88 -127 -144q-75 -57 -172 -88q-88 -28 -199 -28q-112 0 -191 24 q-72 22 -135 78q-56 50 -90 123q-35 75 -53 168l117 45q30 12 59 12t47 -12q21 -14 29 -33q18 -45 31 -70q17 -33 45 -61q27 -27 67 -45q36 -16 96 -16q67 0 117 20q46 19 86 55q38 35 58 76q21 43 26 82q6 54 0 98q-6 43 -37 74q-30 30 -98 49q-61 17 -178 17l22 180 q89 0 158 16q48 11 102 47q43 32 60 70q21 47 26 90q12 107 -38 160t-150 53q-95 0 -156 -47q-63 -48 -98 -123q-16 -36 -41 -55t-57 -19q-11 0 -35 4l-129 25q27 107 82 186q58 84 125 134q70 53 162 81q89 27 188 27z" />
<glyph unicode="4" horiz-adv-x="1216" d="M985 557h186l-16 -145q-3 -20 -18 -35q-17 -17 -41 -17h-133l-45 -360h-222l45 360h-624q-25 0 -45 17q-15 13 -19 41l-10 127l817 938h240zM823 1042q1 13 6.5 38.5t6.5 33.5q3 21 16 78l-539 -635h451z" />
<glyph unicode="5" horiz-adv-x="1181" d="M1126 1372q-6 -53 -45 -86q-41 -35 -118 -35h-408l-90 -309q102 21 184 21q117 0 201 -35t137 -97q54 -63 74 -143q22 -85 10 -178q-14 -109 -70 -215q-52 -98 -135 -166q-86 -70 -186 -106q-109 -39 -225 -39q-74 0 -131 14q-59 14 -113 39q-42 19 -94 55q-32 22 -76 66 l92 108q27 35 70 35q23 0 49 -16q3 -2 23 -16t34 -21q50 -26 76 -35q46 -16 111 -16q72 0 125 20q51 19 96 64q41 41 65 96q23 54 33 123q15 120 -47 188t-199 68q-109 0 -219 -39l-153 45l211 719h731z" />
<glyph unicode="6" horiz-adv-x="1130" d="M696 926q78 0 160 -29q77 -27 131 -84t80 -137q25 -76 12 -195q-12 -103 -61 -194t-125 -158q-73 -64 -178 -106q-98 -39 -219 -39q-124 0 -209 36q-87 37 -148 107q-57 66 -82 164q-23 92 -8 213q12 102 68 215q53 106 159 227l412 475q18 21 60 41q40 19 83 19h226 l-506 -539q-10 -12 -31 -33q-5 -5 -14 -15t-14 -15q54 24 96 34q57 13 108 13zM287 465q-6 -66 2 -113q7 -39 41 -86q26 -35 76 -55q54 -21 110 -21q60 0 113 21q57 23 94 57q43 39 68 86q28 52 34 109q8 57 -6 115q-10 43 -45 86q-27 34 -80 53q-50 18 -106 18 q-63 0 -113 -20q-52 -21 -92 -58q-44 -41 -66 -86q-24 -50 -30 -106z" />
<glyph unicode="7" horiz-adv-x="1175" d="M109 1481h1024l-13 -109q-6 -53 -20 -80q-1 -2 -29 -51l-700 -1155q-19 -34 -58 -61q-36 -25 -88 -25h-184l713 1130q44 71 94 121h-596q-19 -88 -31 -129q-12 -37 -51 -37h-109l27 220v2v2z" />
<glyph unicode="8" horiz-adv-x="1155" d="M506 -16q-115 0 -207 30q-86 28 -152 88q-60 54 -88 136q-26 77 -14 178q15 128 92 221q77 92 217 135q-103 46 -147 129t-29 199q9 83 53 157q42 72 111 125q63 52 158 84q91 31 192 31q100 0 185 -31q75 -27 135 -84q58 -58 80 -125q25 -76 16 -157q-15 -116 -80 -199 q-66 -84 -176 -129q131 -43 184 -135q52 -90 37 -221q-12 -97 -59 -178q-45 -77 -123 -136q-79 -60 -172 -88q-99 -30 -213 -30zM530 180q59 0 111 19q41 15 86 51q35 28 57 74q24 49 29 96q15 124 -45 184q-64 64 -178 64q-119 0 -195 -64q-75 -63 -90 -184q-7 -58 4 -96 q11 -41 41 -74q32 -35 72 -51q49 -19 108 -19zM614 864q54 0 105 21q43 18 76 51q30 30 45 74q14 39 20 86q6 40 -4 80t-31 67q-22 28 -61 45q-43 19 -96 19t-99 -19q-48 -20 -73 -45q-34 -34 -50 -67q-15 -32 -22 -80q-6 -45 0 -86t29 -74q25 -36 59 -51q47 -21 102 -21z " />
<glyph unicode="9" horiz-adv-x="1095" d="M408 590q-75 0 -148 28q-71 27 -121 80q-53 56 -76 133q-24 79 -12 185q12 100 60 188q47 86 122 152q73 64 173 102q103 39 208 39q121 0 201 -35q89 -39 143 -102q53 -61 78 -154q23 -86 11 -196q-9 -71 -27 -131q-13 -46 -49 -119q-23 -48 -66 -111q-35 -52 -82 -108 l-399 -484q-21 -24 -57 -41q-33 -16 -80 -16h-232l531 573q1 1 37 43q28 33 34 41q-55 -34 -118 -49q-64 -18 -131 -18zM807 1034q7 68 -4 109q-10 42 -43 80q-28 32 -74 51q-39 16 -100 16q-58 0 -107 -18q-44 -16 -84 -53q-34 -31 -59 -80t-31 -103q-15 -123 41 -188 q57 -66 174 -66q55 0 113 21q47 17 86 53q41 37 59 78q24 52 29 100z" />
<glyph unicode=":" horiz-adv-x="497" d="M49 139q3 30 21 62q19 34 36 49q22 20 56 33q30 12 61 12q33 0 60 -12t45 -33q16 -18 26 -49q9 -28 6 -62q-3 -30 -20 -61q-10 -18 -39 -47q-20 -20 -53 -33q-30 -12 -62 -12t-59 12q-30 13 -47 33q-19 22 -27 47q-7 22 -4 61zM139 868q3 34 19 62q16 29 39 49 q25 22 53 33q30 12 63 12t60 -12t45 -33q16 -18 26 -49q8 -25 5 -60q-3 -32 -19 -61q-12 -23 -39 -49q-20 -20 -53 -33q-25 -10 -62 -10q-38 0 -61 10q-27 12 -45 33q-17 20 -27 49q-7 22 -4 59z" />
<glyph unicode=";" horiz-adv-x="514" d="M76 156q3 29 18 53q20 32 35 45t51 29q22 10 62 10q38 0 65 -12q26 -11 43 -39t23 -56q5 -27 2 -65q-5 -42 -29 -105q-19 -49 -57 -106q-48 -71 -82 -107q-41 -43 -109 -94l-39 41q-17 17 -14 37q0 6 8 18q4 6 17 19l30 31q33 33 39 41q21 28 35 49q21 31 29 59 q-38 0 -58 10q-27 14 -41 33q-20 28 -24 47q-7 30 -4 62zM158 868q4 36 18 62q16 29 39 49q25 22 53 33q30 12 64 12q32 0 59 -12t45 -33q17 -20 27 -49q8 -24 4 -62q-2 -25 -21 -59q-16 -29 -36 -49q-19 -19 -54 -33q-25 -10 -63 -10t-60 10q-27 12 -45 33q-16 18 -26 49 q-7 22 -4 59z" />
<glyph unicode="&#x3c;" horiz-adv-x="972" d="M61 741l863 424l-21 -180q-3 -23 -16 -39q-9 -14 -37 -28l-395 -191q-16 -8 -52 -20q-42 -14 -57 -17q25 -6 53 -16q30 -11 47 -21l349 -190q20 -12 30 -31q7 -14 4 -37l-20 -180l-760 424z" />
<glyph unicode="=" horiz-adv-x="1081" d="M76 602h907l-22 -188h-908zM121 963h907l-22 -189h-908z" />
<glyph unicode="&#x3e;" horiz-adv-x="970" d="M47 215l23 180q3 20 14 37q12 19 37 31l395 190q55 23 111 37q-21 5 -54 17q-35 13 -47 20l-348 191q-24 14 -31 28q-9 18 -6 37l23 180l760 -422l-15 -102z" />
<glyph unicode="?" horiz-adv-x="854" d="M43 1348q51 38 84 57q46 26 94 47q49 21 109 33q58 12 125 12q87 0 157 -24q71 -24 117 -70q47 -47 68 -111q21 -65 12 -145q-9 -78 -39 -133q-29 -57 -70 -101q-34 -37 -84 -71q-13 -9 -40 -28.5t-41 -29.5q-23 -15 -70 -53q-28 -25 -37 -59l-43 -150h-172l2 166v10l2 9 q6 45 31 77q31 39 65 64q37 29 78 55q20 12 82 62q43 40 64 71q28 42 34 97q3 37 -6 67q-8 27 -30 49q-21 21 -56 33q-29 10 -73 10q-58 0 -101 -12q-31 -9 -72 -29q-16 -8 -51 -28q-23 -13 -37 -13q-37 0 -49 31zM88 139q3 34 18 60q16 29 39 49q27 23 56 35q30 12 61 12 q33 0 60 -12t45 -33q16 -18 26 -49q9 -28 6 -62q-3 -30 -20 -61q-12 -22 -39 -49q-16 -16 -53 -31q-30 -12 -62 -12t-59 12q-33 15 -47 31q-17 20 -27 49q-7 22 -4 61z" />
<glyph unicode="@" horiz-adv-x="1669" d="M1126 188q-70 0 -120 33q-52 34 -64 107q-78 -81 -139 -107q-73 -31 -150 -31q-59 0 -110 23q-45 20 -72 61q-29 43 -37 93q-10 61 -2 118q4 37 31 117q23 66 57 117q33 49 88 104q41 41 115 84q61 36 143 58q80 22 168 22q78 0 133 -12q36 -8 105 -37l-146 -379 q-21 -56 -28 -108q-4 -40 0 -54q6 -22 16 -32t31 -17q12 -4 39 -4q40 0 84 27q45 28 78 75q34 49 59 119q27 75 35 148q15 129 -13 233q-25 96 -96 170q-66 69 -164 103t-223 34q-127 0 -254 -51q-120 -48 -217 -139q-100 -93 -158 -207q-61 -119 -79 -258q-21 -170 16 -297 t117 -213q79 -85 198 -129q110 -41 262 -41q85 0 148 8q78 10 129 23q40 10 108 35q40 15 91 41q17 10 34 10q30 0 39 -33l23 -92q-110 -68 -262 -113q-145 -43 -330 -43q-187 0 -336 58q-152 59 -252 168t-147 266t-23 352q11 98 55 213q40 104 103 193q62 89 147 167 q75 70 181 129q97 54 204 84q112 31 224 31q144 0 272 -49q133 -51 221 -139q90 -90 137 -221q46 -128 25 -293q-12 -109 -57 -207q-44 -96 -111 -166q-68 -71 -149 -111q-84 -41 -177 -41zM723 352q31 0 55 8q33 11 56 29q25 19 51 57q31 44 45 86l108 289q-30 6 -65 6 q-67 0 -123 -26q-54 -25 -105 -76q-47 -47 -77 -109t-39 -124q-9 -64 16 -103q24 -37 78 -37z" />
<glyph unicode="A" d="M1608 158q37 -14 34 -54l-14 -104h-72h-159h-35h-19h-215l13 104q3 36 47 54q27 9 43 16l-4 23l-49 200h-590l-103 -211l-6 -12q12 -6 25 -11l14 -5q38 -17 35 -54l-14 -104h-213h-21h-33h-161h-72l12 104q3 36 47 54q4 1 119 47l657 1276h283l344 -1276q99 -44 107 -47z M907 1051l-225 -459h448l-110 459q-15 57 -19 77q-8 39 -18 97q-4 -10 -18 -44.5t-21 -52.5q-9 -24 -37 -77z" />
<glyph unicode="B" horiz-adv-x="1423" d="M1081 766q295 -67 265 -330q-12 -96 -58 -174q-49 -84 -121 -139q-71 -54 -180 -90q-100 -33 -233 -33h-559h-156l14 121q6 51 60 63q2 0 5.5 1t6.5 1t14.5 3t18.5 4q6 1 26 4.5t35 5.5l131 1075q-12 2 -32 5.5t-27 4.5t-16.5 3.5t-12.5 2.5q-6 2 -12 2q-49 12 -43 64 l14 121h156h510q140 0 246 -29q101 -27 157 -78q62 -56 82 -125q21 -75 10 -162q-6 -53 -26 -100t-60 -90q-34 -39 -90 -74q-51 -32 -125 -57zM625 1268l-52 -428h220q142 0 219 51q80 53 92 162q15 115 -45 166q-58 49 -199 49h-235zM1049 354q18 40 24 88q5 44 -4 86 q-9 37 -41 66q-29 26 -78 41q-46 14 -123 14h-278l-53 -434h280q74 0 129 18q52 17 90 50q37 32 54 71z" />
<glyph unicode="C" horiz-adv-x="1390" d="M1188 1014q-40 0 -43 37q0 73 2 163q-159 48 -277 48q-111 0 -196 -35q-95 -39 -164 -105q-73 -70 -117 -164q-49 -103 -63 -219q-15 -126 8 -221q23 -96 76 -164q47 -61 131 -102q71 -35 170 -35q57 0 104 6q39 5 86 19q32 10 76 34q28 16 76 54q12 9 22 14q8 4 25 4 q24 0 37 -16l94 -119q-106 -113 -242 -170q-139 -59 -323 -59q-160 0 -289 57q-130 57 -207 156q-78 101 -113 239q-33 134 -12 303q22 177 92 308q73 137 185 237q116 104 260 158q146 55 315 55q189 0 451 -106l-45 -377h-119z" />
<glyph unicode="D" horiz-adv-x="1626" d="M1561 1040q37 -134 16 -299q-22 -168 -90 -299q-71 -136 -182 -235q-107 -95 -254 -152q-143 -55 -314 -55h-542h-156l14 121q6 51 60 63q2 0 5.5 1t6.5 1t14.5 3t18.5 4q6 1 26 4.5t35 5.5l131 1075q-12 2 -32 5.5t-27 4.5t-16.5 3.5t-12.5 2.5q-4 0 -8 1l-4 1 q-49 12 -43 64l14 121h156h543q166 0 299 -56q136 -57 217 -151q88 -102 125 -234zM1237 522q44 93 59 219q15 120 -6 217q-22 98 -73 164q-51 65 -134 103q-81 37 -190 37h-266l-129 -1043h266q109 0 199 37q97 40 159 102q72 72 115 164z" />
<glyph unicode="E" horiz-adv-x="1347" d="M377 1481h934l-19 -144l-10 -75l-20 -170h-9h-24h-84q-40 0 -43 38q0 2 -0.5 23t-0.5 49t1 60h-475l-52 -410h502l-26 -213h-500l-53 -418h477q14 63 31 131q12 39 53 39h84h24h9l-21 -170l-10 -78l-17 -143h-933h-156l14 121q6 51 60 63q2 0 5.5 1t6.5 1t14.5 3t18.5 4 q6 1 26 4.5t35 5.5l131 1075q-12 2 -32 5.5t-27 4.5t-16.5 3.5t-12.5 2.5q-4 0 -8 1l-4 1q-49 12 -43 64l14 121h156z" />
<glyph unicode="F" horiz-adv-x="1398" d="M1311 1481h51l-19 -144l-6 -47l-24 -198h-8h-25h-84q-40 0 -43 38q0 2 -0.5 23t-0.5 49t1 60h-526l-54 -439h517l-27 -219h-518l-49 -401q12 -2 32 -5.5t27 -4.5t17.5 -4t13.5 -3q4 0 8 -1l4 -1q49 -12 43 -63l-14 -121h-156h-276h-156l14 121q6 51 60 63q2 0 5.5 1 t6.5 1t14.5 3t18.5 4q6 1 26 4.5t35 5.5l131 1075q-12 2 -32 5.5t-27 4.5t-16.5 3.5t-12.5 2.5q-6 2 -12 2q-49 12 -43 64l14 121h156h887h47z" />
<glyph unicode="G" horiz-adv-x="1460" d="M866 741h492l-74 -598q-66 -44 -125 -71q-67 -31 -137 -49q-83 -21 -152 -29q-88 -10 -170 -10q-160 0 -292 57t-215 156q-87 104 -127 239q-40 137 -19 305q21 167 92 306q69 135 185 239q114 102 260 156q139 52 313 55h12h2q234 0 510 -106l-45 -377h-10h-25h-84 q-40 0 -43 37q0 27 3 159q-146 52 -345 52q-117 0 -202 -35q-91 -37 -164 -107q-69 -66 -117 -164q-43 -88 -59 -215q-15 -132 8 -229q23 -99 80 -168q55 -67 139 -104t191 -37q88 0 163 16q62 13 138 47l34 269h-186q-28 0 -41 16t-10 35z" />
<glyph unicode="H" horiz-adv-x="1818" d="M1706 1296q-2 0 -5.5 -1t-6.5 -1t-13.5 -2.5t-17.5 -3.5q-6 -1 -28 -4.5t-36 -5.5l-131 -1075q12 -2 32.5 -5.5t27.5 -4.5t16 -4t12 -3q4 0 9 -1t6 -1q49 -12 43 -63l-17 -121h-153h-279h-153l14 121q6 51 59 63q7 0 13 2q14 5 30 7q6 1 26.5 4.5t35.5 5.5l55 444h-694 l-55 -444q12 -2 32 -5.5t27 -4.5t17.5 -4t13.5 -3q6 -2 12 -2q49 -12 43 -63l-14 -121h-156h-276h-156l14 121q6 51 60 63q1 0 5 1t7 1t14.5 3t18.5 4q6 1 26 4.5t35 5.5l131 1075q-12 2 -32 5.5t-27 4.5t-16.5 3.5t-12.5 2.5q-6 2 -12 2q-49 12 -43 64l14 121h156h276h156 l-16 -121q-6 -52 -58 -64q-8 0 -14 -2q-8 -3 -31 -6q-6 -1 -26 -4.5t-35 -5.5l-54 -434h695l53 434q-12 2 -32 5.5t-27 4.5q-23 3 -31 6q-6 2 -12 2q-49 12 -43 64l14 121h156h278h154l-15 -121q-6 -52 -59 -64z" />
<glyph unicode="I" horiz-adv-x="845" d="M733 1296q-2 0 -5.5 -1t-6.5 -1t-13.5 -2.5t-17.5 -3.5l-27 -4.5t-36 -5.5l-131 -1075q12 -2 32 -5.5t27 -4.5t16.5 -4t12.5 -3q4 0 9 -1l5 -1q49 -12 43 -63l-16 -121h-154h-276h-156l14 121q6 51 60 63q1 0 5 1t7 1t14.5 3t18.5 4q6 1 26 4.5t35 5.5l131 1075 q-12 2 -32 5.5t-27 4.5t-16.5 3.5t-12.5 2.5q-6 2 -12 2q-49 12 -43 64l14 121h156h276h154l-14 -121q-6 -52 -60 -64z" />
<glyph unicode="J" horiz-adv-x="1118" d="M926 1481h155l-14 -121q-6 -52 -59 -64l-6 -1q-6 -1 -9 -1t-13 -2.5t-17 -3.5q-6 -1 -26.5 -4.5t-35.5 -5.5l-92 -752q-14 -120 -59 -225q-42 -99 -113 -170t-164 -108q-98 -39 -217 -39q-56 0 -109 6q-46 5 -108 22l35 164q6 21 20 35q17 14 45 14q18 0 45 -6 q36 -8 70 -8q65 0 106 16q43 14 82 56q40 43 58 94q24 66 32 143l93 758q-59 9 -64 10q-9 1 -22 3.5t-17 2.5q-5 0 -12 1l-6 1q-49 12 -43 64l14 121h176h275z" />
<glyph unicode="K" horiz-adv-x="1634" d="M1440 184q49 -12 43 -63l-17 -121h-14h-139h-80h-25h-315l14 121q6 51 60 63q8 0 16 2q24 6 29 7l-262 407q-18 28 -41 39q-24 12 -72 12h-88l-55 -448q12 -2 32 -5.5t27 -4.5t17.5 -4t13.5 -3q4 0 8 -1l4 -1q49 -12 43 -63l-14 -121h-156h-274h-156l14 121q6 51 60 63 q1 0 5 1t7 1q12 4 33 7q6 1 26 4.5t35 5.5l131 1075q-13 2 -32 6.5t-25 5.5q-28 4 -31 4q-4 0 -8 1l-4 1q-49 12 -43 66l14 119h156h274h156l-16 -119q-6 -54 -58 -66q-1 0 -6 -1t-8 -1q-3 -1 -7.5 -1.5t-11.5 -1t-12 -1.5q-6 -1 -26 -5.5t-35 -6.5l-52 -418h64q43 0 66 10 q30 13 49 35l352 387q-2 0 -6.5 1t-7.5 1q-4 0 -8 1t-5 1q-49 12 -43 64l15 121h340h51h155l-14 -121q-6 -52 -59 -64q-2 0 -7 -1t-10 -1q-4 0 -18 -2.5t-21 -3.5q-9 -1 -31 -5t-30 -5l-385 -414q-35 -35 -51 -47q-30 -23 -51 -33q33 -13 57 -34q21 -18 45 -58l305 -489 q54 -9 59 -10q8 -1 20.5 -4t16.5 -3q5 0 11 -1z" />
<glyph unicode="L" horiz-adv-x="1196" d="M1047 354h108l-25 -207l-6 -38l-12 -109h-49h-6h-862h-156l14 121q6 51 60 63q6 0 12 2q3 0 14.5 3t18.5 4q6 1 26 4.5t35 5.5l131 1075q-12 2 -32 5.5t-27 4.5t-16.5 3.5t-12.5 2.5q-6 2 -12 2q-49 12 -43 64l14 121h156h274h156l-16 -121q-6 -52 -58 -64q-8 0 -14 -2 q-8 -3 -31 -6q-6 -1 -26 -4.5t-35 -5.5l-129 -1051h477q15 74 18 88q12 39 54 39z" />
<glyph unicode="M" horiz-adv-x="2174" d="M2062 1296l-4 -1q-4 -1 -8 -1q-3 0 -13.5 -2.5t-17.5 -3.5l-27 -4.5t-36 -5.5l-131 -1075q12 -2 32 -5.5t27 -4.5t16.5 -4t12.5 -3t8 -1t6 -1q49 -12 43 -63l-16 -121h-154h-244h-184l14 121q6 51 60 63q2 0 15.5 2t49 7t70.5 10l94 753q5 41 8 58l13 65l-551 -839 q-21 -32 -45 -45q-31 -17 -60 -17h-39q-31 0 -55 17q-19 14 -33 45l-350 841q0 -19 -4 -65q-1 -10 -2 -30.5t-2 -29.5l-94 -753l68 -10t47.5 -7t15.5 -2q51 -12 45 -63l-16 -121h-185h-241h-156l14 121q6 51 60 63q1 0 5 1t7 1q12 4 33 7q6 1 26 4.5t35 5.5l131 1075 q-12 2 -32 5.5t-27 4.5t-16.5 3.5t-12.5 2.5q-6 2 -12 2q-49 12 -43 64l14 121h156h207q6 0 16 -1t14 -1q13 0 25 -4q4 -1 18 -15q9 -9 15 -24l342 -822q18 -52 22 -67q3 -10 10.5 -34t10.5 -38q15 31 39 74q5 11 12 22t15.5 24t13.5 21l538 820q5 7 21 24q13 13 20 15 q16 4 25 4q3 0 15 1t18 1h208h154l-14 -121q-6 -52 -60 -64z" />
<glyph unicode="N" horiz-adv-x="1818" d="M1626 1481h154l-15 -121q-6 -52 -59 -64q-2 0 -5.5 -1t-6.5 -1t-13.5 -2.5t-17.5 -3.5q-6 -1 -28 -4.5t-36 -5.5l-155 -1278h-144q-30 0 -53 10q-17 7 -37 37l-653 985q0 -43 -2 -63l-6 -60l-88 -706l68 -10t47.5 -7t15.5 -2q51 -12 45 -63l-16 -121h-185h-241h-156 l14 121q6 51 60 63q6 0 12 2q12 4 33 7q6 1 26 4.5t35 5.5l131 1075q-12 2 -32 5.5t-27 4.5t-16.5 3.5t-12.5 2.5q-4 0 -8 1l-4 1q-49 12 -43 64l14 121h156h143q6 0 17 -1t14 -1q11 0 20 -6q9 -3 19 -13q4 -4 16 -24l658 -990q0 47 2 70q4 46 6 66l86 696q-126 18 -131 18 q-49 12 -43 64l14 121h184h244z" />
<glyph unicode="O" horiz-adv-x="1597" d="M1548 741q-22 -169 -90 -303q-69 -135 -182 -239q-111 -102 -256 -158q-148 -57 -313 -57q-163 0 -299 57q-135 57 -220 158q-84 101 -122 239q-39 145 -19 303q21 162 92 301q69 135 183 240q110 101 258 158t313 57q170 0 299 -57q135 -60 217 -158q85 -102 123 -240 q37 -137 16 -301zM1266 741q15 126 -4 217q-21 97 -74 166q-51 66 -133 103q-81 37 -191 37t-200 -37q-92 -38 -160 -103q-67 -64 -115 -166q-44 -94 -59 -217q-15 -121 6 -219q20 -95 74 -164q51 -66 135 -104q77 -35 190 -35q116 0 201 35q92 38 158 104q75 75 114 164 q43 99 58 219z" />
<glyph unicode="P" horiz-adv-x="1394" d="M1339 1198q23 -83 11 -190q-12 -105 -60 -197q-47 -89 -127 -154q-76 -61 -190 -100q-104 -35 -256 -35h-185l-38 -319q12 -2 32 -5.5t27 -4.5t17.5 -4t13.5 -3q4 0 8 -1l4 -1q49 -12 43 -63l-14 -121h-156h-274h-156l14 121q6 51 60 63q1 0 5 1t7 1q12 4 33 7 q6 1 26 4.5t35 5.5l131 1075q-12 2 -32 5.5t-27 4.5t-16.5 3.5t-12.5 2.5q-6 2 -12 2q-49 12 -43 64l14 121h156h457q146 0 253 -35q96 -32 166 -98q60 -57 86 -150zM1042 895q27 56 33 115q6 57 -6 106t-45 82q-34 34 -86 51q-59 19 -131 19h-182l-66 -531h184q72 0 134 19 q64 20 100 53q42 36 65 86z" />
<glyph unicode="Q" horiz-adv-x="1597" d="M1548 741q-11 -93 -43 -190q-29 -88 -80 -170q-53 -86 -110 -145q-65 -68 -141 -117l325 -410h-227q-39 0 -86 15q-43 14 -68 49l-186 239q-49 -13 -111 -20q-74 -8 -114 -8q-163 0 -299 57q-135 57 -220 158q-84 101 -122 239q-39 145 -19 303q21 162 92 301 q69 135 183 240q110 101 258 158t313 57q170 0 299 -57q135 -60 217 -158q85 -102 123 -240q37 -137 16 -301zM1266 741q15 126 -4 217q-21 97 -74 166q-51 66 -133 103q-81 37 -191 37t-200 -37q-92 -38 -160 -103q-67 -64 -115 -166q-44 -94 -59 -217q-15 -121 6 -219 q20 -95 74 -164q51 -66 135 -104q77 -35 190 -35q116 0 201 35q92 38 158 104q75 75 114 164q43 99 58 219z" />
<glyph unicode="R" horiz-adv-x="1421" d="M1335 184q49 -12 43 -63l-14 -121h-29h-127h-121q-37 0 -59 14t-37 41l-254 475q-14 25 -32 37q-19 13 -62 13h-102l-47 -377q12 -2 32 -5.5t27 -4.5t17.5 -4t13.5 -3q4 0 8 -1l4 -1q49 -12 43 -63l-14 -121h-156h-274h-156l14 121q6 51 60 63q6 0 12 2q12 4 33 7 q6 1 26 4.5t35 5.5l131 1075q-12 2 -32 5.5t-27 4.5t-16.5 3.5t-12.5 2.5q-4 0 -8 1l-4 1q-49 12 -43 64l14 121h156h436q147 0 256 -31q100 -29 166 -88q62 -56 84 -135q23 -84 12 -172q-9 -75 -39 -142q-27 -60 -80 -120q-50 -56 -112 -95t-148 -65q50 -30 80 -86 l191 -344q8 -1 30 -5t31 -5q8 -1 20.5 -4t16.5 -3q5 0 9 -1zM860 797q57 17 103 53q38 30 65 82q25 49 31 102q12 115 -53 174q-66 60 -220 60h-161l-60 -492h158q65 0 137 21z" />
<glyph unicode="S" horiz-adv-x="1179" d="M1049 621q22 -67 10 -158q-11 -94 -60 -187q-48 -92 -118 -153q-77 -67 -174 -103q-95 -36 -222 -36h-30q-197 0 -416 77l4 37l43 344h8h25h84q40 0 43 -36q0 -76 -2 -170q86 -27 276 -27q121 0 191 55q72 57 84 160q6 57 -19 96t-69 62q-51 26 -105 43q-89 26 -121 37 q-49 17 -119 49q-53 24 -100 75q-39 42 -61 115q-22 72 -11 170q9 79 54 158q49 87 110 137q67 55 164 94q93 37 209 37q216 0 416 -84l-47 -379h-9h-24h-84q-40 0 -43 39q0 74 2 166q-70 33 -233 33q-59 0 -103 -12q-48 -17 -76 -39q-34 -27 -51 -60q-18 -34 -24 -76 q-6 -52 18 -86t72 -59q65 -34 102 -45q9 -3 121 -41q33 -11 119 -51q54 -25 100 -74q47 -51 66 -108z" />
<glyph unicode="T" horiz-adv-x="1349" d="M1278 1481h33l-43 -351h-8h-25h-84q-40 0 -43 39v86h-303l-129 -1052q12 -2 32 -5.5t27 -4.5t17.5 -4t13.5 -3q4 0 8 -1l4 -1q49 -12 43 -63l-14 -121h-156h-274h-156l15 121q6 51 59 63q1 0 5 1t7 1t14.5 3t18.5 4q6 1 26 4.5t35 5.5l129 1052h-303q-17 -78 -20 -86 q-12 -39 -51 -39h-86h-25h-8l43 351h31h2h1165z" />
<glyph unicode="U" horiz-adv-x="1632" d="M1440 1481h155l-16 -121q-6 -52 -59 -64q-2 0 -6 -1t-7 -1t-13 -2.5t-17 -3.5q-6 -1 -26.5 -4.5t-35.5 -5.5l-84 -684q-14 -124 -74 -244q-55 -110 -145 -194q-90 -81 -209 -127q-116 -45 -262 -45q-145 0 -250 45q-106 46 -178 127q-71 83 -98 194q-28 114 -13 244 l84 684q-12 2 -32 5.5t-27 4.5t-16.5 3.5t-12.5 2.5q-4 0 -8 1l-4 1q-51 12 -45 64l16 121h154h276h164l-14 -121q-6 -52 -59 -64q-2 0 -8 -1t-9 -1t-15 -2.5t-20 -3.5t-29 -4.5t-34 -5.5l-84 -682q-10 -92 4 -154q16 -72 51 -118t96 -74q58 -27 140 -27q80 0 147 27 q68 27 115 74q55 55 82 116q32 73 41 154l84 684q-9 1 -22.5 3.5t-23 4t-16.5 2.5q-8 1 -20 3.5t-15 2.5q-4 0 -9 1l-5 1q-49 12 -43 64l14 121h164h277z" />
<glyph unicode="V" horiz-adv-x="1681" d="M1573 1481h69l-14 -121q-6 -52 -59 -64q-2 0 -6 -1t-7 -1t-13 -2.5t-17 -3.5t-27.5 -4.5t-32.5 -5.5l-673 -1278h-248l-361 1278q-13 2 -31.5 5.5t-25.5 4.5t-16.5 3.5t-12.5 2.5q-6 2 -12 2q-49 12 -43 64l14 121h72h84h137h260l-14 -121q-6 -52 -59 -64q-7 0 -11 -2 q-5 -3 -22 -6q-4 -1 -15 -4t-18 -4l201 -764q14 -50 22 -98q14 -82 17 -111q40 126 84 209l387 764q-7 1 -18 4t-15 4q-15 3 -21 6q-4 2 -10 2q-49 12 -43 64l15 121h262h137h84z" />
<glyph unicode="W" horiz-adv-x="2353" d="M2247 1481h69l-14 -121q-6 -52 -59 -64q-1 0 -4 -0.5l-9 -1.5l-12 -2t-25 -4.5t-34 -5.5l-555 -1282h-248l-201 1012q-1 6 -6 41q-1 6 -4 23t-4 26q-14 -37 -19 -49q-7 -20 -18 -41l-451 -1012h-247l-242 1282q-13 2 -32 5.5t-26 4.5q-6 1 -10.5 2t-6.5 1.5t-3 0.5 q-51 12 -45 64l16 121h70h84h147h252l-16 -121q-6 -52 -57 -64q-9 0 -13 -2q-5 -3 -22 -6q-30 -6 -37 -8l121 -748q4 -25 8 -71q2 -31 6 -82q13 47 27 82q5 13 30 71l400 885q14 27 37 43q32 21 61 21h82q33 0 57 -17q20 -18 27 -47l180 -885q15 -64 21 -145q4 13 24 76 q10 32 25 69l303 746q-26 5 -82 18q-51 12 -45 64l16 121h267h131h86z" />
<glyph unicode="X" horiz-adv-x="1757" d="M1530 184q49 -12 43 -63l-14 -121h-78h-68h-18h-189h-276l16 121q6 51 58 63q40 7 63 13l-203 417q-2 -3 -5 -11t-5 -11l-14 -21l-277 -368q7 -1 84 -19q49 -12 43 -63l-14 -121h-303h-168h-12h-78h-74l14 121q6 51 60 63q42 7 155 19l430 559l-274 516q-145 16 -156 18 q-49 12 -43 64l15 121h75h78h11h186h287l-15 -121q-6 -52 -59 -64q-20 -3 -43 -8t-27 -6l187 -379q12 25 14 27q3 4 9 13t9 13l244 324q-7 2 -31.5 7t-42.5 9q-51 12 -45 64l17 121h288h172h21h72h71l-14 -121q-6 -52 -59 -64q-16 -3 -160 -18l-402 -504l291 -571 q133 -15 154 -19z" />
<glyph unicode="Y" horiz-adv-x="1517" d="M1446 1481h33l-15 -121q-6 -52 -59 -64q-2 0 -5.5 -1t-6.5 -1t-13.5 -2.5t-17.5 -3.5q-6 -1 -28 -4.5t-36 -5.5l-503 -703l-45 -372q12 -2 32 -5.5t27 -4.5t16.5 -4t12.5 -3q4 0 9 -1l5 -1q49 -12 43 -63l-16 -121h-154h-276h-154l14 121q6 51 60 63q6 0 12 2q13 4 31 7 l27 4.5t36 5.5l45 372l-332 703q-12 2 -32 5.5t-27 4.5t-17.5 3.5t-13.5 2.5q-6 2 -12 2q-49 12 -43 64l14 121h35h37h84h121h276l-14 -121q-6 -52 -59 -64q-1 0 -5 -1t-6 -1q-6 -3 -18 -6q-5 -1 -16.5 -3.5t-14.5 -2.5l152 -358q20 -49 30 -82q23 -76 23 -78 q7 16 22.5 44.5t18.5 33.5q10 19 49 82l240 358q-25 5 -29 6l-10.5 3.5t-9.5 2.5q-4 2 -9 2q-49 12 -43 64l15 121h276h121h86h37z" />
<glyph unicode="Z" horiz-adv-x="1402" d="M1315 1292l-891 -1073h594q10 38 18.5 72.5t12 50.5t4.5 18q12 39 51 39h108l-20 -180l-29 -219h-1124l14 109q4 25 10 38q11 22 23 37l895 1078h-563q-35 -140 -37 -146q-12 -39 -53 -39h-109l49 404h1096l-12 -103q-6 -44 -37 -86z" />
<glyph unicode="[" horiz-adv-x="727" d="M37 -315l233 1898h420l-12 -98q-3 -26 -25 -45t-51 -19h-141l-193 -1573h142q30 0 45 -18q17 -20 14 -47l-12 -98h-420z" />
<glyph unicode="\" horiz-adv-x="718" d="M43 1522h109q46 0 75 -23q32 -26 43 -65l408 -1532h-107q-35 0 -73 24q-35 22 -47 70z" />
<glyph unicode="]" horiz-adv-x="729" d="M37 -315l12 98q3 28 25 47q21 18 51 18h141l193 1573h-142q-31 0 -47 19q-15 18 -12 45l12 100h420l-233 -1900h-420z" />
<glyph unicode="^" horiz-adv-x="1019" d="M975 795h-184q-25 0 -37 12q-11 11 -21 31l-127 297q-14 31 -22 53q-8 21 -15 53q-18 -39 -26 -53q-1 -1 -13.5 -21.5t-19.5 -31.5l-195 -297q-12 -18 -28 -31q-15 -12 -45 -12h-193l465 686h164z" />
<glyph unicode="_" horiz-adv-x="987" d="M905 -137l-20 -164h-807l20 164h807z" />
<glyph unicode="`" horiz-adv-x="557" d="M295 1497q38 0 59 -14q18 -12 31 -41l117 -248h-146q-21 0 -45 8q-20 10 -32 27l-222 268h238z" />
<glyph unicode="a" horiz-adv-x="1062" d="M975 186q51 -12 45 -63l-16 -121h-127v0h-134q-47 0 -65 21q-19 22 -19 55l9 143q-74 -113 -156 -172q-84 -63 -193 -63q-57 0 -110 24t-90 70q-38 44 -60 117q-22 74 -22 163q0 96 24 185q27 99 66 168q48 84 104 143q63 66 140 113q85 52 164 73q92 25 186 25 q65 0 143 -10q70 -9 140 -37l-103 -821l2 2q13 -2 29.5 -6t21.5 -5l10 -2l7.5 -1.5t3.5 -0.5zM698 567l39 318q-36 4 -51 4q-87 0 -158 -39q-72 -40 -125 -105q-57 -73 -84 -153q-28 -80 -28 -186q0 -112 33 -162q34 -51 96 -51q40 0 82 28q36 24 76 80q37 52 67 119 q35 79 53 147z" />
<glyph unicode="b" horiz-adv-x="1120" d="M1067 762q15 -99 0 -227q-16 -123 -57 -220q-41 -95 -113 -174q-67 -73 -156 -114q-83 -41 -192 -41q-236 0 -508 57l41 328l117 948q-9 1 -22.5 3.5t-23 4t-16.5 2.5q-8 1 -20 3.5t-15 2.5q-4 0 -9 1l-5 1q-49 12 -43 64l14 121h164h252l-74 -600q63 60 156 106 q79 39 188 39q91 0 154 -35q65 -33 109 -102q44 -68 59 -168zM770 375q25 71 37 160q11 82 4 155q-6 60 -29 105q-19 37 -61 57q-38 18 -86 18q-82 0 -139 -32q-63 -37 -115 -95l-68 -546q108 -19 201 -19q58 0 107 21q47 20 86 65q40 46 63 111z" />
<glyph unicode="c" horiz-adv-x="980" d="M823 250l62 -92q-48 -48 -103 -84q-47 -31 -108 -54q-51 -16 -113 -26q-52 -8 -112 -8q-104 0 -179 34q-82 37 -137 107q-57 72 -80 170q-23 99 -8 231q15 120 59 213q47 100 119 172q74 74 172 113q103 41 226 41q129 0 321 -76l-41 -323h-8h-25h-84q-40 0 -43 39 q0 65 2 147q-73 20 -131 20q-68 0 -120 -24q-56 -26 -93 -68q-35 -40 -61 -110q-27 -72 -35 -144q-9 -84 0 -149q9 -62 37 -111q26 -42 74 -67q51 -23 106 -23q60 0 101 15q38 14 65 32q42 28 49 33q20 14 45 14q32 0 43 -22z" />
<glyph unicode="d" horiz-adv-x="1171" d="M1106 125l-14 -121h-144h-153q-26 0 -41 12q-16 13 -19 35l-8 96q-67 -67 -160 -116q-86 -45 -198 -45q-93 0 -154 34q-67 38 -111 105q-44 68 -59 168q-15 101 0 229q14 112 59 217q41 95 113 174q64 70 156 115q87 43 192 43q85 0 148 -29q64 -29 102 -73l43 350 q-12 2 -32 5.5t-27 4.5q-23 3 -31 6q-6 2 -12 2q-49 12 -43 64l14 121h156h252l-162 -1317q12 -2 30.5 -5t20.5 -3q6 -1 15.5 -4t11.5 -3t6 -1t6 -1q49 -12 43 -63zM733 311l60 471q-38 54 -86 74q-54 23 -107 23q-52 0 -106 -23q-47 -20 -86 -65q-42 -48 -64 -111 q-26 -73 -37 -158q-11 -83 -4 -157q5 -57 29 -103q21 -40 61 -59t86 -19q80 0 139 33q64 38 115 94z" />
<glyph unicode="e" horiz-adv-x="966" d="M928 807q0 -66 -29 -129q-27 -59 -100 -105q-67 -43 -197 -79q-131 -37 -317 -54v-12q0 -248 209 -248q48 0 79 8q42 11 62 21q21 11 47 29q6 4 13 8.5t14.5 9.5t11.5 8q33 22 35 23q16 8 39 8q12 0 24 -6q13 -7 21 -17l63 -77q-58 -58 -106 -95q-55 -43 -107 -65 q-61 -27 -115 -37q-61 -12 -131 -12q-94 0 -168 30t-126 88q-55 58 -82 138q-31 91 -31 180q0 82 18 162q20 87 51 151q33 68 84 131q50 62 111 105q64 45 137 69q77 25 158 25t145 -25q71 -28 105 -59q38 -33 61 -84q21 -47 21 -90zM582 889q-52 0 -95 -21q-44 -21 -79 -59 q-38 -38 -62 -90q-27 -58 -41 -117q131 19 205 39q75 20 119 45q45 25 57 51q12 22 12 60q0 17 -6 32t-20 29q-22 17 -35 23q-19 8 -55 8z" />
<glyph unicode="f" horiz-adv-x="927" d="M766 1505q72 0 133 -18l-22 -127q-6 -32 -31 -37q-36 -8 -62 -8q-49 0 -82 -8q-32 -8 -63 -35q-27 -24 -45 -64q-20 -44 -25 -96l-8 -70h273l-21 -180h-266l-2 -2l-23 -184l-78 -633q-12 -106 -51 -186q-46 -86 -104 -129q-70 -51 -160 -74q-91 -23 -221 -23v131 q0 78 80 78q38 0 75 13q39 14 62 34q26 23 45 66q20 44 25 96l77 627v4l7 61l16 119l-90 14q-31 7 -45 21q-16 16 -13 43l13 104h155l11 78q13 99 47 162q42 78 92 121q59 50 133 76t168 26z" />
<glyph unicode="g" horiz-adv-x="1185" d="M987 748q0 -42 -10 -84q-8 -35 -25 -68q-26 -52 -32 -61q-5 -7 -33 -58q-15 -26 -25 -61q-10 -33 -10 -70q0 -44 18 -78q17 -34 37 -71q23 -40 39 -80q17 -41 17 -97q0 -77 -35 -149q-33 -68 -101 -123q-63 -52 -159 -82q-98 -31 -213 -31q-93 0 -174 19q-79 22 -131 57 q-60 41 -84 84q-29 53 -29 107q0 89 43 147q42 56 113 94q74 39 157 54q91 16 172 16q28 0 82 -4q25 -2 76 -10q-1 5 -3 16t-3 16q-4 20 -4 35q0 66 32 131q-39 -26 -88 -41q-46 -14 -118 -14q-55 0 -113 20q-50 16 -94 60t-66 98q-22 56 -22 142q0 78 26 149q24 66 86 131 q53 55 140 92q84 35 192 35q62 0 111 -14q52 -12 96 -39h295l-12 -82q-3 -25 -15 -43q-11 -16 -35 -23l-108 -28q4 -13 8 -43q2 -14 2 -49zM733 -2q0 5 -1 14.5t-1 14.5q-1 5 -2 13.5t-2 12.5q-67 11 -100 13q-62 4 -88 4q-74 0 -119 -11q-54 -13 -82 -30q-30 -16 -47 -43 t-17 -52q0 -64 50 -94t151 -30q62 0 105 14q48 16 82 39q33 23 53 61q18 34 18 74zM569 496q47 0 80 20q38 23 60 55q20 28 34 80q13 47 13 88q0 79 -35 117q-38 41 -105 41q-46 0 -81 -18q-32 -17 -58 -54q-23 -33 -35 -77t-12 -89q0 -78 35 -122q35 -41 104 -41z" />
<glyph unicode="h" horiz-adv-x="1165" d="M1079 184q49 -12 43 -63l-14 -121h-156h-252l82 668q12 96 -26 149t-127 53q-65 0 -127 -30q-61 -30 -117 -80l-63 -506l-31 -254h-254l26 203l13 102l18 148l107 866q-12 2 -32.5 5.5t-27.5 4.5t-17 3.5t-13 2.5t-7.5 1t-5.5 1q-49 12 -43 64l15 121h155h252l-71 -586 q58 51 147 94q75 37 176 37q81 0 150 -29q63 -28 102 -82q35 -49 51 -127q16 -76 4 -161l-57 -465q12 -2 32 -5.5t27 -4.5q14 -2 29 -7q6 -2 12 -2z" />
<glyph unicode="i" horiz-adv-x="577" d="M461 184q49 -12 43 -63l-15 -121h-155h-254l26 203l78 645q-12 2 -32 5.5t-27 4.5q-19 3 -29 6q-4 0 -8 1l-4 1q-51 12 -45 64l16 121h154h254l-105 -848q12 -2 32.5 -5.5t27.5 -4.5q12 -2 28 -7q6 -2 15 -2zM539 1356q-2 -29 -21 -62q-12 -22 -43 -49q-27 -24 -55 -35 q-30 -12 -66 -12q-32 0 -59 12t-47 35q-21 24 -29 49q-7 22 -4 62q2 28 21 65q12 25 40 49q28 25 54 35q38 15 63 15q30 0 64 -15q27 -12 47 -35q20 -24 28 -49q10 -33 7 -65z" />
<glyph unicode="j" horiz-adv-x="784" d="M741 1419q7 -24 4 -63q-3 -31 -20 -62q-14 -26 -41 -49q-27 -24 -55 -35q-30 -12 -66 -12q-34 0 -61 12q-24 11 -45 35t-29 49q-9 27 -6 62q2 28 20 63q13 27 41 51q27 23 56 35q32 13 63 13q33 0 62 -13q27 -12 47 -35q23 -26 30 -51zM418 1051h252l-133 -1086 q-9 -67 -33 -129q-22 -56 -72 -106q-47 -47 -110 -72q-76 -27 -160 -27q-26 0 -66 4q-7 1 -61 17l24 135q6 21 21 27t51 6q39 0 66 6t45 24q15 12 26 46q12 37 17 69l108 883q-12 2 -32 5.5t-27 4.5t-17.5 3.5t-13.5 2.5t-7 1t-5 1q-49 12 -43 64l14 121h156z" />
<glyph unicode="k" horiz-adv-x="1150" d="M1110 1051h2l-14 -121q-6 -52 -60 -64q-10 0 -18 -2q-12 -3 -39 -6q-8 -1 -28 -4t-31 -4l-179 -188q-5 -5 -13 -13.5t-15 -15.5t-13 -12q-27 -23 -43 -31q20 -16 33 -35q22 -30 29 -45l172 -307q50 -9 63 -10q38 -4 43 -5q16 -4 21 -4q49 -12 43 -63l-14 -121h-41h-115 h-115q-27 0 -47 10q-21 10 -33 35l-219 399q-13 26 -26 31q-15 6 -45 6h-58l-8 -69h-2l-49 -412h-254l57 453l107 866q-12 2 -32.5 5.5t-27.5 4.5q-21 3 -30 6q-3 0 -7.5 1t-5.5 1q-49 12 -43 64l15 121h155h252l-106 -871h47q26 0 41 6q10 4 33 27l167 178q-3 1 -6 1.5 t-5 1t-3 1t-2 0.5q-49 12 -43 64l14 121h252l-2 -2q8 2 23 2h223z" />
<glyph unicode="l" horiz-adv-x="514" d="M418 184q49 -12 43 -63l-15 -121h-155h-252h-2l26 203l31 250l33 266l74 600q-12 2 -32.5 5.5t-27.5 4.5t-17 3.5t-13 2.5t-7.5 1t-5.5 1q-49 12 -43 64l15 121h155h252l-162 -1319q12 -2 32.5 -5.5t27.5 -4.5q17 -3 31 -7q6 -2 12 -2z" />
<glyph unicode="m" horiz-adv-x="1771" d="M1683 184q49 -12 43 -63l-14 -121h-156h-251l81 668q12 98 -26 151q-36 51 -121 51q-36 0 -76 -14q-32 -11 -61 -37t-47 -63q-22 -46 -27 -88l-24 -199l-19 -152l-12 -114l-27 -203h-254l82 668q12 108 -22 153q-37 49 -119 49q-56 0 -107 -26q-49 -25 -98 -74l-49 -408 l-45 -362h-252l51 424l53 424q-12 2 -32 5.5t-27 4.5t-17.5 3.5t-13.5 2.5q-4 0 -8 1l-4 1q-49 12 -43 64l14 121h156h154q50 0 59 -47l6 -78q36 36 66 57q46 32 69 43q43 21 78 31q45 10 88 10q100 0 156 -53q59 -56 80 -144q34 59 71 91q33 31 88 59q43 22 99 35 q53 12 100 12q87 0 152 -27q66 -28 104 -77q40 -52 55 -125q15 -71 2 -170l-55 -465q13 -2 31.5 -5.5t25.5 -4.5q18 -3 31 -7q6 -2 12 -2z" />
<glyph unicode="n" horiz-adv-x="1210" d="M1124 184q49 -12 43 -63l-14 -121h-156h-254l82 668q12 98 -24 149q-38 53 -127 53q-66 0 -127 -30q-65 -32 -119 -80l-41 -334l-6 -49l-21 -174l-26 -203h-252l37 305l67 543q-12 2 -32 5.5t-27 4.5t-17.5 3.5t-13.5 2.5q-6 2 -12 2q-49 12 -43 64l14 121h156h154 q50 0 59 -47l8 -82q38 35 74 59q47 31 80 45q63 26 88 31q52 10 100 10q88 0 150 -29q60 -26 100 -82q35 -49 51 -127q16 -76 4 -161l-57 -465q12 -2 32 -5.5t27 -4.5q14 -2 29 -7q6 -2 14 -2z" />
<glyph unicode="o" horiz-adv-x="1132" d="M631 1067q114 0 209 -39q92 -38 149 -106q61 -74 84 -170q25 -104 10 -224q-14 -121 -65 -225q-50 -103 -125 -172q-78 -72 -176 -108q-101 -37 -219 -37q-119 0 -209 37q-95 39 -152 108q-61 73 -84 172q-24 104 -10 225q14 118 66 224q46 96 127 170q75 69 176 106 q106 39 219 39zM522 180q132 0 205 88t94 258q21 172 -30 258q-53 90 -183 90q-134 0 -209 -90q-73 -87 -94 -260q-21 -169 31 -256q52 -88 186 -88z" />
<glyph unicode="p" horiz-adv-x="1316" d="M1266 762q15 -100 0 -227q-15 -113 -60 -220q-43 -101 -110 -174q-61 -66 -158 -114q-83 -41 -193 -41q-91 0 -147 26t-100 76l-29 -227q14 -2 33.5 -7t25.5 -6q5 -1 12 -1.5t10.5 -1t6.5 -1.5q6 -2 12 -2q51 -12 45 -65l-16 -119h-154h-254h-153l14 119q6 53 60 65 q1 0 5 1t7 1t31 4q6 1 26 6t35 7l123 987q-12 2 -32 5.5t-27 4.5t-17.5 3.5t-13.5 2.5q-4 0 -8 1l-4 1q-49 12 -43 64l14 121h155h154q25 0 41 -13q15 -12 18 -34l9 -97q68 68 161 117q86 45 197 45q91 0 154 -35q67 -37 110 -104q45 -70 60 -168zM967 375q26 73 37 157 q11 83 4 158q-5 57 -29 103q-21 41 -59 59t-89 18q-82 0 -139 -32q-60 -36 -114 -95l-58 -471q38 -54 84 -73q54 -23 107 -23q52 0 106 23q47 20 86 65q42 48 64 111z" />
<glyph unicode="q" horiz-adv-x="1122" d="M1040 -160q49 -12 43 -63l-14 -121h-162h-254h-155l16 121q6 51 57 63q9 0 15 2q9 3 30 6q6 1 26.5 5t35.5 6l35 272q-59 -56 -156 -104q-84 -41 -188 -41q-87 0 -154 37q-71 39 -111 102q-44 69 -59 166q-15 99 0 229q14 112 59 217q41 95 113 174t156 117q90 41 192 41 q236 0 508 -57l-41 -330l-100 -823q12 -2 32.5 -6t28.5 -5t19 -3.5t14 -2.5q4 0 9 -1zM618 217q68 40 115 92l68 547q-119 21 -201 21q-52 0 -106 -23q-46 -19 -86 -66q-42 -49 -64 -110q-26 -73 -37 -158q-11 -82 -4 -155q6 -60 29 -105q21 -41 59 -59q40 -19 88 -19 q77 0 139 35z" />
<glyph unicode="r" horiz-adv-x="917" d="M754 1069q82 0 125 -35l-56 -190q-6 -19 -18 -25q-11 -8 -29 -8q-17 0 -41 6q-32 8 -69 8q-79 0 -140 -43q-57 -40 -110 -129l-45 -364l-37 -289h-252l24 203l15 121l10 71l55 453q-86 16 -102 18q-49 12 -43 64l14 121h156h147q42 0 54 -15q14 -17 14 -49v-127 q65 96 152 154q82 55 176 55z" />
<glyph unicode="s" horiz-adv-x="899" d="M819 442q17 -54 10 -108q-9 -80 -45 -141q-39 -67 -94 -111q-61 -49 -141 -72q-79 -26 -182 -26q-184 0 -326 57l12 102l23 195h10h25h84q40 0 43 -39q0 -39 -2 -121q53 -16 163 -16q42 0 80 10q32 11 56 29q26 20 36 39q12 24 15 49q3 35 -15 59q-16 22 -53 41 q-41 22 -78 31l-92 31q-34 11 -90 38q-47 23 -76 56q-37 43 -49 82q-16 54 -8 118q10 70 41 123q37 63 88 103q58 45 133 69q86 27 174 27q79 0 137.5 -10.5t161.5 -44.5l-37 -297h-8h-24h-86q-40 0 -43 39q0 34 2 114q-47 15 -121 15q-73 0 -121 -31q-47 -30 -53 -84 q-3 -34 14 -57q14 -19 53 -39q47 -24 78 -33q15 -4 92 -29q22 -7 88 -39q44 -21 76 -53q34 -30 49 -76z" />
<glyph unicode="t" horiz-adv-x="780" d="M367 -16q-136 0 -201 77q-64 76 -49 213l73 586h-106q-21 0 -35 14q-13 13 -10 39l12 103l172 26l90 287q5 16 23 31q15 12 39 12h131l-41 -332h276l-22 -180h-277l-69 -569q-6 -50 14 -76q21 -27 64 -27q26 0 38 5q3 1 14.5 5.5t16.5 6.5q12 6 21 12q6 4 20 4 q13 0 17 -4q12 -12 14 -16l61 -123q-59 -44 -137 -70q-74 -24 -149 -24z" />
<glyph unicode="u" horiz-adv-x="1210" d="M1124 184q49 -12 43 -63l-14 -121h-156h-155q-49 0 -58 47l-8 84q-39 -36 -74 -61q-40 -29 -79 -45q-48 -20 -91 -31q-52 -10 -98 -10q-85 0 -149 28q-55 24 -101 84q-37 48 -53 125q-14 71 -2 162l57 465q-86 16 -102 18q-49 12 -43 64l14 121h156h252l-82 -668 q-12 -95 27 -150q36 -51 127 -51q61 0 127 29q56 25 118 80l68 557q-29 5 -49.5 8.5t-27.5 5t-12.5 2.5t-10.5 2q-52 13 -46 64l17 121h153h254l-104 -848q28 -5 49.5 -9t28.5 -5.5t12.5 -2.5t11.5 -2z" />
<glyph unicode="v" horiz-adv-x="1296" d="M1188 1051h67l-14 -121q-6 -52 -59 -64l-10 -2t-12 -2.5t-27 -5t-50 -8.5l-440 -848h-229l-234 848q-28 5 -48 9t-26 5.5t-10.5 2t-9.5 1.5q-51 12 -45 64l16 121h68h209h233l-14 -121q-6 -52 -59 -64q-46 -8 -58 -10l99 -414q12 -50 18 -96q4 -30 8 -94q17 53 33 94 q14 36 43 96l203 412q-22 4 -36 6.5t-20 3.5t-10 2q-51 12 -45 64l16 121h244h199z" />
<glyph unicode="w" horiz-adv-x="1869" d="M1747 1051h84l-14 -121q-6 -52 -60 -64q-3 0 -100 -18l-373 -848h-203q-34 0 -43 45l-114 606q-6 28 -9 62q-1 7 -2.5 19t-2.5 21.5t-1 18.5q-13 -44 -20 -61l-25 -62l-266 -604q-17 -45 -59 -45h-195l-164 848q-29 5 -48.5 8.5t-25.5 5t-10.5 2.5t-9.5 2q-51 12 -45 64 l16 121h84h201h225l-14 -121q-6 -52 -59 -64q-1 0 -18 -3.5t-46 -8.5l59 -412q10 -80 11 -90q1 -15 1 -44t1 -44q6 17 20.5 50t16.5 38q4 9 16 40.5t20 49.5l244 564q9 20 29 32q26 15 45 15h111q26 0 45 -15q17 -14 20 -32l102 -574q3 -16 13 -86q2 -15 5 -42t5 -42 q13 48 27 88q13 38 34 92l164 410q-18 3 -32 6t-19.5 4t-10 2t-9.5 2q-49 12 -43 64l14 121h235h193z" />
<glyph unicode="x" horiz-adv-x="1259" d="M1083 184q49 -12 43 -63l-14 -121h-8h-90h-58h-96h-205l17 121q6 51 55 63l-113 228q-11 -34 -32 -62l-127 -164q2 0 6 -1t6 -1q49 -12 43 -63l-14 -121h-222h-79h-56h-92h-6l14 121q6 51 60 63l23 4q23 5 65 11l270 342l-172 311q-26 4 -44 7.5t-25 4.5t-13 2 q-51 12 -45 64l16 121v0h244h211l-14 -121q-6 -52 -60 -64l101 -200q2 6 16 34q3 7 12.5 19t12.5 16l96 127q-3 1 -8 2t-8 2q-49 12 -43 64l14 121h221h2h232h2l-17 -121q-6 -52 -57 -64q-4 -1 -12.5 -2.5t-27.5 -4.5t-50 -7l-246 -299l188 -354q37 -6 59 -10.5t25 -4.5z " />
<glyph unicode="y" horiz-adv-x="1290" d="M1190 1051h61l-14 -121q-6 -52 -59 -64l-10 -2t-12 -2.5t-27 -5t-50 -8.5l-626 -1137q-16 -28 -35 -41q-14 -12 -56 -12h-188l248 420l-242 770q-28 5 -47.5 8.5t-25.5 5t-11 2.5l-10 2q-51 12 -45 64l16 121h60h221h229l-14 -121q-6 -52 -59 -64l-15 -2q-15 -2 -35 -6 l117 -399q3 -8 5 -17.5t4 -21t3 -17.5t7 -57q5 12 14.5 32t11.5 25q16 37 27 56l203 395q-23 4 -68 12q-49 12 -43 64l14 121h248h203z" />
<glyph unicode="z" horiz-adv-x="1034" d="M911 344h11l-43 -344h-29h-4h-807l12 106q3 16 15 41q16 32 30 46l586 663h-330q-7 -31 -13 -54t-9 -36l-4 -12q-12 -39 -52 -39h-84h-24h-10l41 323v13h796l-12 -105q-3 -24 -16 -51t-27 -43l-582 -657h369q7 33 13 58.5t8.5 37t3.5 14.5q12 39 53 39h84h24z" />
<glyph unicode="{" horiz-adv-x="712" d="M145 420q6 62 -18 102q-23 39 -88 39l18 148q66 0 99 39q35 41 41 102q6 50 6 94q0 30 -4 96t-4 97q0 51 6 100q9 77 39 141q29 62 84 111q51 45 127 70q80 26 170 26h53l-12 -112q-3 -14 -11 -25q-4 -6 -16 -14q-14 -9 -19 -11q-6 -2 -16 -2h-8q-75 0 -117 -45 q-44 -47 -53 -125q-6 -55 -6 -108v-101q0 -17 1 -48t1 -46q0 -46 -6 -96q-6 -39 -21 -74q-16 -37 -39 -63q-25 -28 -55 -49t-72 -31q37 -12 64 -33q21 -17 43 -49q17 -26 24 -64q7 -41 2 -73q-6 -46 -18 -94q-24 -95 -25 -97q-20 -82 -24 -100q-17 -77 -21 -109 q-9 -79 23 -122q34 -46 104 -46h11q4 0 16 -4q8 -3 16 -8q10 -7 13 -16q5 -14 2 -25l-15 -110h-53q-97 0 -164 24q-69 24 -110 72q-42 48 -56 108t-4 144q5 39 19 98q12 51 26 96q27 91 29 97q13 52 18 96z" />
<glyph unicode="|" horiz-adv-x="507" d="M164 1585h196v-1929h-196v1929z" />
<glyph unicode="}" horiz-adv-x="712" d="M514 420q-4 -33 -4 -96q0 -64 2 -97q4 -66 4 -96q0 -51 -6 -100q-9 -78 -39 -142q-27 -57 -84 -108q-56 -49 -125 -72q-74 -24 -172 -24h-53l14 110q5 21 8 25q6 8 17 16q6 4 18 8t17 4h10q72 0 115 46q44 47 53 122q6 56 6 109v100v94q0 64 4 97q6 40 20 71q19 43 39 66 q29 32 56 49q36 22 71 33q-33 8 -63 31q-21 17 -43 49q-19 29 -25 63q-7 40 -2 74q5 38 19 94q12 46 24 96q3 11 11.5 46t13.5 55q16 69 20 108q9 83 -22 125q-33 45 -105 45h-8q-10 0 -16 2q-1 0 -17 11q-12 8 -14 14q-5 14 -2 25l14 112h54q92 0 165 -26q70 -25 109 -70 q40 -46 55 -111q15 -64 6 -141q-4 -35 -20 -100q-10 -39 -27 -97q-8 -27 -26 -96q-15 -61 -19 -96q-6 -61 17 -100t88 -39l-17 -148q-67 0 -100 -39q-35 -41 -41 -102z" />
<glyph unicode="~" horiz-adv-x="1146" d="M750 664q58 0 94 36q33 33 43 105h205q-8 -68 -39 -143q-27 -64 -74 -111q-46 -46 -107 -70q-62 -24 -133 -24q-56 0 -102 14q-56 17 -90 31q-73 30 -80 33q-35 14 -70 14q-57 0 -94 -37q-36 -36 -45 -104h-203q8 68 39 143q24 58 74 108q52 52 104 72q64 25 136 25 q53 0 102 -15q19 -6 50.5 -17.5t39.5 -14.5q16 -7 43 -17t37 -14q35 -14 70 -14z" />
<glyph unicode="&#xa1;" horiz-adv-x="520" d="M45 -344l68 547q16 124 30 182q3 11 50 190h169q4 -149 3 -190q-3 -91 -15 -182l-67 -547h-238zM160 913q3 31 20 62q12 22 37 47q20 20 53 33q30 12 64 12q32 0 59 -12q30 -13 45 -31q17 -20 27 -49q9 -27 6 -62q-3 -30 -20 -61q-14 -25 -39 -47q-24 -21 -54 -33 t-61 -12q-34 0 -61 12q-29 13 -46 33t-26 47q-7 22 -4 61z" />
<glyph unicode="&#xa2;" horiz-adv-x="989" d="M827 246l62 -90q-51 -51 -101 -84q-47 -31 -108 -54q-51 -16 -113 -26q-62 -8 -90 -8l-22 -119l-6 -29q-6 -24 -27 -45q-23 -20 -51 -20h-92l26 135l21 94q-18 6 -50 18q-82 37 -137 107q-60 76 -82 170q-23 99 -8 231q15 117 60 213q48 102 118 172q73 73 174 113 q71 29 146 37l20 96l15 66q7 28 24 45q18 18 51 18h95l-33 -147v-2l-17 -76q81 -9 244 -72l-39 -323h-8h-25h-86q-40 0 -43 39q0 24 3 147q-56 15 -84 18l-2 -6l-144 -688h8q61 0 99 14q39 15 67 33q42 28 49 33q20 14 43 14q31 0 43 -24zM307 377q8 -58 39 -111 q12 -18 29 -35l55 273l74 346h-4l-2 -2q-52 -24 -92 -70q-42 -48 -64 -108q-24 -64 -33 -146q-10 -91 -2 -147z" />
<glyph unicode="&#xa3;" horiz-adv-x="1294" d="M106 696q3 34 29 60q24 24 68 24h110l29 242q13 102 51 182q43 91 107 152q69 66 157 102q95 39 213 39q85 0 144 -20q63 -21 108 -58q53 -43 78 -84q36 -59 51 -106l-108 -64q-37 -16 -62 -16q-40 0 -63 33q-17 24 -33 43q-14 17 -37 30q-37 21 -45 23q-24 6 -59 6 q-102 0 -166 -70q-61 -67 -76 -190l-31 -244h420l-12 -100q-3 -21 -27 -45q-21 -21 -53 -21h-348l-25 -198q-9 -69 -39 -121q-27 -47 -81 -98q76 18 153 18h600l-12 -106q-3 -17 -14 -39q-10 -20 -25 -35q-14 -15 -39 -25q-23 -10 -45 -10h-983l20 160q43 10 70 22 q34 15 59 37q28 25 46 55t24 74l33 266h-197z" />
<glyph unicode="&#xa4;" horiz-adv-x="1130" d="M186 688q5 44 27 105q14 38 51 92l-137 155l143 123l133 -151q41 24 101 41q49 14 106 14q49 0 103 -14q36 -9 86 -39l174 155l110 -125l-172 -155q19 -40 29 -94q9 -47 2 -107q-4 -39 -27 -102q-15 -40 -49 -90l138 -156l-144 -127l-137 156q-44 -26 -98 -41 q-59 -17 -107 -17q-42 0 -100 15q-36 9 -86 39l-176 -156l-111 127l174 153q-22 46 -31 95q-8 46 -2 104zM373 688q-4 -30 6 -74q8 -32 33 -61q23 -26 57 -41q37 -16 72 -16q37 0 77 16q30 12 66 41q32 26 49 61q20 42 25 74q6 40 -6 78q-12 37 -33 61q-23 26 -57 41 q-39 17 -74 17q-34 0 -76 -17q-29 -12 -66 -41q-32 -26 -49 -61q-18 -38 -24 -78z" />
<glyph unicode="&#xa5;" horiz-adv-x="1263" d="M88 647h283l-305 834h208q38 0 58 -17q18 -16 28 -45l162 -499q20 -61 23 -84q1 -5 6 -34t6 -44q4 11 8.5 24t11 29t9.5 25q4 12 11 25t17 31t15 28l282 499q16 26 39 43q25 19 62 19h211l-510 -834h282l-18 -139h-326l-12 -98h326l-17 -140h-325l-35 -270h-252l33 270 h-328l16 140h328l12 98h-327z" />
<glyph unicode="&#xa6;" horiz-adv-x="512" d="M276 1585h197l-102 -829h-197zM141 483h197l-102 -827h-197z" />
<glyph unicode="&#xa7;" horiz-adv-x="1042" d="M934 1274q-14 -18 -25 -23q-16 -8 -28 -8q-19 0 -39 10q-5 3 -21.5 12t-25.5 13q-27 13 -60 22q-42 11 -82 11q-36 0 -78 -11q-34 -9 -57 -26q-24 -18 -39 -39q-14 -20 -18 -49q-3 -34 18 -58q21 -25 58 -45q48 -27 86 -43l98 -43q62 -30 98 -51q45 -26 82 -63 q33 -33 53 -84q19 -49 13 -109q-8 -77 -58 -149q-47 -68 -137 -109q47 -44 66 -88q22 -53 14 -119q-8 -70 -45 -139q-34 -63 -94 -111q-64 -51 -140 -73q-93 -27 -184 -27q-49 0 -104 10q-51 9 -97 27q-50 20 -84 41q-33 21 -63 51l70 96q10 15 30 27q17 10 39 10t43 -14 q36 -24 45 -29q29 -16 66 -28q41 -13 98 -13q82 0 135 35q54 36 60 96q6 38 -17 70q-19 28 -59 53t-88 43q-39 14 -101 39q-20 8 -55 26.5t-43 22.5q-47 23 -86 62q-37 37 -55 86q-18 51 -10 114q9 78 61 146q50 64 141 102q-45 42 -65 94q-21 56 -12 134q9 66 38 122 t89 103q58 45 133 69q80 25 174 25q112 0 192 -35q87 -38 137 -94zM342 741q-6 -41 20 -73q23 -29 72 -56q45 -25 101 -49q102 -44 112 -49q46 22 66 51q23 33 26 70q6 44 -20 76q-25 31 -68 55q-69 38 -98 49q-37 14 -109 49q-50 -24 -73 -53t-29 -70z" />
<glyph unicode="&#xa8;" horiz-adv-x="784" d="M344 1323q-3 -29 -18 -53q-18 -29 -37 -45q-18 -15 -49 -29q-22 -10 -56 -10q-31 0 -51 10q-24 12 -41 29q-15 15 -26 45q-8 22 -5 53q3 29 19 55q21 33 37 47q20 17 47 29t55 12q29 0 53 -12t41 -29q15 -15 27 -47q8 -20 4 -55zM727 1323q-3 -29 -18 -53 q-20 -32 -35 -45q-18 -15 -49 -29q-22 -10 -58 -10q-33 0 -53 10q-29 14 -41 29q-13 16 -24 45q-8 22 -5 53q3 29 19 55q20 32 35 45q22 19 49 31t55 12q29 0 53 -12q28 -14 43 -29q12 -12 25 -47q7 -20 4 -55z" />
<glyph unicode="&#xa9;" horiz-adv-x="1611" d="M1012 524q14 0 20 -4q13 -8 15 -12l73 -90q-68 -74 -159 -111q-95 -39 -209 -39q-103 0 -181 37q-79 37 -131 101q-49 61 -71 149q-21 86 -9 188q12 105 60 193q47 86 119 149q77 67 159 99q90 35 191 35q110 0 190 -39q75 -37 125 -99l-78 -90q-3 -5 -18 -16 q-11 -8 -29 -8q-13 0 -30 10q-4 2 -15.5 9.5t-19.5 12.5q-28 16 -51 23q-33 10 -84 10q-56 0 -111 -20q-56 -24 -90 -58q-38 -38 -62 -90q-20 -43 -30 -121q-9 -73 2 -122q12 -54 39 -91t67 -55t92 -18q53 0 84 8q46 12 58 18q22 11 43 25q14 9 41 16zM51 741q11 99 53 201 q39 95 99 180q63 88 137 154q77 68 168 119q83 46 188 75q99 27 205 27q105 0 197 -27q103 -30 172 -75q74 -48 139 -119q51 -59 98 -154q42 -85 56 -180q14 -94 2 -201q-12 -101 -52 -200q-41 -101 -98 -181q-61 -86 -137 -153q-71 -63 -168 -117q-94 -53 -190 -78 q-98 -26 -205 -26q-109 0 -197 26q-95 28 -172 78q-74 48 -137 117q-54 59 -100 153q-37 76 -54 181q-16 98 -4 200zM190 741q-16 -138 17 -249q35 -118 106 -201q74 -86 181 -135q109 -50 235 -50q129 0 250 50t215 135q96 87 156 201q66 125 80 249q10 77 -3 170 q-12 80 -43 154q-31 72 -79 129q-40 48 -115 98q-70 47 -139 66q-80 22 -164 22t-170 -22q-67 -17 -156 -66q-90 -53 -137 -98q-62 -58 -111 -129q-50 -71 -80 -154q-32 -87 -43 -170z" />
<glyph unicode="&#xaa;" horiz-adv-x="688" d="M588 860h-86q-21 0 -37 8q-13 7 -19 29l-8 37q-20 -16 -51 -35q-35 -22 -49 -27q-15 -5 -53 -14q-27 -6 -62 -6q-41 0 -76 12q-37 13 -57 33q-21 21 -31 55q-11 37 -6 74q2 26 27 70q20 36 67 63q50 29 123 47q82 20 187 23l2 24q6 56 -15 80q-20 23 -67 23q-26 0 -58 -8 q-18 -4 -43 -17q-24 -12 -34 -16q-15 -6 -37 -6q-20 0 -33 10q-6 5 -16 24l-25 58q63 52 135 76q71 24 152 24q56 0 100 -18q47 -20 72 -51q30 -39 41 -80q12 -46 6 -99zM295 977q37 0 72 14q29 12 65 43l10 84q-48 -2 -100 -10q-30 -4 -66 -18q-18 -9 -34 -25 q-9 -9 -13 -29q-3 -36 13 -47q18 -12 53 -12z" />
<glyph unicode="&#xab;" horiz-adv-x="862" d="M49 535l4 32l312 406l77 -39q24 -12 29 -25q6 -16 4 -30q-3 -22 -18 -43l-170 -242q-19 -29 -39 -43q12 -12 26 -43l113 -242q11 -25 8 -45q-3 -34 -45 -53l-88 -39zM385 535l4 32l313 406l78 -39q22 -11 27 -23q8 -20 6 -32q-3 -19 -20 -43l-170 -242q-19 -29 -39 -43 q16 -16 28 -43l111 -242q11 -25 8 -45q-3 -34 -45 -53l-88 -39z" />
<glyph unicode="&#xac;" horiz-adv-x="1044" d="M82 782h907l-59 -479h-213l35 291h-695z" />
<glyph unicode="&#xad;" horiz-adv-x="677" d="M86 725h530l-26 -213h-529z" />
<glyph unicode="&#xae;" horiz-adv-x="1611" d="M51 741q11 99 53 201q39 95 99 180q63 88 137 154q71 63 168 117q90 50 188 77q99 27 205 27q105 0 197 -27q97 -29 172 -77q79 -51 139 -117q49 -53 98 -154q42 -85 56 -180q14 -94 2 -201q-12 -101 -52 -200q-41 -101 -98 -181q-61 -86 -137 -153q-71 -63 -168 -117 q-94 -53 -190 -78q-98 -26 -205 -26q-109 0 -197 26q-95 28 -172 78q-74 48 -137 117q-54 59 -100 153q-37 76 -54 181q-16 98 -4 200zM190 739q-16 -137 17 -247q35 -118 106 -201q74 -86 181 -135q109 -50 235 -50q129 0 250 50t215 135q96 87 156 201q66 125 80 249 q10 77 -3 170q-12 80 -43 154q-31 72 -79 129q-40 48 -115 98q-65 44 -139 64q-80 22 -164 22t-170 -22q-74 -19 -156 -64q-90 -53 -137 -98q-62 -58 -111 -129q-50 -71 -80 -154q-31 -86 -43 -172zM678 616l-41 -333h-219l112 919h330q191 0 270 -67q81 -69 66 -197 q-12 -95 -66 -160q-59 -71 -159 -100q21 -12 35 -33q14 -25 24 -47l148 -315h-211q-47 0 -62 34l-112 269q-10 16 -21 22q-16 8 -39 8h-55zM696 774h92q55 0 86 8q41 11 58 25q21 18 31 45q12 31 14 57q3 31 0 56t-19 41q-17 17 -43 22q-40 8 -75 8h-111z" />
<glyph unicode="&#xaf;" horiz-adv-x="751" d="M84 1405h612l-20 -162h-613z" />
<glyph unicode="&#xb0;" horiz-adv-x="813" d="M51 1151q8 66 45 135q34 63 88 111q57 50 121 76q65 26 144 26q76 0 135 -26q56 -25 104 -76q47 -50 64 -111q18 -66 10 -135q-9 -74 -45 -135q-39 -68 -88 -111q-54 -49 -123 -76q-65 -26 -144 -26q-76 0 -135 26q-61 27 -104 76q-43 48 -60 111q-20 72 -12 135z M227 1147q-5 -34 4 -70q8 -31 31 -57q21 -24 53 -37q35 -14 68 -14q32 0 72 14q38 16 61 37q28 25 45 57q17 33 23 70t-4 74q-8 31 -31 57q-19 22 -53 39q-28 14 -68 14t-72 -14q-34 -15 -61 -39q-28 -25 -45 -57t-23 -74z" />
<glyph unicode="&#xb1;" horiz-adv-x="1185" d="M791 1270l-46 -361h400l-25 -188h-397l-43 -350h-205l43 350h-397l24 188h396l45 361h205zM66 270h999l-23 -188h-999z" />
<glyph unicode="&#xb2;" horiz-adv-x="698" d="M625 1137h4l-13 -109l-12 -94l-2 -12h-553l8 57q4 23 11 37q13 26 26 37l242 211q7 6 15 14t17.5 18t14.5 15q11 11 41 51q20 26 31 49q11 21 14 49q3 40 -12 60q-17 22 -54 22q-38 0 -57 -16q-20 -17 -39 -49q-11 -17 -28 -27t-37 -10q-2 0 -5.5 1t-5.5 1h-12l-100 16 q30 118 114 174q83 56 197 56q64 0 105 -17q49 -20 73 -47q27 -30 39 -70q12 -41 6 -88q-7 -47 -22 -77q-22 -42 -41 -66q-12 -15 -58 -61q-55 -55 -63 -62l-147 -133q17 5 57 14q18 4 51 4h92q2 7 3.5 17t2.5 12q7 23 31 23h51h15z" />
<glyph unicode="&#xb3;" horiz-adv-x="673" d="M408 1688q61 0 102 -17q43 -18 70 -45q32 -32 41 -61q13 -41 8 -74q-9 -62 -41 -109q-31 -45 -92 -69q60 -21 86 -58q24 -34 18 -98q-8 -58 -37 -108q-28 -47 -69 -76q-44 -30 -93 -45q-50 -15 -98 -15q-58 0 -98 11q-48 13 -74 34q-34 27 -53 64q-22 42 -33 96l82 33 q21 8 43 8q36 0 49 -29q2 -4 5 -12t5 -12q5 -11 19 -21q16 -12 26 -16q15 -6 37 -6q47 0 74 24q30 27 33 62q3 31 -2 47q-6 17 -21 29q-16 13 -43 16q-18 4 -71 4l14 119q36 0 72 8q25 6 45 19q18 12 26 28q10 21 13 39q6 38 -13 60t-57 22t-59 -16q-21 -15 -37 -45 q-9 -15 -27 -29q-13 -10 -33 -10q-16 0 -26 2l-93 16q15 58 46 103q32 46 69 71q52 35 86 43q54 13 101 13z" />
<glyph unicode="&#xb4;" horiz-adv-x="632" d="M582 1497l-287 -268q-20 -20 -41 -27q-24 -8 -47 -8h-152l176 248q19 28 41 41q24 14 64 14h246z" />
<glyph unicode="&#xb5;" horiz-adv-x="1169" d="M459 1051l-82 -668q-12 -96 26 -150q38 -53 127 -53q61 0 125 31q65 32 119 80l94 760h252l-129 -1051h-153q-51 0 -60 45l-6 86q-54 -43 -70 -53q-52 -32 -67 -37q-53 -18 -68 -21q-35 -6 -73 -6q-60 0 -109 19q-44 17 -80 53q7 -51 4 -94q-3 -57 -8 -90l-31 -246h-125 q-51 0 -77 29q-26 30 -21 77l158 1289h254z" />
<glyph unicode="&#xb6;" horiz-adv-x="1509" d="M1468 1481l-26 -211h-219l-183 -1483h-221l182 1483h-241l-180 -1483h-222l105 858q-110 0 -189 33q-77 32 -135 90q-53 53 -78 133q-23 74 -14 160q13 102 53 172q42 75 111 131q67 55 158 86t196 31h903z" />
<glyph unicode="&#xb7;" horiz-adv-x="507" d="M59 610q5 32 25 74q17 35 49 61q36 29 66 41q43 17 75 17q37 0 76 -17q32 -14 56 -41q23 -26 34 -61q12 -36 6 -74q-6 -40 -24 -75q-19 -36 -49 -60q-34 -28 -68 -41q-40 -16 -78 -16q-34 0 -71 16q-36 16 -58 41q-23 27 -32 60q-12 44 -7 75z" />
<glyph unicode="&#xb8;" horiz-adv-x="542" d="M127 -233h14q8 -4 17 -7q12 -4 20 -6h29q31 0 51 13q18 12 21 30q3 31 -31 43q-43 15 -111 23l64 151h157l-28 -71q90 -21 121 -60q32 -40 26 -92q-3 -31 -26 -61q-21 -27 -56 -45t-84 -31q-39 -10 -102 -10q-53 0 -78 4q-34 5 -70 18l33 78q9 23 33 23z" />
<glyph unicode="&#xb9;" horiz-adv-x="550" d="M66 1038h141l47 369l10 51l-86 -61q-19 -13 -37 -13q-12 0 -26 7q-15 7 -17 14l-45 78l262 196h152l-78 -641h117l-14 -116h-441z" />
<glyph unicode="&#xba;" horiz-adv-x="778" d="M430 1499q72 0 133 -22q55 -20 99 -64q41 -44 55 -102q16 -66 8 -133q-8 -71 -41 -138q-27 -56 -82 -104q-49 -43 -113 -64q-74 -24 -139 -24q-66 0 -133 24q-58 21 -98 64t-58 104q-16 54 -6 136q8 68 41 135q27 55 80 102q48 42 115 64q68 22 139 22zM369 995 q66 0 108 45q37 39 49 134q12 90 -16 135q-27 43 -96 43q-73 0 -113 -43q-37 -39 -49 -133q-12 -91 16 -136t101 -45z" />
<glyph unicode="&#xbb;" horiz-adv-x="862" d="M160 129l-78 39q-21 11 -27 25q-8 19 -6 30q3 21 19 43l172 242q20 29 36 43q-12 12 -26 43l-113 242q-9 21 -6 43q3 36 45 55l88 39l211 -406l-4 -32zM498 129l-80 39q-21 11 -27 25q-6 16 -4 30q3 21 19 43l169 242q16 24 39 43q-16 16 -28 43l-111 242q-11 25 -8 43 q3 36 45 55l88 39l213 -406l-4 -32z" />
<glyph unicode="&#xbc;" horiz-adv-x="1359" d="M287 74q-27 -40 -64 -58q-32 -16 -71 -16h-109l1026 1397q27 40 61 61q38 23 82 23h107zM1198 289h96l-10 -90q-4 -15 -12 -23q-12 -12 -27 -12h-61l-21 -164h-151l20 164h-297q-25 0 -37 12t-12 27l-6 78l401 477h174zM59 840h144l45 368l12 54l-88 -64q-18 -12 -35 -12 q-16 0 -28 6t-15 14l-47 78l262 199h154l-80 -643h119l-15 -117h-442zM1069 461q5 39 8 53q1 6 3.5 18t4.5 22t5 19l-242 -284h199z" />
<glyph unicode="&#xbd;" horiz-adv-x="1370" d="M1294 215h4l-12 -109l-12 -94l-2 -12h-553l6 59q3 16 12 35q12 25 27 37l240 211q16 14 49 47q11 11 41 51q16 22 30 49q12 23 15 50q3 38 -13 59q-17 23 -53 23q-37 0 -57 -17q-17 -12 -39 -49q-11 -16 -29 -27q-17 -10 -37 -10q-2 0 -5 1t-5 1h-12l-101 17 q30 117 115 174q82 55 197 55q65 0 104 -16q49 -20 74 -48q28 -31 39 -69q12 -41 6 -88q-6 -46 -23 -78q-24 -46 -40 -66q-12 -15 -58 -61q-48 -48 -63 -61l-148 -134q27 8 58 15q18 4 51 4h92q2 7 3.5 17t2.5 12q6 22 31 22h51h14zM285 74q-27 -40 -64 -58q-32 -16 -71 -16 h-109l1026 1399q25 37 61 59q38 23 82 23h107zM100 840h142l45 368l12 54l-86 -64q-18 -12 -37 -12q-14 0 -26 6q-15 7 -17 14l-47 78l264 199h152l-78 -643h117l-15 -117h-440z" />
<glyph unicode="&#xbe;" horiz-adv-x="1425" d="M352 74q-27 -39 -65 -58q-32 -16 -70 -16h-108l1026 1397q27 40 61 61q38 23 82 23h106zM1262 289h96l-12 -90q-3 -13 -13 -23q-12 -12 -26 -12h-62l-20 -164h-152l21 164h-295q-25 0 -37 12q-14 14 -14 27l-7 78l402 477h176zM406 1491q58 0 102 -18q41 -17 70 -46 q30 -30 40 -61q14 -43 9 -74q-8 -61 -41 -108q-32 -47 -92 -70q61 -22 86 -57q24 -34 18 -99q-8 -58 -37 -108q-28 -47 -69 -76q-44 -30 -93 -45q-46 -14 -98 -14q-62 0 -98 10q-46 13 -74 35q-35 28 -53 63q-21 41 -33 99l82 30q24 9 43 9q36 0 49 -29q2 -4 5 -12.5 t5 -12.5q5 -9 19 -20q19 -14 26 -17q15 -6 37 -6q46 0 74 25q30 27 33 61q3 31 -2 47q-6 17 -21 29q-11 9 -43 16q-22 5 -71 5l14 118q31 0 72 9q27 6 45 18q17 12 26 29q10 21 13 39q6 37 -13 59t-57 22t-60 -16q-20 -14 -36 -43q-11 -19 -27 -31q-13 -10 -33 -10 q-6 0 -26 4l-93 15q14 56 46 102q33 48 69 72q52 35 86 43q58 14 101 14zM1130 461q3 24 9 51q1 5 5 26t7 33l-242 -282h201z" />
<glyph unicode="&#xbf;" horiz-adv-x="860" d="M817 -209q-44 -33 -86 -57q-52 -30 -94 -47q-55 -22 -109 -33q-58 -12 -122 -12q-90 0 -160 24t-117 68q-50 46 -70 106q-20 58 -10 144q9 75 39 131q31 58 68 92q42 39 84 65q11 7 39 25t43 27q42 25 67 47q31 28 39 57l41 147h174l-4 -165v-11l-2 -10q-7 -51 -31 -78 q-35 -39 -63 -57q-59 -38 -78 -47q-36 -17 -80 -49q-35 -25 -63 -64q-29 -41 -35 -90q-3 -36 6 -65q7 -24 33 -50q21 -21 53 -32q37 -13 74 -13q46 0 100 15q36 10 72 28q2 1 51 29q24 14 37 14q36 0 49 -32zM446 913q3 34 19 62q16 29 39 49q25 22 53 33q30 12 64 12 q32 0 59 -12t45 -33q17 -20 27 -49q8 -24 4 -62q-3 -32 -19 -61q-10 -18 -39 -47q-20 -20 -53 -33q-30 -12 -61 -12q-35 0 -62 12t-45 33q-17 20 -26 47q-8 25 -5 61z" />
<glyph unicode="&#xc0;" d="M1608 158q37 -14 34 -54l-14 -104h-72h-159h-35h-19h-215l13 104q3 36 47 54q27 9 43 16l-4 23l-49 200h-590l-103 -211l-6 -12q12 -6 25 -11l14 -5q38 -17 35 -54l-14 -104h-213h-21h-33h-161h-72l12 104q3 36 47 54q4 1 119 47l657 1276h283l344 -1276q99 -44 107 -47z M907 1051l-225 -459h448l-110 459q-15 57 -19 77q-8 39 -18 97q-4 -10 -18 -44.5t-21 -52.5q-9 -24 -37 -77zM911 1835q7 0 19 -1t16 -1q15 0 27 -6q16 -8 20 -12q3 -3 9 -10t10 -11l178 -209h-201q-5 0 -13 1t-11 1q-15 0 -21 2q-8 3 -16 8q-18 12 -19 13l-278 225h280z " />
<glyph unicode="&#xc1;" d="M1608 158q37 -14 34 -54l-14 -104h-72h-159h-35h-19h-215l13 104q3 36 47 54q27 9 43 16l-4 23l-49 200h-590l-103 -211l-6 -12q12 -6 25 -11l14 -5q38 -17 35 -54l-14 -104h-213h-21h-33h-161h-72l12 104q3 36 47 54q4 1 119 47l657 1276h283l344 -1276q99 -44 107 -47z M907 1051l-225 -459h448l-110 459q-15 57 -19 77q-8 39 -18 97q-4 -10 -18 -44.5t-21 -52.5q-9 -24 -37 -77zM1452 1835l-330 -223l-12.5 -7.5t-9.5 -5.5q-3 -2 -21 -8q-12 -4 -22 -4q-4 0 -12 -1t-13 -1h-198l225 207q14 14 26 23q13 9 23 12q12 6 27 6q5 0 16 1t18 1h283z " />
<glyph unicode="&#xc2;" d="M1608 158q37 -14 34 -54l-14 -104h-72h-159h-35h-19h-215l13 104q3 36 47 54q27 9 43 16l-4 23l-49 200h-590l-103 -211l-6 -12q12 -6 25 -11l14 -5q38 -17 35 -54l-14 -104h-213h-21h-33h-161h-72l12 104q3 36 47 54q4 1 119 47l657 1276h283l344 -1276q99 -44 107 -47z M907 1051l-225 -459h448l-110 459q-15 57 -19 77q-8 39 -18 97q-4 -10 -18 -44.5t-21 -52.5q-9 -24 -37 -77zM1403 1585h-193q-8 0 -32 4q-19 3 -29 13l-94 69q-1 1 -4 2t-4 2t-3.5 4t-3.5 4l-6 -6q-2 -2 -10 -6l-113 -69q-14 -10 -30 -13q-24 -4 -35 -4h-191l275 225h252z " />
<glyph unicode="&#xc3;" d="M1608 158q37 -14 34 -54l-14 -104h-72h-159h-35h-19h-215l13 104q3 36 47 54q27 9 43 16l-4 23l-49 200h-590l-103 -211l-6 -12q12 -6 25 -11l14 -5q38 -17 35 -54l-14 -104h-213h-21h-33h-161h-72l12 104q3 36 47 54q4 1 119 47l657 1276h283l344 -1276q99 -44 107 -47z M907 1051l-225 -459h448l-110 459q-15 57 -19 77q-8 39 -18 97q-4 -10 -18 -44.5t-21 -52.5q-9 -24 -37 -77zM1174 1741q28 0 45 14q18 15 24 49h137q-6 -50 -24 -94q-15 -37 -47 -72q-21 -23 -66 -45q-37 -18 -84 -18q-35 0 -69 12q-12 4 -64 25q-35 14 -55 24 q-22 11 -47 11q-28 0 -45 -17q-20 -20 -25 -49h-139q6 48 24 92q18 43 49 74q28 28 68 47q33 16 82 16q41 0 70 -10q23 -8 63 -24q25 -10 55 -25q20 -10 48 -10z" />
<glyph unicode="&#xc4;" d="M1608 158q37 -14 34 -54l-14 -104h-72h-159h-35h-19h-215l13 104q3 36 47 54q27 9 43 16l-4 23l-49 200h-590l-103 -211l-6 -12q12 -6 25 -11l14 -5q38 -17 35 -54l-14 -104h-213h-21h-33h-161h-72l12 104q3 36 47 54q4 1 119 47l657 1276h283l344 -1276q99 -44 107 -47z M907 1051l-225 -459h448l-110 459q-15 57 -19 77q-8 39 -18 97q-4 -10 -18 -44.5t-21 -52.5q-9 -24 -37 -77zM958 1708q-4 -33 -16 -53q-15 -24 -37 -43q-24 -21 -49 -29q-30 -10 -55 -10q-26 0 -49 10t-39 29t-25 43q-7 20 -4 51q3 29 18 53q20 32 35 45q18 16 45 29 q24 12 54 12q27 0 51 -12q28 -14 43 -29q11 -11 24 -45q7 -20 4 -51zM1401 1706q-2 -22 -17 -51q-12 -24 -34 -43q-25 -22 -47 -29q-30 -10 -56 -10q-24 0 -51 10q-24 9 -41 29q-16 19 -25 43q-7 20 -4 51q3 27 19 53q20 32 35 45q20 17 47 29t55 12q27 0 51 -12 q29 -14 41 -29q17 -20 23 -45q7 -27 4 -53z" />
<glyph unicode="&#xc5;" d="M1608 158q37 -14 34 -54l-14 -104h-72h-159h-35h-19h-215l13 104q3 36 47 54q27 9 43 16l-4 23l-49 200h-590l-103 -211l-6 -12q12 -6 25 -11l14 -5q38 -17 35 -54l-14 -104h-213h-21h-33h-161h-72l12 104q3 36 47 54q4 1 119 47l657 1276h283l344 -1276q99 -44 107 -47z M907 1051l-225 -459h448l-110 459q-15 57 -19 77q-8 39 -18 97q-4 -10 -18 -44.5t-21 -52.5q-9 -24 -37 -77zM834 1724q5 37 28 78q20 36 53 62q33 27 72 41q38 14 82 14q45 0 80 -14q31 -12 63 -41q30 -26 41 -62q13 -39 7 -80q-5 -38 -27 -77q-20 -36 -55 -60 q-49 -34 -72 -41q-40 -12 -86 -12q-40 0 -78 12q-29 9 -61 41q-29 29 -39 60q-13 41 -8 79zM954 1722q-6 -39 17 -65q22 -25 65 -25q42 0 70 25q27 24 33 65q6 42 -17 68q-22 25 -63 25q-44 0 -72 -25q-27 -24 -33 -68z" />
<glyph unicode="&#xc6;" horiz-adv-x="2150" d="M1905 1130q0 60 2 132h-533l2 -410h506l-27 -213h-481v-418h406q22 99 30 131q12 39 52 39h86h24h8l-30 -248h-2l-19 -143h-811h-4h-151l14 121q6 51 59 63q1 0 4 0.5t8.5 1.5t10.5 2q4 1 22.5 5t32.5 6v166h-532l-113 -187q33 -15 49 -20q38 -17 35 -54l-14 -104h-234 h-16h-17h-192h-41l12 104q3 36 47 54q2 1 17.5 6.5t39.5 14.5t50 20l690 1093q-1 0 -5.5 1t-6.5 1t-7 1t-6 1q-49 12 -43 64l15 121h172h4h1093l-16 -144h2l-31 -245h-8h-24h-86q-40 0 -43 38zM700 559h414v717q-12 -31 -47 -98q-8 -16 -23 -43.5t-22 -40.5z" />
<glyph unicode="&#xc7;" horiz-adv-x="1390" d="M1141 332l94 -119q-106 -113 -242 -170q-110 -48 -260 -57l-16 -43q93 -22 121 -60q30 -40 24 -92q-3 -32 -24 -59q-22 -28 -58 -47q-46 -24 -82 -31q-52 -10 -102 -10q-40 0 -78 6q-43 7 -69 16l32 78q9 25 33 25q10 0 14 -2q8 -4 17 -7q3 -1 9.5 -2t10.5 -2q8 -2 29 -2 q32 0 51 13q18 12 21 30q3 31 -31 43q-49 16 -111 23l54 125q-106 11 -197 53q-130 57 -207 156q-78 101 -113 239q-34 134 -12 305q22 175 92 306q73 137 185 237q116 104 260 158q146 55 315 55q189 0 451 -106l-15 -131l-2 -17l-28 -229h-9h-26h-84q-40 0 -43 37 q0 73 2 163q-165 50 -277 50v-2q-111 0 -196 -35q-95 -39 -164 -105t-117 -164q-48 -97 -63 -219q-15 -126 8 -221q23 -96 76 -164q47 -61 131 -102q71 -35 170 -35q57 0 104 6q27 3 86 21q40 12 76 32q28 16 76 54q12 9 22 14q12 6 25 6q22 0 37 -18z" />
<glyph unicode="&#xc8;" horiz-adv-x="1347" d="M377 1481h934l-19 -144l-10 -75l-20 -170h-9h-24h-84q-40 0 -43 38q0 2 -0.5 23t-0.5 49t1 60h-475l-52 -410h502l-26 -213h-500l-53 -418h477q14 63 31 131q12 39 53 39h84h24h9l-21 -170l-10 -78l-17 -143h-933h-156l14 121q6 51 60 63q2 0 5.5 1t6.5 1t14.5 3t18.5 4 q6 1 26 4.5t35 5.5l131 1075q-12 2 -32 5.5t-27 4.5t-16.5 3.5t-12.5 2.5q-4 0 -8 1l-4 1q-49 12 -43 64l14 121h156zM756 1835q7 0 18.5 -1t16.5 -1q12 0 24 -6q18 -9 21 -12l20 -21l176 -209h-201q-5 0 -13 1t-11 1q-13 0 -19 2q-12 4 -18 8q-15 10 -18 13l-277 225h281z " />
<glyph unicode="&#xc9;" horiz-adv-x="1347" d="M377 1481h934l-19 -144l-10 -75l-20 -170h-9h-24h-84q-40 0 -43 38q0 2 -0.5 23t-0.5 49t1 60h-475l-52 -410h502l-26 -213h-500l-53 -418h477q14 63 31 131q12 39 53 39h84h24h9l-21 -170l-10 -78l-17 -143h-933h-156l14 121q6 51 60 63q2 0 5.5 1t6.5 1t14.5 3t18.5 4 q6 1 26 4.5t35 5.5l131 1075q-12 2 -32 5.5t-27 4.5t-16.5 3.5t-12.5 2.5q-4 0 -8 1l-4 1q-49 12 -43 64l14 121h156zM1294 1835l-329 -223q-5 -3 -13 -7.5t-10 -5.5q-4 -3 -20 -8q-12 -4 -21 -4q-4 0 -13 -1t-14 -1h-198l227 207q17 17 25 23q12 9 24 12q12 6 27 6 q5 0 16 1t19 1h280z" />
<glyph unicode="&#xca;" horiz-adv-x="1347" d="M377 1481h934l-19 -144l-10 -75l-20 -170h-9h-24h-84q-40 0 -43 38q0 2 -0.5 23t-0.5 49t1 60h-475l-52 -410h502l-26 -213h-500l-53 -418h477q14 63 31 131q12 39 53 39h84h24h9l-21 -170l-10 -78l-17 -143h-933h-156l14 121q6 51 60 63q2 0 5.5 1t6.5 1t14.5 3t18.5 4 q6 1 26 4.5t35 5.5l131 1075q-12 2 -32 5.5t-27 4.5t-16.5 3.5t-12.5 2.5q-4 0 -8 1l-4 1q-49 12 -43 64l14 121h156zM1245 1585h-192q-9 0 -33 4q-19 3 -29 13l-94 69q-1 1 -4 2t-4 2t-3 4t-3 4l-6 -6q-1 -1 -11 -6l-112 -69q-13 -10 -31 -13q-24 -4 -35 -4h-190l274 225 h252z" />
<glyph unicode="&#xcb;" horiz-adv-x="1347" d="M377 1481h934l-19 -144l-10 -75l-20 -170h-9h-24h-84q-40 0 -43 38q0 2 -0.5 23t-0.5 49t1 60h-475l-52 -410h502l-26 -213h-500l-53 -418h477q14 63 31 131q12 39 53 39h84h24h9l-21 -170l-10 -78l-17 -143h-933h-156l14 121q6 51 60 63q2 0 5.5 1t6.5 1t14.5 3t18.5 4 q6 1 26 4.5t35 5.5l131 1075q-12 2 -32 5.5t-27 4.5t-16.5 3.5t-12.5 2.5q-4 0 -8 1l-4 1q-49 12 -43 64l14 121h156zM803 1708q-3 -27 -19 -53t-36 -43q-25 -21 -48 -29q-30 -10 -55 -10q-28 0 -51 10t-39 29q-13 15 -23 43q-7 20 -4 51t17 53q20 32 35 45q18 16 45 29 q24 12 53 12t53 -12t41 -29q13 -13 25 -45q9 -24 6 -51zM1245 1706q-2 -19 -18 -51q-11 -23 -35 -43q-25 -22 -47 -29q-30 -10 -53 -10q-27 0 -54 10q-22 8 -39 29q-14 17 -24 43q-7 20 -4 51q4 33 16 53q20 32 35 45q20 17 47 29t55 12t52 -12q29 -14 41 -29q15 -18 22 -45 q8 -33 6 -53z" />
<glyph unicode="&#xcc;" horiz-adv-x="845" d="M733 1296q-2 0 -5.5 -1t-6.5 -1t-13.5 -2.5t-17.5 -3.5l-27 -4.5t-36 -5.5l-131 -1075q12 -2 32 -5.5t27 -4.5t16.5 -4t12.5 -3q4 0 9 -1l5 -1q49 -12 43 -63l-16 -121h-154h-276h-156l14 121q6 51 60 63q1 0 5 1t7 1t14.5 3t18.5 4q6 1 26 4.5t35 5.5l131 1075 q-12 2 -32 5.5t-27 4.5t-16.5 3.5t-12.5 2.5q-6 2 -12 2q-49 12 -43 64l14 121h156h276h154l-14 -121q-6 -52 -60 -64zM416 1835q7 0 18.5 -1t16.5 -1q12 0 24 -6q18 -9 21 -12l20 -21l176 -209h-198q-6 0 -14 1t-11 1q-14 0 -20 2q-10 3 -17 8q-2 1 -6 3.5t-7.5 4.5t-6.5 5 l-277 225h281z" />
<glyph unicode="&#xcd;" horiz-adv-x="991" d="M733 1296q-2 0 -5.5 -1t-6.5 -1t-13.5 -2.5t-17.5 -3.5l-27 -4.5t-36 -5.5l-131 -1075q12 -2 32 -5.5t27 -4.5t16.5 -4t12.5 -3q4 0 9 -1l5 -1q49 -12 43 -63l-16 -121h-154h-276h-156l14 121q6 51 60 63q1 0 5 1t7 1t14.5 3t18.5 4q6 1 26 4.5t35 5.5l131 1075 q-12 2 -32 5.5t-27 4.5t-16.5 3.5t-12.5 2.5q-6 2 -12 2q-49 12 -43 64l14 121h156h276h154l-14 -121q-6 -52 -60 -64zM956 1835l-331 -223q-5 -3 -13 -7.5t-10 -5.5q-4 -3 -20 -8q-12 -4 -21 -4q-4 0 -11.5 -1t-12.5 -1h-199l225 209q3 3 27 21q13 10 22 12q12 6 27 6 q5 0 16 1t19 1h282z" />
<glyph unicode="&#xce;" horiz-adv-x="940" d="M733 1296q-2 0 -5.5 -1t-6.5 -1t-13.5 -2.5t-17.5 -3.5l-27 -4.5t-36 -5.5l-131 -1075q12 -2 32 -5.5t27 -4.5t16.5 -4t12.5 -3q4 0 9 -1l5 -1q49 -12 43 -63l-16 -121h-154h-276h-156l14 121q6 51 60 63q1 0 5 1t7 1t14.5 3t18.5 4q6 1 26 4.5t35 5.5l131 1075 q-12 2 -32 5.5t-27 4.5t-16.5 3.5t-12.5 2.5q-6 2 -12 2q-49 12 -43 64l14 121h156h276h154l-14 -121q-6 -52 -60 -64zM905 1585h-192q-9 0 -33 4q-19 3 -29 13l-94 69q-1 1 -4 2t-4 2t-3 4t-3 4l-6 -6q-1 -1 -11 -6l-112 -69q-13 -10 -31 -13q-24 -4 -35 -4h-190l274 225 h252z" />
<glyph unicode="&#xcf;" horiz-adv-x="940" d="M733 1296q-2 0 -5.5 -1t-6.5 -1t-13.5 -2.5t-17.5 -3.5l-27 -4.5t-36 -5.5l-131 -1075q12 -2 32 -5.5t27 -4.5t16.5 -4t12.5 -3q4 0 9 -1l5 -1q49 -12 43 -63l-16 -121h-154h-276h-156l14 121q6 51 60 63q1 0 5 1t7 1t14.5 3t18.5 4q6 1 26 4.5t35 5.5l131 1075 q-12 2 -32 5.5t-27 4.5t-16.5 3.5t-12.5 2.5q-6 2 -12 2q-49 12 -43 64l14 121h156h276h154l-14 -121q-6 -52 -60 -64zM463 1708q-3 -27 -19 -53t-36 -43q-25 -21 -48 -29q-30 -10 -55 -10q-28 0 -51 10t-39 29q-11 13 -22 43q-8 22 -5 53q3 29 17 51q20 32 35 45 q18 16 45 29q24 12 53 12t53 -12t41 -29q13 -13 25 -45q9 -24 6 -51zM905 1706q-2 -19 -18 -51q-11 -23 -35 -43q-25 -22 -47 -29q-30 -10 -53 -10q-27 0 -54 10q-22 8 -39 29q-14 17 -24 43q-7 20 -4 51q4 33 16 53q20 32 35 45q20 17 47 29t55 12t52 -12q29 -14 41 -29 q15 -18 22 -45q8 -33 6 -53z" />
<glyph unicode="&#xd0;" horiz-adv-x="1626" d="M1561 1040q37 -134 16 -299q-22 -168 -90 -299q-71 -136 -182 -235q-107 -95 -254 -152q-143 -55 -314 -55h-542h-156l14 121q6 51 60 63q7 1 13 2t31 5.5t62 11.5l57 465h-184l19 155h184l55 455q-90 17 -100 18q-49 12 -43 64l14 121h156h543q166 0 299 -56 q136 -57 217 -151q88 -102 125 -234zM1237 522q43 87 59 219q15 123 -6 217q-22 98 -73 164q-53 68 -134 105q-77 35 -190 35h-266l-54 -439h369l-18 -155h-371l-55 -449h266q109 0 199 37q97 40 159 102q68 68 115 164z" />
<glyph unicode="&#xd1;" horiz-adv-x="1818" d="M1626 1481h154l-15 -121q-6 -52 -59 -64q-2 0 -5.5 -1t-6.5 -1t-13.5 -2.5t-17.5 -3.5q-6 -1 -28 -4.5t-36 -5.5l-155 -1278h-144q-30 0 -53 10q-17 7 -37 37l-653 985q0 -43 -2 -63l-6 -60l-88 -706l68 -10t47.5 -7t15.5 -2q51 -12 45 -63l-16 -121h-185h-241h-156 l14 121q6 51 60 63q6 0 12 2q12 4 33 7q6 1 26 4.5t35 5.5l131 1075q-12 2 -32 5.5t-27 4.5t-16.5 3.5t-12.5 2.5q-4 0 -8 1l-4 1q-49 12 -43 64l14 121h156h143q6 0 17 -1t14 -1q11 0 20 -6q9 -3 19 -13q4 -4 16 -24l658 -990q0 47 2 70q4 46 6 66l86 696q-126 18 -131 18 q-49 12 -43 64l14 121h184h244zM1176 1741q28 0 45 14q18 15 24 49h137q-6 -50 -24 -94q-15 -37 -47 -72q-21 -23 -66 -45q-37 -18 -84 -18q-35 0 -69 12q-12 4 -64 25q-35 14 -55 24q-22 11 -47 11q-28 0 -45 -17q-20 -20 -25 -49h-139q6 48 24 92q19 46 47 74t68 47 q33 16 84 16q41 0 70 -10q23 -8 63 -24q25 -10 55 -25q20 -10 48 -10z" />
<glyph unicode="&#xd2;" horiz-adv-x="1597" d="M1548 741q-22 -169 -90 -303q-69 -135 -182 -239q-111 -102 -256 -158q-148 -57 -313 -57q-163 0 -299 57q-135 57 -220 158q-84 101 -122 239q-39 145 -19 303q21 162 92 301q69 135 183 240q110 101 258 158t313 57q170 0 299 -57q135 -60 217 -158q85 -102 123 -240 q37 -137 16 -301zM1266 741q15 126 -4 217q-21 97 -74 166q-51 66 -133 103q-81 37 -191 37t-200 -37q-92 -38 -160 -103q-67 -64 -115 -166q-44 -94 -59 -217q-15 -121 6 -219q20 -95 74 -164q51 -66 135 -104q77 -35 190 -35q116 0 201 35q92 38 158 104q75 75 114 164 q43 99 58 219zM788 1835q8 0 19.5 -1t15.5 -1q15 0 27 -6q16 -8 20 -12l21 -21l176 -207h-201h-24q-15 0 -21 2q-8 3 -16 8q-12 8 -19 15l-278 223h280z" />
<glyph unicode="&#xd3;" horiz-adv-x="1597" d="M1548 741q-22 -169 -90 -303q-69 -135 -182 -239q-111 -102 -256 -158q-148 -57 -313 -57q-163 0 -299 57q-135 57 -220 158q-84 101 -122 239q-39 145 -19 303q21 162 92 301q69 135 183 240q110 101 258 158t313 57q170 0 299 -57q135 -60 217 -158q85 -102 123 -240 q37 -137 16 -301zM1266 741q15 126 -4 217q-21 97 -74 166q-51 66 -133 103q-81 37 -191 37t-200 -37q-92 -38 -160 -103q-67 -64 -115 -166q-44 -94 -59 -217q-15 -121 6 -219q20 -95 74 -164q51 -66 135 -104q77 -35 190 -35q116 0 201 35q92 38 158 104q75 75 114 164 q43 99 58 219zM1329 1835l-330 -221q-4 -3 -22 -15q-3 -2 -21 -8q-12 -4 -22 -4q-4 0 -12 -1t-13 -1h-198l227 209q9 9 25 21q12 9 24 12q12 6 25 6q4 0 16 1t19 1h282z" />
<glyph unicode="&#xd4;" horiz-adv-x="1597" d="M1548 741q-22 -169 -90 -303q-69 -135 -182 -239q-111 -102 -256 -158q-148 -57 -313 -57q-163 0 -299 57q-135 57 -220 158q-84 101 -122 239q-39 145 -19 303q21 162 92 301q69 135 183 240q110 101 258 158t313 57q170 0 299 -57q135 -60 217 -158q85 -102 123 -240 q37 -137 16 -301zM1266 741q15 126 -4 217q-21 97 -74 166q-51 66 -133 103q-81 37 -191 37t-200 -37q-92 -38 -160 -103q-67 -64 -115 -166q-44 -94 -59 -217q-15 -121 6 -219q20 -95 74 -164q51 -66 135 -104q77 -35 190 -35q116 0 201 35q92 38 158 104q75 75 114 164 q43 99 58 219zM1280 1587h-193q-8 0 -32 4q-19 3 -29 13l-94 67q-1 1 -4 3t-4 3l-6 6l-7 -6q-2 -2 -10 -6l-113 -67q-14 -10 -30 -13q-24 -4 -35 -4h-191l275 223h252z" />
<glyph unicode="&#xd5;" horiz-adv-x="1597" d="M1548 741q-22 -169 -90 -303q-69 -135 -182 -239q-111 -102 -256 -158q-148 -57 -313 -57q-163 0 -299 57q-135 57 -220 158q-84 101 -122 239q-39 145 -19 303q21 162 92 301q69 135 183 240q110 101 258 158t313 57q170 0 299 -57q135 -60 217 -158q85 -102 123 -240 q37 -137 16 -301zM1266 741q15 126 -4 217q-21 97 -74 166q-51 66 -133 103q-81 37 -191 37t-200 -37q-92 -38 -160 -103q-67 -64 -115 -166q-44 -94 -59 -217q-15 -121 6 -219q20 -95 74 -164q51 -66 135 -104q77 -35 190 -35q116 0 201 35q92 38 158 104q75 75 114 164 q43 99 58 219zM1051 1741q30 0 47 14q16 13 22 49h137q-5 -47 -24 -92q-17 -40 -47 -74q-21 -23 -66 -45q-33 -16 -84 -16q-40 0 -69 10q-11 4 -64 25q-35 14 -55 24q-22 11 -47 11q-28 0 -45 -17q-20 -20 -25 -49h-139q6 48 24 92q17 41 50 74q29 29 67 47q37 18 82 18 q35 0 70 -12q23 -8 63 -24q30 -12 56 -25q20 -10 47 -10z" />
<glyph unicode="&#xd6;" horiz-adv-x="1597" d="M1548 741q-22 -169 -90 -303q-69 -135 -182 -239q-111 -102 -256 -158q-148 -57 -313 -57q-163 0 -299 57q-135 57 -220 158q-84 101 -122 239q-39 145 -19 303q21 162 92 301q69 135 183 240q110 101 258 158t313 57q170 0 299 -57q135 -60 217 -158q85 -102 123 -240 q37 -137 16 -301zM1266 741q15 126 -4 217q-21 97 -74 166q-51 66 -133 103q-81 37 -191 37t-200 -37q-92 -38 -160 -103q-67 -64 -115 -166q-44 -94 -59 -217q-15 -121 6 -219q20 -95 74 -164q51 -66 135 -104q77 -35 190 -35q116 0 201 35q92 38 158 104q75 75 114 164 q43 99 58 219zM836 1708q-3 -31 -17 -53q-15 -24 -37 -43q-24 -21 -49 -29q-30 -10 -55 -10q-26 0 -49 10t-39 29t-25 43q-8 20 -4 53q3 25 19 51q21 34 34 45q24 20 45 31q20 10 54 10q31 0 51 -10q24 -12 43 -31q11 -11 24 -45q8 -22 5 -51zM1278 1708q-3 -27 -16 -53 q-11 -23 -35 -43q-25 -22 -47 -29q-30 -10 -56 -10q-24 0 -51 10q-24 9 -41 29q-14 17 -24 43q-8 20 -4 53q3 27 18 51q20 32 35 45q20 17 47 29t55 12q27 0 51 -12q29 -14 41 -29q17 -20 23 -45q7 -27 4 -51z" />
<glyph unicode="&#xd7;" horiz-adv-x="1103" d="M1069 1020l-375 -332l307 -348l-149 -133l-305 346l-393 -348l-117 131l391 352l-293 334l150 133l293 -336l372 334z" />
<glyph unicode="&#xd8;" horiz-adv-x="1687" d="M1593 741q-21 -164 -92 -303q-69 -135 -182 -239q-111 -102 -256 -158q-148 -57 -313 -57q-107 0 -191 20t-164 64l-92 -109q-36 -43 -78 -57q-49 -17 -82 -17h-108l233 275q-103 100 -151 252q-46 145 -25 327q22 169 90 303q69 135 183 240q110 101 258 158t313 57 q103 0 209 -27q101 -26 174 -73l70 84q10 12 28 30q19 19 27 23q8 6 29 10q20 4 38 4h142l-213 -252q92 -99 133 -243q41 -143 20 -312zM373 739q-15 -115 4 -211q18 -92 67 -159l705 829q-98 64 -242 64q-115 0 -200 -35q-88 -36 -160 -105q-69 -66 -115 -164 q-44 -93 -59 -219zM1311 741q11 97 -2 191q-11 81 -52 151l-694 -817q92 -47 215 -47q116 0 201 35q95 39 160 104q71 71 112 164q46 105 60 219z" />
<glyph unicode="&#xd9;" horiz-adv-x="1630" d="M1438 1481h155l-14 -121q-6 -52 -59 -64q-2 0 -6 -1t-7 -1t-14 -2.5t-18 -3.5q-6 -1 -26.5 -4.5t-35.5 -5.5l-84 -684q-15 -129 -72 -244q-53 -107 -147 -194q-90 -81 -209 -127q-116 -45 -260 -45q-147 0 -252 45q-103 44 -176 127q-71 83 -98 194q-28 114 -13 244 l84 684q-12 2 -32 5.5t-27 4.5t-17.5 3.5t-13.5 2.5q-4 0 -8 1l-4 1q-49 12 -43 64l14 121h156h274h164l-14 -121q-6 -52 -60 -64q-2 0 -6.5 -1t-7.5 -1t-16 -2.5t-21 -3.5t-29 -4.5t-34 -5.5l-84 -682q-10 -92 4 -154q16 -72 51 -118q34 -44 98 -74q58 -27 140 -27 q78 0 145 27q72 29 117 74q51 51 80 116q35 79 43 154l84 684q-9 1 -22.5 3.5t-23 4t-16.5 2.5q-8 1 -20 3.5t-15 2.5q-4 0 -9 1l-5 1q-51 12 -45 64l16 121h164h275zM723 1833h33q14 0 26 -6t21 -15l20 -20l176 -207h-200q-6 0 -14.5 1t-10.5 1q-14 0 -20 2q-10 3 -17 8 q-15 10 -18 13l-277 223h281z" />
<glyph unicode="&#xda;" horiz-adv-x="1630" d="M1438 1481h155l-14 -121q-6 -52 -59 -64q-2 0 -6 -1t-7 -1t-14 -2.5t-18 -3.5q-6 -1 -26.5 -4.5t-35.5 -5.5l-84 -684q-15 -129 -72 -244q-53 -107 -147 -194q-90 -81 -209 -127q-116 -45 -260 -45q-147 0 -252 45q-103 44 -176 127q-71 83 -98 194q-28 114 -13 244 l84 684q-12 2 -32 5.5t-27 4.5t-17.5 3.5t-13.5 2.5q-4 0 -8 1l-4 1q-49 12 -43 64l14 121h156h274h164l-14 -121q-6 -52 -60 -64q-2 0 -6.5 -1t-7.5 -1t-16 -2.5t-21 -3.5t-29 -4.5t-34 -5.5l-84 -682q-10 -92 4 -154q16 -72 51 -118q34 -44 98 -74q58 -27 140 -27 q78 0 145 27q72 29 117 74q51 51 80 116q35 79 43 154l84 684q-9 1 -22.5 3.5t-23 4t-16.5 2.5q-8 1 -20 3.5t-15 2.5q-4 0 -9 1l-5 1q-51 12 -45 64l16 121h164h275zM1262 1833l-330 -221q-4 -3 -12.5 -7.5t-10.5 -5.5q-4 -3 -20 -8q-12 -4 -23 -4q-4 0 -11.5 -1t-12.5 -1 h-199l227 207q5 5 25 20q17 13 25 15q12 6 24 6h37h281z" />
<glyph unicode="&#xdb;" horiz-adv-x="1630" d="M1438 1481h155l-14 -121q-6 -52 -59 -64q-2 0 -6 -1t-7 -1t-14 -2.5t-18 -3.5q-6 -1 -26.5 -4.5t-35.5 -5.5l-84 -684q-15 -129 -72 -244q-53 -107 -147 -194q-90 -81 -209 -127q-116 -45 -260 -45q-147 0 -252 45q-103 44 -176 127q-71 83 -98 194q-28 114 -13 244 l84 684q-12 2 -32 5.5t-27 4.5t-17.5 3.5t-13.5 2.5q-4 0 -8 1l-4 1q-49 12 -43 64l14 121h156h274h164l-14 -121q-6 -52 -60 -64q-2 0 -6.5 -1t-7.5 -1t-16 -2.5t-21 -3.5t-29 -4.5t-34 -5.5l-84 -682q-10 -92 4 -154q16 -72 51 -118q34 -44 98 -74q58 -27 140 -27 q78 0 145 27q72 29 117 74q51 51 80 116q35 79 43 154l84 684q-9 1 -22.5 3.5t-23 4t-16.5 2.5q-8 1 -20 3.5t-15 2.5q-4 0 -9 1l-5 1q-51 12 -45 64l16 121h164h275zM1210 1585h-190q-11 0 -35 4q-17 3 -27 13l-96 69q-1 1 -3 2t-3 2t-4 3t-4 3q-1 -1 -3 -2t-3 -2t-11 -6 l-110 -69q-13 -10 -33 -13q-24 -4 -33 -4h-192l276 225h252z" />
<glyph unicode="&#xdc;" horiz-adv-x="1630" d="M1438 1481h155l-14 -121q-6 -52 -59 -64q-2 0 -6 -1t-7 -1t-14 -2.5t-18 -3.5q-6 -1 -26.5 -4.5t-35.5 -5.5l-84 -684q-15 -129 -72 -244q-53 -107 -147 -194q-90 -81 -209 -127q-116 -45 -260 -45q-147 0 -252 45q-103 44 -176 127q-71 83 -98 194q-28 114 -13 244 l84 684q-12 2 -32 5.5t-27 4.5t-17.5 3.5t-13.5 2.5q-4 0 -8 1l-4 1q-49 12 -43 64l14 121h156h274h164l-14 -121q-6 -52 -60 -64q-2 0 -6.5 -1t-7.5 -1t-16 -2.5t-21 -3.5t-29 -4.5t-34 -5.5l-84 -682q-10 -92 4 -154q16 -72 51 -118q34 -44 98 -74q58 -27 140 -27 q78 0 145 27q72 29 117 74q51 51 80 116q35 79 43 154l84 684q-9 1 -22.5 3.5t-23 4t-16.5 2.5q-8 1 -20 3.5t-15 2.5q-4 0 -9 1l-5 1q-51 12 -45 64l16 121h164h275zM768 1706q-3 -27 -18 -51q-18 -28 -35 -43q-24 -21 -49 -29q-30 -10 -56 -10t-49 10t-39 29 q-14 17 -24 43q-7 20 -4 51q4 33 16 53q20 32 35 45t47 29q24 12 51 12q29 0 53 -12t41 -29q16 -16 27 -45q8 -20 4 -53zM1210 1706q-3 -24 -16 -51q-11 -23 -35 -43q-25 -22 -47 -29q-30 -10 -55 -10q-24 0 -51 10q-24 9 -41 29q-16 19 -25 43q-7 20 -4 51q4 33 16 53 q20 32 35 45q18 15 49 29q27 12 54 12q29 0 53 -12q25 -13 39 -29q18 -22 24 -45q7 -27 4 -53z" />
<glyph unicode="&#xdd;" horiz-adv-x="1517" d="M1446 1481h33l-15 -121q-6 -52 -59 -64q-2 0 -5.5 -1t-6.5 -1t-13.5 -2.5t-17.5 -3.5q-6 -1 -28 -4.5t-36 -5.5l-503 -703l-45 -372q12 -2 32 -5.5t27 -4.5t16.5 -4t12.5 -3q4 0 9 -1l5 -1q49 -12 43 -63l-16 -121h-154h-276h-154l14 121q6 51 60 63q6 0 12 2q13 4 31 7 l27 4.5t36 5.5l45 372l-332 703q-12 2 -32 5.5t-27 4.5t-17.5 3.5t-13.5 2.5q-6 2 -12 2q-49 12 -43 64l14 121h35h37h84h121h276l-14 -121q-6 -52 -59 -64q-1 0 -5 -1t-6 -1q-6 -3 -18 -6q-5 -1 -16.5 -3.5t-14.5 -2.5l152 -358q20 -49 30 -82q23 -76 23 -78 q7 16 22.5 44.5t18.5 33.5q10 19 49 82l240 358q-25 5 -29 6l-10.5 3.5t-9.5 2.5q-4 2 -9 2q-49 12 -43 64l15 121h276h121h86h37zM1208 1833l-329 -221q-4 -3 -13.5 -7t-11.5 -6q-6 -4 -18 -8t-23 -4q-4 0 -12 -1t-13 -1h-198l225 207q4 4 8.5 7.5t10 7t8.5 5.5 q19 14 22 15q12 6 27 6h35h282z" />
<glyph unicode="&#xde;" horiz-adv-x="1232" d="M346 266l-33 -266h-276l182 1481h277l-31 -254h207q145 0 252 -35q100 -33 168 -98q61 -58 86 -148q23 -81 10 -192q-11 -100 -62 -197q-48 -92 -125 -154q-74 -60 -192 -100q-110 -37 -256 -37h-207zM373 483h207q73 0 135 19q61 19 98 53q44 41 66 86q26 54 32 113 q7 64 -4 108q-12 49 -45 82t-88 51q-59 19 -129 19h-207z" />
<glyph unicode="&#xdf;" horiz-adv-x="1200" d="M760 1507q116 0 201 -37q81 -35 126 -86q47 -53 64 -112q16 -56 10 -113q-6 -54 -31 -100q-24 -44 -59 -74q-39 -34 -72 -55q-57 -36 -71 -45q-36 -22 -56 -45q-23 -27 -26 -54q-3 -33 18 -57q19 -22 58 -49q16 -11 77 -49q31 -19 74 -66q36 -39 53 -92q18 -55 9 -133 q-9 -82 -52 -154q-38 -63 -100 -110q-61 -46 -137 -70q-70 -22 -158 -22q-40 0 -92 10q-49 9 -86 26q-42 19 -74 41q-36 25 -63 52l71 96q11 16 29 27q17 10 41 10q20 0 43 -15q27 -18 43 -28q31 -19 55 -29q35 -14 78 -14q61 0 109 39q45 36 51 100q6 52 -16 80 q-26 33 -64 57q-54 34 -82 49q-39 20 -84 56q-38 30 -59 77q-22 49 -13 119q6 55 33 99q23 38 64 75q42 39 78 60q8 5 75 53q35 25 62 59q25 31 31 76q3 37 -5 64q-9 30 -30 51q-26 26 -62 37q-41 12 -96 12q-134 0 -213 -82q-80 -83 -98 -242l-123 -999h-254l125 1008 q12 110 61 200q45 84 127 156q76 67 180 104q109 39 230 39z" />
<glyph unicode="&#xe0;" horiz-adv-x="1060" d="M975 186q51 -12 45 -63l-16 -121h-127v0h-134q-47 0 -65 21q-19 22 -19 55l9 143q-74 -113 -156 -172q-84 -63 -193 -63q-57 0 -110 24t-90 70q-38 44 -60 117q-22 74 -22 163q0 96 24 185q27 99 66 168q48 84 104 143q63 66 140 113q85 52 164 73q92 25 186 25 q65 0 143 -10q70 -9 140 -37l-103 -821l2 2q13 -2 29.5 -6t21.5 -5l10 -2l7.5 -1.5t3.5 -0.5zM698 567l39 318q-36 4 -51 4q-87 0 -158 -39q-72 -40 -125 -105q-57 -73 -84 -153q-28 -80 -28 -186q0 -112 33 -162q34 -51 96 -51q40 0 82 28q36 24 76 80q37 52 67 119 q35 79 53 147zM569 1497q41 0 62 -14q19 -13 31 -39l114 -250h-143q-23 0 -47 8q-19 10 -33 29l-219 266h235z" />
<glyph unicode="&#xe1;" horiz-adv-x="1060" d="M975 186q51 -12 45 -63l-16 -121h-127v0h-134q-47 0 -65 21q-19 22 -19 55l9 143q-74 -113 -156 -172q-84 -63 -193 -63q-57 0 -110 24t-90 70q-38 44 -60 117q-22 74 -22 163q0 96 24 185q27 99 66 168q48 84 104 143q63 66 140 113q85 52 164 73q92 25 186 25 q65 0 143 -10q70 -9 140 -37l-103 -821l2 2q13 -2 29.5 -6t21.5 -5l10 -2l7.5 -1.5t3.5 -0.5zM698 567l39 318q-36 4 -51 4q-87 0 -158 -39q-72 -40 -125 -105q-57 -73 -84 -153q-28 -80 -28 -186q0 -112 33 -162q34 -51 96 -51q40 0 82 28q36 24 76 80q37 52 67 119 q35 79 53 147zM1016 1497l-287 -266q-23 -23 -41 -29q-24 -8 -47 -8h-152l177 250q17 25 41 39q25 14 63 14h246z" />
<glyph unicode="&#xe2;" horiz-adv-x="1060" d="M975 186q51 -12 45 -63l-16 -121h-127v0h-134q-47 0 -65 21q-19 22 -19 55l9 143q-74 -113 -156 -172q-84 -63 -193 -63q-57 0 -110 24t-90 70q-38 44 -60 117q-22 74 -22 163q0 96 24 185q27 99 66 168q48 84 104 143q63 66 140 113q85 52 164 73q92 25 186 25 q65 0 143 -10q70 -9 140 -37l-103 -821l2 2q13 -2 29.5 -6t21.5 -5l10 -2l7.5 -1.5t3.5 -0.5zM698 567l39 318q-36 4 -51 4q-87 0 -158 -39q-72 -40 -125 -105q-57 -73 -84 -153q-28 -80 -28 -186q0 -112 33 -162q34 -51 96 -51q40 0 82 28q36 24 76 80q37 52 67 119 q35 79 53 147zM977 1196h-168q-31 0 -49 18l-96 99q-1 2 -9 10t-10 12l-12 -12q-2 -2 -6 -5t-6 -5l-121 -99q-8 -5 -25 -12q-15 -6 -29 -6h-176l271 285h237z" />
<glyph unicode="&#xe3;" horiz-adv-x="1060" d="M975 186q51 -12 45 -63l-16 -121h-127v0h-134q-47 0 -65 21q-19 22 -19 55l9 143q-74 -113 -156 -172q-84 -63 -193 -63q-57 0 -110 24t-90 70q-38 44 -60 117q-22 74 -22 163q0 96 24 185q27 99 66 168q48 84 104 143q63 66 140 113q85 52 164 73q92 25 186 25 q65 0 143 -10q70 -9 140 -37l-103 -821l2 2q13 -2 29.5 -6t21.5 -5l10 -2l7.5 -1.5t3.5 -0.5zM698 567l39 318q-36 4 -51 4q-87 0 -158 -39q-72 -40 -125 -105q-57 -73 -84 -153q-28 -80 -28 -186q0 -112 33 -162q34 -51 96 -51q40 0 82 28q36 24 76 80q37 52 67 119 q35 79 53 147zM758 1393q35 0 51 16q19 19 25 61h153q-5 -51 -29 -104q-18 -40 -53 -80q-26 -30 -74 -51q-41 -18 -86 -18q-32 0 -67 14q-24 10 -55 29q-11 7 -48 28q-21 12 -43 12q-31 0 -49 -18t-24 -59h-158q5 49 29 102q21 46 55 80q36 36 74 53q43 19 86 19 q29 0 67 -15q31 -12 56 -28q40 -25 47 -29q21 -12 43 -12z" />
<glyph unicode="&#xe4;" horiz-adv-x="1060" d="M975 186q51 -12 45 -63l-16 -121h-127v0h-134q-47 0 -65 21q-19 22 -19 55l9 143q-74 -113 -156 -172q-84 -63 -193 -63q-57 0 -110 24t-90 70q-38 44 -60 117q-22 74 -22 163q0 96 24 185q27 99 66 168q48 84 104 143q63 66 140 113q85 52 164 73q92 25 186 25 q65 0 143 -10q70 -9 140 -37l-103 -821l2 2q13 -2 29.5 -6t21.5 -5l10 -2l7.5 -1.5t3.5 -0.5zM698 567l39 318q-36 4 -51 4q-87 0 -158 -39q-72 -40 -125 -105q-57 -73 -84 -153q-28 -80 -28 -186q0 -112 33 -162q34 -51 96 -51q40 0 82 28q36 24 76 80q37 52 67 119 q35 79 53 147zM590 1323q-3 -27 -19 -53t-36 -43q-21 -18 -50 -31q-23 -10 -55 -10q-31 0 -51 10t-41 31q-17 17 -27 43q-8 20 -4 53q3 29 19 55q24 38 34 47q21 18 50 31q22 10 55 10t53 -10t41 -31q15 -15 27 -47q8 -20 4 -55zM973 1323q-3 -27 -19 -53q-21 -34 -34 -45 q-16 -14 -50 -29q-22 -10 -57 -10q-33 0 -53 10q-29 14 -41 29q-15 18 -25 45q-8 20 -4 53q3 29 19 55q24 38 34 47q21 18 50 31q22 10 55 10t53 -10t41 -31q15 -15 27 -47q7 -20 4 -55z" />
<glyph unicode="&#xe5;" horiz-adv-x="1060" d="M975 186q51 -12 45 -63l-16 -121h-127v0h-134q-47 0 -65 21q-19 22 -19 55l9 143q-74 -113 -156 -172q-84 -63 -193 -63q-57 0 -110 24t-90 70q-38 44 -60 117q-22 74 -22 163q0 96 24 185q27 99 66 168q48 84 104 143q63 66 140 113q85 52 164 73q92 25 186 25 q65 0 143 -10q70 -9 140 -37l-103 -821l2 2q13 -2 29.5 -6t21.5 -5l10 -2l7.5 -1.5t3.5 -0.5zM698 567l39 318q-36 4 -51 4q-87 0 -158 -39q-72 -40 -125 -105q-57 -73 -84 -153q-28 -80 -28 -186q0 -112 33 -162q34 -51 96 -51q40 0 82 28q36 24 76 80q37 52 67 119 q35 79 53 147zM416 1358q6 45 30 86q22 37 58 65q37 29 78 43q49 17 88 17q40 0 86 -17q38 -14 67 -43q30 -30 43 -65q14 -38 8 -86q-7 -50 -28 -84q-24 -38 -60 -66t-79 -43q-41 -14 -89 -14t-86 14q-35 13 -65 43q-32 32 -43 66q-13 42 -8 84zM553 1358q-6 -41 16 -66 q23 -26 66 -26q41 0 70 26q26 26 32 64q6 44 -16 69t-62 25q-45 0 -73 -25q-27 -24 -33 -67z" />
<glyph unicode="&#xe6;" horiz-adv-x="1525" d="M1167 1065q65 0 121 -21q62 -23 98 -57q42 -36 66 -86q23 -47 23 -104q0 -29 -11 -78q-9 -30 -37 -74q-20 -31 -69 -65t-111 -56q-65 -23 -162 -39q-98 -16 -215 -16q0 -151 56 -219q58 -70 153 -70q67 0 113 19q50 21 76 39l28.5 19l28.5 19q25 19 55 19q13 0 25 -6 t20 -17l64 -77q-61 -61 -105 -95q-57 -44 -106 -65q-60 -26 -117 -37q-61 -12 -131 -12q-100 0 -182 49t-129 155q-32 -51 -78 -94q-39 -36 -94 -63q-53 -25 -103 -37q-52 -12 -104 -12q-150 0 -227 65q-76 64 -76 189q0 70 29 135q28 63 102 121q65 51 190 90 q109 34 299 34q7 53 9 66v33q0 80 -33 119q-32 38 -101 38q-57 0 -92 -14q-42 -17 -69 -33q-9 -6 -28.5 -16.5t-27.5 -15.5q-24 -15 -55 -15q-25 0 -41 13q-13 11 -24 32l-33 78q96 87 190 125q93 41 209 41q108 0 172 -43q65 -44 92 -117q61 70 150 115q81 41 192 41z M639 469q-115 0 -178 -16q-69 -18 -113 -45q-45 -28 -59 -62q-17 -35 -17 -78q0 -57 31 -88q28 -28 84 -28q50 0 88 14q37 14 72 49q38 44 55 86q22 56 31 123zM1135 889q-49 0 -95 -19q-41 -17 -73 -57q-39 -49 -54 -86q-20 -50 -32 -115q107 8 188 25q52 11 115 41 q38 18 55 49q16 29 16 57q0 45 -28 76q-29 29 -92 29z" />
<glyph unicode="&#xe7;" horiz-adv-x="980" d="M823 250l62 -92q-48 -48 -103 -84q-47 -31 -108 -54q-51 -16 -113 -26q-18 -3 -39 -6l-16 -43q89 -21 119 -62q31 -42 26 -90q-3 -34 -24 -61q-22 -28 -58 -47q-46 -24 -82 -31q-52 -10 -102 -10q-41 0 -78 6q-46 7 -71 16l34 78q9 25 31 25q10 0 14 -2q8 -4 17 -7 q3 -1 9.5 -2t10.5 -2q8 -2 29 -2q33 0 53 13q18 12 21 30q3 30 -33 43q-49 16 -111 23l13 26l8 19l35 84q-56 10 -97 28q-82 37 -137 107q-57 72 -80 170q-23 99 -8 231q15 120 59 213q47 100 119 172q80 76 172 113q103 41 226 41q129 0 321 -76l-41 -323h-8h-25h-84 q-40 0 -43 39q0 65 2 147q-73 20 -131 20q-68 0 -120 -24q-53 -24 -93 -70q-36 -42 -61 -108q-27 -72 -35 -144q-9 -84 0 -149q9 -62 37 -111q26 -42 74 -67q51 -23 106 -23q60 0 101 15q38 14 65 32q42 28 49 33q20 14 45 14q32 0 43 -22z" />
<glyph unicode="&#xe8;" horiz-adv-x="964" d="M928 807q0 -66 -29 -129q-27 -59 -100 -105q-67 -43 -197 -79q-131 -37 -317 -54v-12q0 -248 209 -248q48 0 79 8q42 11 62 21q21 11 47 29q6 4 13 8.5t14.5 9.5t11.5 8q33 22 35 23q16 8 39 8q12 0 24 -6q13 -7 21 -17l63 -77q-58 -58 -106 -95q-55 -43 -107 -65 q-61 -27 -115 -37q-61 -12 -131 -12q-94 0 -168 30t-126 88q-55 58 -82 138q-31 91 -31 180q0 82 18 162q20 87 51 151q33 68 84 131q50 62 111 105q64 45 137 69q77 25 158 25t145 -25q71 -28 105 -59q38 -33 61 -84q21 -47 21 -90zM582 889q-52 0 -95 -21q-44 -21 -79 -59 q-38 -38 -62 -90q-27 -58 -41 -117q131 19 205 39q75 20 119 45q45 25 57 51q12 22 12 60q0 17 -6 32t-20 29q-22 17 -35 23q-19 8 -55 8zM532 1497q41 0 62 -14q17 -11 29 -39l116 -250h-145q-21 0 -45 8q-19 10 -33 29l-219 266h235z" />
<glyph unicode="&#xe9;" horiz-adv-x="1013" d="M928 807q0 -66 -29 -129q-27 -59 -100 -105q-67 -43 -197 -79q-131 -37 -317 -54v-12q0 -248 209 -248q48 0 79 8q42 11 62 21q21 11 47 29q6 4 13 8.5t14.5 9.5t11.5 8q33 22 35 23q16 8 39 8q12 0 24 -6q13 -7 21 -17l63 -77q-58 -58 -106 -95q-55 -43 -107 -65 q-61 -27 -115 -37q-61 -12 -131 -12q-94 0 -168 30t-126 88q-55 58 -82 138q-31 91 -31 180q0 82 18 162q20 87 51 151q33 68 84 131q50 62 111 105q64 45 137 69q77 25 158 25t145 -25q71 -28 105 -59q38 -33 61 -84q21 -47 21 -90zM582 889q-52 0 -95 -21q-44 -21 -79 -59 q-38 -38 -62 -90q-27 -58 -41 -117q131 19 205 39q75 20 119 45q45 25 57 51q12 22 12 60q0 17 -6 32t-20 29q-22 17 -35 23q-19 8 -55 8zM979 1497l-287 -266q-23 -23 -41 -29q-24 -8 -47 -8h-151l176 250q17 25 41 39q25 14 63 14h246z" />
<glyph unicode="&#xea;" horiz-adv-x="974" d="M928 807q0 -66 -29 -129q-27 -59 -100 -105q-67 -43 -197 -79q-131 -37 -317 -54v-12q0 -248 209 -248q48 0 79 8q42 11 62 21q21 11 47 29q6 4 13 8.5t14.5 9.5t11.5 8q33 22 35 23q16 8 39 8q12 0 24 -6q13 -7 21 -17l63 -77q-58 -58 -106 -95q-55 -43 -107 -65 q-61 -27 -115 -37q-61 -12 -131 -12q-94 0 -168 30t-126 88q-55 58 -82 138q-31 91 -31 180q0 82 18 162q20 87 51 151q33 68 84 131q50 62 111 105q64 45 137 69q77 25 158 25t145 -25q71 -28 105 -59q38 -33 61 -84q21 -47 21 -90zM582 889q-52 0 -95 -21q-44 -21 -79 -59 q-38 -38 -62 -90q-27 -58 -41 -117q131 19 205 39q75 20 119 45q45 25 57 51q12 22 12 60q0 17 -6 32t-20 29q-22 17 -35 23q-19 8 -55 8zM940 1196h-168q-31 0 -49 18l-96 99q-1 2 -5.5 5.5t-5.5 4.5q-4 4 -8 12l-12 -12q-2 -2 -6 -5t-6 -5l-121 -99q-8 -5 -25 -12 q-15 -6 -28 -6h-177l271 285h237z" />
<glyph unicode="&#xeb;" horiz-adv-x="974" d="M926 807q0 -71 -27 -129q-26 -57 -102 -105q-67 -43 -197 -79q-131 -37 -317 -54v-12q0 -248 211 -248q48 0 79 8q42 11 62 21q21 11 47 29q6 4 13 8.5t14.5 9.5t11.5 8q33 22 35 23q16 8 37 8q12 0 24 -6q13 -7 21 -17l65 -77q-58 -58 -106 -95q-55 -43 -107 -65 q-61 -27 -115 -37q-61 -12 -133 -12q-92 0 -166 30q-79 32 -129 88q-53 56 -81 138q-29 85 -29 180q0 82 18 162q20 87 51 151q36 74 82 131q47 58 113 105q65 46 135 69q77 25 160 25q81 0 145 -25q68 -26 103 -59q38 -33 61 -84q21 -47 21 -90zM582 889q-52 0 -95 -21 q-44 -21 -79 -59q-38 -38 -62 -90q-27 -58 -41 -117q127 18 203 39q78 22 121 45q43 24 55 51q14 25 14 60q0 17 -6 32t-20 29q-19 15 -37 23q-19 8 -53 8zM551 1323q-4 -33 -16 -53q-15 -24 -37 -43q-19 -16 -52 -31q-23 -10 -55 -10q-31 0 -51 10t-41 31q-14 14 -25 43 q-9 24 -6 53t19 55q21 33 37 47q25 21 47 31q23 10 55 10q33 0 53 -10q24 -12 43 -31q12 -12 25 -47q7 -20 4 -55zM934 1323q-4 -33 -16 -53q-15 -24 -37 -43q-21 -18 -50 -31q-23 -10 -55 -10q-33 0 -53 10q-26 13 -41 31q-16 19 -25 43t-6 53t19 55q21 33 37 47 q25 21 47 31t55 10t53 -10q24 -12 43 -31q12 -12 25 -47q8 -20 4 -55z" />
<glyph unicode="&#xec;" horiz-adv-x="550" d="M461 184q49 -12 43 -63l-15 -121h-155h-254l26 203l78 645q-12 2 -32 5.5t-27 4.5q-19 3 -29 6q-4 0 -8 1l-4 1q-51 12 -45 64l16 121h154h254l-105 -848q12 -2 32.5 -5.5t27.5 -4.5q12 -2 28 -7q6 -2 15 -2zM307 1497q41 0 62 -14q14 -9 28 -41l117 -248h-145 q-21 0 -45 8q-21 11 -33 27l-219 268h235z" />
<glyph unicode="&#xed;" horiz-adv-x="788" d="M461 184q49 -12 43 -63l-15 -121h-155h-254l26 203l78 645q-12 2 -32 5.5t-27 4.5q-19 3 -29 6q-4 0 -8 1l-4 1q-51 12 -45 64l16 121h154h254l-105 -848q12 -2 32.5 -5.5t27.5 -4.5q12 -2 28 -7q6 -2 15 -2zM754 1497l-287 -268q-20 -20 -41 -27q-24 -8 -47 -8h-152 l176 248q19 28 41 41q25 14 64 14h246z" />
<glyph unicode="&#xee;" horiz-adv-x="776" d="M487 184q49 -12 43 -63l-14 -121h-156h-254l25 203l80 645q-12 2 -32 5.5t-27 4.5q-19 3 -29 6q-3 0 -7 1t-5 1q-51 12 -45 64l16 121h154h253l-104 -848q12 -2 32 -5.5t27 -4.5q14 -2 29 -7q6 -2 14 -2zM741 1196h-168q-31 0 -49 18l-96 97q-2 4 -10 12q-4 4 -8 12 l-13 -12l-12 -12l-121 -97q-9 -6 -24 -12t-31 -6h-174l270 285h238z" />
<glyph unicode="&#xef;" horiz-adv-x="749" d="M461 184q49 -12 43 -63l-15 -121h-155h-252l24 203l80 645q-12 2 -32 5.5t-27 4.5q-23 3 -31 6q-4 0 -8 1l-4 1q-49 12 -43 64l14 121h156h252l-103 -848q12 -2 31.5 -5.5t26.5 -4.5q17 -3 31 -7q6 -2 12 -2zM328 1323q-3 -27 -19 -53q-20 -32 -35 -45t-51 -29 q-23 -10 -55 -10q-31 0 -51 10q-24 12 -41 29q-16 16 -27 45q-8 20 -4 53q3 31 18 55q21 33 37 47q20 17 47 29t56 12t53 -12t41 -29q15 -15 27 -47q8 -20 4 -55zM711 1323q-3 -27 -19 -53q-20 -32 -35 -45q-18 -15 -49 -29q-23 -10 -57 -10q-31 0 -51 10q-29 14 -41 29 q-18 22 -27 45q-8 20 -4 53q3 31 18 55q20 32 35 45q22 19 49 31t56 12t53 -12q28 -14 43 -29q12 -12 25 -47q8 -20 4 -55z" />
<glyph unicode="&#xf0;" horiz-adv-x="1132" d="M444 1087q-9 15 -6 35q3 30 39 49l82 43q-33 13 -67 25q-21 7 -74 23q-24 6 -39 24q-13 16 -10 49q5 25 14 45l39 86q96 -17 194 -49q81 -27 170 -82l195 117l41 -82q9 -17 6 -31t-12 -26q-8 -11 -25 -21l-88 -47q44 -44 90 -117q43 -69 66 -141q25 -81 31 -168 q6 -86 -7 -196q-19 -154 -67 -269q-51 -120 -125 -200q-76 -82 -180 -125t-232 -43q-115 0 -194 32q-86 35 -146 101q-57 63 -84 155q-29 97 -14 211q12 97 55 181q39 76 113 147q67 64 160 102q95 39 198 39q99 0 172 -36q78 -38 131 -103q-9 114 -49 186q-45 82 -121 138 l-219 -131zM508 176q56 0 113 23q55 22 96 69q47 53 74 123q33 85 47 184q-6 23 -31 72q-19 36 -49 60q-28 22 -70 38q-46 17 -94 17q-62 0 -119 -23q-46 -19 -90 -59q-33 -31 -61 -88q-25 -52 -31 -109q-9 -72 4 -131q12 -57 41 -96q30 -41 74 -59q51 -21 96 -21z" />
<glyph unicode="&#xf1;" horiz-adv-x="1208" d="M1122 184q49 -12 43 -63l-14 -121h-156h-252l82 668q12 96 -26 149t-127 53q-66 0 -127 -30q-65 -32 -119 -80l-41 -334l-6 -49l-21 -174l-24 -203h-254l39 305l65 543q-12 2 -32 5.5t-27 4.5t-16.5 3.5t-12.5 2.5q-6 2 -12 2q-51 12 -45 64l16 121h154h156q50 0 59 -47 l6 -82q38 35 74 59q44 29 82 45q63 26 88 31q52 10 98 10q88 0 150 -29q60 -26 100 -82q38 -53 53 -127q14 -70 2 -161l-55 -465q13 -2 31.5 -5.5t25.5 -4.5q18 -3 31 -7q6 -2 12 -2zM817 1393q35 0 51 16q19 19 25 61h154q-5 -51 -29 -104q-18 -40 -53 -80q-27 -31 -72 -51 q-40 -18 -88 -18q-31 0 -66 14q-29 12 -57 29q-21 13 -47 28q-21 12 -43 12q-31 0 -49 -18q-20 -20 -25 -59h-156q5 49 29 102q22 49 53 80q36 36 74 53q43 19 86 19q30 0 68 -15q28 -11 55 -28q19 -12 49 -29q21 -12 41 -12z" />
<glyph unicode="&#xf2;" horiz-adv-x="1132" d="M631 1067q114 0 209 -39q92 -38 149 -106q61 -74 84 -170q25 -104 10 -224q-14 -121 -65 -225q-50 -103 -125 -172q-78 -72 -176 -108q-101 -37 -219 -37q-119 0 -209 37q-95 39 -152 108q-61 73 -84 172q-24 104 -10 225q14 118 66 224q46 96 127 170q75 69 176 106 q106 39 219 39zM522 180q132 0 205 88t94 258q21 172 -30 258q-53 90 -183 90q-134 0 -209 -90q-73 -87 -94 -260q-21 -169 31 -256q52 -88 186 -88zM594 1497q38 0 59 -14q18 -12 31 -41l117 -248h-146q-21 0 -45 8q-18 9 -32 29l-222 266h238z" />
<glyph unicode="&#xf3;" horiz-adv-x="1132" d="M631 1067q114 0 209 -39q92 -38 149 -106q61 -74 84 -170q25 -104 10 -224q-14 -121 -65 -225q-50 -103 -125 -172q-78 -72 -176 -108q-101 -37 -219 -37q-119 0 -209 37q-95 39 -152 108q-61 73 -84 172q-24 104 -10 225q14 118 66 224q46 96 127 170q75 69 176 106 q106 39 219 39zM522 180q132 0 205 88t94 258q21 172 -30 258q-53 90 -183 90q-134 0 -209 -90q-73 -87 -94 -260q-21 -169 31 -256q52 -88 186 -88zM1038 1497l-284 -266q-23 -23 -41 -29q-24 -8 -47 -8h-152l176 250q17 25 41 39q25 14 62 14h245z" />
<glyph unicode="&#xf4;" horiz-adv-x="1132" d="M631 1067q114 0 209 -39q92 -38 149 -106q61 -74 84 -170q25 -104 10 -224q-14 -121 -65 -225q-50 -103 -125 -172q-78 -72 -176 -108q-101 -37 -219 -37q-119 0 -209 37q-95 39 -152 108q-61 73 -84 172q-24 104 -10 225q14 118 66 224q46 96 127 170q75 69 176 106 q106 39 219 39zM522 180q132 0 205 88t94 258q21 172 -30 258q-53 90 -183 90q-134 0 -209 -90q-73 -87 -94 -260q-21 -169 31 -256q52 -88 186 -88zM1001 1196h-170q-29 0 -47 18l-96 97q-2 4 -10 12q-4 4 -8 12l-13 -12l-12 -12l-121 -97q-9 -6 -24 -12t-31 -6h-174 l270 285h238z" />
<glyph unicode="&#xf5;" horiz-adv-x="1132" d="M631 1067q114 0 209 -39q92 -38 149 -106q61 -74 84 -170q25 -104 10 -224q-14 -121 -65 -225q-50 -103 -125 -172q-78 -72 -176 -108q-101 -37 -219 -37q-119 0 -209 37q-95 39 -152 108q-61 73 -84 172q-24 104 -10 225q14 118 66 224q46 96 127 170q75 69 176 106 q106 39 219 39zM522 180q132 0 205 88t94 258q21 172 -30 258q-53 90 -183 90q-134 0 -209 -90q-73 -87 -94 -260q-21 -169 31 -256q52 -88 186 -88zM782 1393q33 0 49 16q19 19 25 61h154q-5 -51 -29 -104q-18 -40 -53 -80q-27 -31 -72 -51q-41 -18 -86 -18q-33 0 -68 14 q-24 10 -55 29l-49 28q-21 12 -43 12q-31 0 -49 -18q-20 -20 -25 -59h-155q5 52 28 102q21 47 54 80q37 37 73 53q43 19 86 19q31 0 68 -15q34 -14 57 -28q40 -25 47 -29q21 -12 43 -12z" />
<glyph unicode="&#xf6;" horiz-adv-x="1132" d="M631 1067q114 0 209 -39q92 -38 149 -106q61 -74 84 -170q25 -104 10 -224q-14 -121 -65 -225q-50 -103 -125 -172q-78 -72 -176 -108q-101 -37 -219 -37q-119 0 -209 37q-95 39 -152 108q-61 73 -84 172q-24 104 -10 225q14 118 66 224q46 96 127 170q75 69 176 106 q106 39 219 39zM522 180q132 0 205 88t94 258q21 172 -30 258q-53 90 -183 90q-134 0 -209 -90q-73 -87 -94 -260q-21 -169 31 -256q52 -88 186 -88zM614 1323q-3 -29 -18 -53q-18 -29 -37 -45q-17 -15 -49 -29q-23 -10 -57 -10q-32 0 -52 10q-24 12 -41 29q-11 11 -24 45 q-8 20 -4 53q3 35 16 55q21 33 37 47q22 19 49 31q23 10 53 10q34 0 54 -10q24 -12 43 -31q10 -10 24 -47q9 -24 6 -55zM997 1323q-3 -29 -18 -53q-18 -29 -37 -45q-18 -15 -49 -29q-22 -10 -55 -10q-34 0 -54 10q-29 14 -41 29q-13 16 -24 45q-8 20 -4 53q3 35 16 55 q21 33 37 47q20 17 47 29t57 12t54 -12t41 -29q10 -10 24 -47q9 -24 6 -55z" />
<glyph unicode="&#xf7;" horiz-adv-x="1101" d="M63 782h1000l-23 -188h-999zM440 1053q3 26 21 59q13 22 39 49q21 21 51 33t63 12t60 -12t45 -33q21 -24 29 -49q8 -23 4 -59q-2 -29 -21 -62q-16 -29 -39 -49q-25 -22 -53 -33q-25 -10 -61 -10q-40 0 -62 10q-27 12 -45 33q-14 17 -25 49q-9 27 -6 62zM352 324 q3 30 19 59q13 23 39 49q20 20 53 33q30 12 63 12q31 0 58 -12q30 -13 47 -33q16 -18 26 -49q8 -25 5 -59q-3 -33 -19 -62q-14 -26 -41 -49q-25 -22 -53 -33q-25 -10 -62 -10t-59 10q-27 12 -45 33q-17 20 -27 49q-7 22 -4 62z" />
<glyph unicode="&#xf8;" horiz-adv-x="1318" d="M1079 913q55 -67 80 -168q23 -95 8 -217q-14 -121 -65 -225q-50 -103 -125 -172q-78 -72 -176 -108q-106 -39 -219 -39q-69 0 -138 16q-55 13 -114 43l-41 -47q-33 -38 -78 -57q-41 -17 -84 -17h-92l184 213q-60 73 -84 170q-23 97 -8 223q14 118 66 224q47 97 126 170 q74 68 177 106q106 39 219 39q77 0 137 -14q54 -13 117 -45l65 77q10 12 29 31q3 3 27 21q11 8 30 12q10 2 37 2h125zM373 524q-14 -116 8 -200l448 522q-53 35 -137 35q-133 0 -217 -93q-80 -89 -102 -264zM604 172q134 0 215 90q82 91 103 262q8 80 6 111q-2 41 -13 88 l-448 -518q50 -33 137 -33z" />
<glyph unicode="&#xf9;" horiz-adv-x="1208" d="M1122 184q49 -12 43 -63l-14 -121h-156h-153q-51 0 -60 47l-6 84q-31 -29 -76 -61q-40 -29 -79 -45q-52 -21 -89 -31q-52 -10 -100 -10q-83 0 -147 28q-55 24 -101 84q-37 48 -53 125q-16 76 -4 162l57 465q-90 17 -100 18q-51 12 -45 64l16 121h154h254l-82 -668 q-12 -95 27 -150q36 -51 127 -51q58 0 124 29q58 26 119 80l70 557q-29 5 -50 8.5t-28.5 5t-13.5 2.5t-11 2q-49 12 -43 64l15 121h155h252l-102 -848q28 -5 49 -9t28 -5.5t12 -2.5t11 -2zM639 1497q40 0 61 -14q15 -10 29 -41l117 -248h-146q-21 0 -45 8q-20 10 -32 27 l-220 268h236z" />
<glyph unicode="&#xfa;" horiz-adv-x="1208" d="M1122 184q49 -12 43 -63l-14 -121h-156h-153q-51 0 -60 47l-6 84q-31 -29 -76 -61q-40 -29 -79 -45q-52 -21 -89 -31q-52 -10 -100 -10q-83 0 -147 28q-55 24 -101 84q-37 48 -53 125q-16 76 -4 162l57 465q-90 17 -100 18q-51 12 -45 64l16 121h154h254l-82 -668 q-12 -95 27 -150q36 -51 127 -51q58 0 124 29q58 26 119 80l70 557q-29 5 -50 8.5t-28.5 5t-13.5 2.5t-11 2q-49 12 -43 64l15 121h155h252l-102 -848q28 -5 49 -9t28 -5.5t12 -2.5t11 -2zM1085 1497l-286 -268q-20 -20 -41 -27q-24 -8 -47 -8h-152l176 248q19 28 41 41 q24 14 64 14h245z" />
<glyph unicode="&#xfb;" horiz-adv-x="1208" d="M1122 184q49 -12 43 -63l-14 -121h-156h-153q-51 0 -60 47l-6 84q-31 -29 -76 -61q-40 -29 -79 -45q-52 -21 -89 -31q-52 -10 -100 -10q-83 0 -147 28q-55 24 -101 84q-37 48 -53 125q-16 76 -4 162l57 465q-90 17 -100 18q-51 12 -45 64l16 121h154h254l-82 -668 q-12 -95 27 -150q36 -51 127 -51q58 0 124 29q58 26 119 80l70 557q-29 5 -50 8.5t-28.5 5t-13.5 2.5t-11 2q-49 12 -43 64l15 121h155h252l-102 -848q28 -5 49 -9t28 -5.5t12 -2.5t11 -2zM1047 1196h-168q-32 0 -50 18l-96 97l-10 10q-4 4 -8 12l-13 -12q-2 -2 -6 -5t-6 -5 l-121 -97q-9 -6 -24 -12t-29 -6h-176l270 285h238z" />
<glyph unicode="&#xfc;" horiz-adv-x="1208" d="M1122 184q49 -12 43 -63l-14 -121h-156h-153q-51 0 -60 47l-6 84q-31 -29 -76 -61q-40 -29 -79 -45q-52 -21 -89 -31q-52 -10 -100 -10q-83 0 -147 28q-55 24 -101 84q-37 48 -53 125q-16 76 -4 162l57 465q-90 17 -100 18q-51 12 -45 64l16 121h154h254l-82 -668 q-12 -95 27 -150q36 -51 127 -51q58 0 124 29q58 26 119 80l70 557q-29 5 -50 8.5t-28.5 5t-13.5 2.5t-11 2q-49 12 -43 64l15 121h155h252l-102 -848q28 -5 49 -9t28 -5.5t12 -2.5t11 -2zM659 1323q-3 -29 -18 -53q-18 -29 -37 -45q-18 -15 -49 -29q-23 -10 -57 -10 q-32 0 -52 10q-22 11 -40 29q-13 13 -25 45q-8 20 -4 53q3 35 16 55q18 29 37 45q22 19 49 31t53 12q30 0 54 -12q28 -14 43 -29q10 -10 24 -47q9 -24 6 -55zM1042 1323q-3 -29 -18 -53q-18 -29 -37 -45q-17 -15 -49 -29q-22 -10 -55 -10q-34 0 -54 10q-29 14 -41 29 q-13 16 -24 45q-8 20 -4 53q3 31 18 55q20 32 35 45q22 19 49 31t56 12t53 -12q20 -10 41 -31q11 -11 24 -45q9 -24 6 -55z" />
<glyph unicode="&#xfd;" horiz-adv-x="1290" d="M1188 1051h61l-14 -121q-6 -52 -59 -64l-10 -2t-12 -2.5t-27 -5t-50 -8.5l-626 -1137q-17 -30 -33 -41q-14 -12 -58 -12h-188l248 420l-242 770q-28 5 -47.5 8.5t-25.5 5t-11 2.5l-10 2q-49 12 -43 64l14 121h60h221h231l-14 -121q-6 -52 -59 -64l-15 -2q-15 -2 -35 -6 l115 -399q3 -8 5 -17.5t4 -21t3 -17.5q5 -24 9 -57q12 30 24 57q8 19 29 56l201 395q-23 4 -68 12q-49 12 -43 64l14 121h248h203zM1083 1497l-286 -268q-21 -21 -39 -27q-24 -8 -49 -8h-152l176 248q19 28 41 41q24 14 64 14h245z" />
<glyph unicode="&#xfe;" horiz-adv-x="1161" d="M35 -344l229 1866h252l-74 -600q63 60 156 106q79 39 188 39q91 0 154 -35q67 -37 109 -102q44 -68 59 -168q16 -106 2 -227q-15 -117 -59 -220q-41 -95 -113 -174q-62 -68 -156 -114q-83 -41 -192 -41q-49 0 -82 8q-42 10 -66 22t-55 39q-22 19 -45 49l-55 -448h-252z M676 870q-85 0 -139 -32q-63 -37 -115 -95l-60 -471q37 -52 87 -73q49 -21 106 -21t107 21q47 20 86 65q40 46 63 111q25 71 37 160q11 82 4 155q-6 60 -29 105q-19 37 -61 57q-38 18 -86 18z" />
<glyph unicode="&#xff;" horiz-adv-x="1290" d="M1188 1051h61l-14 -121q-6 -52 -59 -64l-10 -2t-12 -2.5t-27 -5t-50 -8.5l-626 -1137q-17 -30 -33 -41q-14 -12 -58 -12h-188l248 420l-242 770q-28 5 -47.5 8.5t-25.5 5t-11 2.5l-10 2q-49 12 -43 64l14 121h60h221h231l-14 -121q-6 -52 -59 -64l-15 -2q-15 -2 -35 -6 l115 -399q3 -8 5 -17.5t4 -21t3 -17.5q5 -24 9 -57q12 30 24 57q8 19 29 56l201 395q-23 4 -68 12q-49 12 -43 64l14 121h248h203zM657 1323q-3 -29 -18 -53q-18 -29 -37 -45q-18 -15 -49 -29q-22 -10 -55 -10q-32 0 -52 10q-22 11 -40 29q-16 16 -27 45q-8 20 -4 53 q3 31 18 55q18 29 37 45q24 21 47 31q27 12 55 12q30 0 54 -12t41 -29q13 -13 26 -47q8 -20 4 -55zM1040 1323q-3 -29 -18 -53q-20 -32 -35 -45q-17 -15 -49 -29q-22 -10 -57 -10q-34 0 -54 10q-29 14 -41 29q-13 16 -24 45q-8 20 -4 53q3 31 18 55q20 32 35 45q22 19 49 31 t55 12q30 0 54 -12t43 -31q11 -11 24 -45q8 -20 4 -55z" />
<glyph unicode="&#x152;" horiz-adv-x="2232" d="M1294 1481h901l-16 -142l-10 -77l-21 -170h-8h-26h-84q-40 0 -43 38q0 42 2 132h-476l-51 -410h500l-27 -213h-499l-52 -418h476q9 40 16.5 70.5t11.5 44.5t4 16q12 39 52 39h84h26h8l-20 -170l-10 -78l-19 -143h-901l25 190q-102 -95 -230 -151q-120 -53 -276 -53 q-153 0 -269 55q-117 56 -194 158q-80 107 -109 239q-31 141 -10 303q21 161 86 301q65 139 166 240q103 103 234 158q136 57 282 57q153 0 262 -53q121 -59 193 -152zM1116 520q40 98 55 221q14 115 -2 220q-14 94 -61 165q-46 70 -119 107t-170 37q-101 0 -182 -37 q-91 -41 -148 -107q-63 -69 -102 -165q-43 -105 -57 -220q-15 -126 2 -221q18 -101 63 -166t121 -104q73 -37 172 -37t180 37q87 40 146 104q62 68 102 166z" />
<glyph unicode="&#x153;" horiz-adv-x="1601" d="M1255 1065q69 0 127 -18q54 -18 97 -54q43 -37 63 -84q21 -50 21 -106q0 -67 -27 -125q-26 -56 -100 -105q-65 -43 -191 -79q-121 -34 -309 -52q3 -133 59 -198q55 -64 152 -64q67 0 113 19q47 20 75 39q8 6 27.5 18.5t28.5 19.5q25 19 55 19q25 0 45 -23l65 -77 q-58 -58 -106 -95q-55 -43 -107 -65q-61 -26 -116 -37q-61 -12 -131 -12q-99 0 -178 49q-81 49 -127 149q-71 -91 -179 -147q-102 -51 -227 -51q-85 0 -149 30t-109 84q-50 60 -68 121q-22 74 -22 146q0 173 47 303q45 124 125 217q73 84 180 133q99 45 213 45 q101 0 174 -43q71 -42 115 -119q67 76 158 119q90 43 206 43zM446 172q55 0 103 23q44 25 78 61q31 37 53 88q25 59 35 105q17 77 20 108q4 37 4 102q0 109 -39 162q-39 56 -120 56q-71 0 -123 -35q-55 -37 -95 -101q-38 -65 -59 -157q-20 -87 -20 -203q0 -45 8 -78 q9 -39 28 -67t52 -48q27 -16 75 -16zM1217 891q-100 0 -173 -76q-74 -77 -98 -219q103 13 203 39q62 16 125 49q39 20 61 53q17 31 17 58q0 38 -33 67q-37 29 -102 29z" />
<glyph unicode="&#x178;" horiz-adv-x="1515" d="M1446 1481h33l-15 -121q-6 -52 -59 -64q-2 0 -5.5 -1t-6.5 -1t-13.5 -2.5t-17.5 -3.5q-6 -1 -28 -4.5t-36 -5.5l-503 -703l-45 -372q12 -2 32 -5.5t27 -4.5t16.5 -4t12.5 -3q4 0 9 -1l5 -1q49 -12 43 -63l-16 -121h-154h-276h-154l14 121q6 51 60 63q6 0 12 2q13 4 31 7 l27 4.5t36 5.5l45 372l-332 703q-12 2 -32 5.5t-27 4.5t-17.5 3.5t-13.5 2.5q-6 2 -12 2q-49 12 -43 64l14 121h35h37h84h121h276l-14 -121q-6 -52 -59 -64q-1 0 -5 -1t-6 -1q-6 -3 -18 -6q-5 -1 -16.5 -3.5t-14.5 -2.5l152 -358q20 -49 30 -82q23 -76 23 -78 q7 16 22.5 44.5t18.5 33.5q10 19 49 82l240 358q-25 5 -29 6l-10.5 3.5t-9.5 2.5q-4 2 -9 2q-49 12 -43 64l15 121h276h121h86h37zM715 1706q-3 -29 -17 -51q-16 -26 -36 -43q-24 -20 -50 -29q-30 -10 -55 -10q-26 0 -49 10t-39 29t-25 43q-7 20 -4 51q3 27 19 53 q23 36 33 45q15 13 47 29q24 12 51 12q29 0 53 -12t41 -29q16 -16 27 -45q8 -20 4 -53zM1157 1706q-3 -24 -16 -51q-11 -23 -35 -43q-25 -22 -47 -29q-30 -10 -55 -10t-52 10q-24 9 -41 29q-14 17 -24 43q-7 20 -4 51q3 29 18 53q20 32 35 45q20 17 47 29t53 12q30 0 54 -12 t38 -29q20 -24 25 -45q7 -27 4 -53z" />
<glyph unicode="&#x2c6;" horiz-adv-x="815" d="M762 1196h-168q-31 0 -49 18l-96 97q-1 2 -5.5 5.5t-5.5 4.5q-4 4 -8 12l-12 -12q-2 -2 -6 -5t-6 -5l-121 -97q-7 -5 -25 -12q-15 -6 -31 -6h-174l271 285h237z" />
<glyph unicode="&#x2dc;" horiz-adv-x="798" d="M516 1393q33 0 49 16q19 19 25 61h153q-6 -54 -28 -104q-18 -40 -53 -80q-27 -31 -72 -51q-41 -18 -86 -18q-38 0 -68 12q-28 11 -55 28q-19 12 -49 29q-24 14 -43 14q-31 0 -49 -18q-17 -17 -23 -61h-158q5 51 29 104q21 46 55 80q38 38 72 53q38 17 86 17q35 0 68 -13 q34 -14 57 -28q40 -25 47 -29q21 -12 43 -12z" />
<glyph unicode="&#x2000;" horiz-adv-x="959" />
<glyph unicode="&#x2001;" horiz-adv-x="1919" />
<glyph unicode="&#x2002;" horiz-adv-x="959" />
<glyph unicode="&#x2003;" horiz-adv-x="1919" />
<glyph unicode="&#x2004;" horiz-adv-x="639" />
<glyph unicode="&#x2005;" horiz-adv-x="479" />
<glyph unicode="&#x2006;" horiz-adv-x="319" />
<glyph unicode="&#x2007;" horiz-adv-x="319" />
<glyph unicode="&#x2008;" horiz-adv-x="239" />
<glyph unicode="&#x2009;" horiz-adv-x="383" />
<glyph unicode="&#x200a;" horiz-adv-x="106" />
<glyph unicode="&#x2010;" horiz-adv-x="677" d="M86 725h530l-26 -213h-529z" />
<glyph unicode="&#x2011;" horiz-adv-x="677" d="M86 725h530l-26 -213h-529z" />
<glyph unicode="&#x2012;" horiz-adv-x="677" d="M86 725h530l-26 -213h-529z" />
<glyph unicode="&#x2013;" horiz-adv-x="976" d="M84 705h829l-20 -181h-832z" />
<glyph unicode="&#x2014;" horiz-adv-x="1536" d="M84 705h1389l-23 -181h-1389z" />
<glyph unicode="&#x2018;" horiz-adv-x="436" d="M96 999q-56 115 -41 230q12 106 76 196q73 103 170 172l74 -49q9 -6 12 -14q2 -6 2 -16t-6 -19q-4 -6 -10 -12q-9 -9 -33 -37q-18 -21 -33 -45q-8 -14 -26 -53q-14 -32 -17 -62q-3 -37 2 -73q5 -32 29 -82q7 -16 4 -29q-3 -34 -41 -45z" />
<glyph unicode="&#x2019;" horiz-adv-x="434" d="M340 1569q32 -69 39 -115q8 -54 2 -115q-12 -106 -76 -196q-69 -97 -170 -172l-72 49q-9 6 -12 14q-2 6 -2 17q4 21 17 32q5 5 15.5 18t16.5 19q16 16 33 43q10 17 27 54q11 24 14 61q3 38 -2 74q-6 40 -27 84q-8 16 -6 26q3 35 43 47z" />
<glyph unicode="&#x201a;" horiz-adv-x="452" d="M348 299q28 -62 37 -117q9 -60 4 -112q-13 -107 -76 -197q-69 -97 -170 -172l-73 47q-10 7 -13 16q-2 6 -2 17q3 21 19 33q5 5 14.5 16.5t15.5 17.5q11 11 33 46q15 24 27 51q13 30 16 61q3 39 -2 76q-5 35 -28 82q-9 18 -7 29q3 33 45 45z" />
<glyph unicode="&#x201c;" horiz-adv-x="776" d="M96 999q-56 115 -41 230q12 106 76 196q73 103 170 172l74 -49q9 -6 12 -14q2 -6 2 -16t-6 -19q-4 -6 -10 -12q-9 -9 -33 -37q-18 -21 -33 -45q-8 -14 -26 -53q-14 -32 -17 -62q-3 -37 2 -73q5 -32 29 -82q7 -16 4 -29q-3 -34 -41 -45zM436 999q-56 115 -41 230 q12 106 76 196q73 103 170 172l74 -49q9 -6 12 -14q2 -6 2 -16t-6 -19q-8 -12 -10 -14q-21 -21 -33 -35q-18 -21 -33 -45q-8 -14 -26 -53q-14 -32 -17 -62q-3 -37 2 -73q5 -32 29 -82q7 -16 4 -29q-3 -34 -41 -45z" />
<glyph unicode="&#x201d;" horiz-adv-x="774" d="M340 1569q32 -69 39 -115q8 -54 2 -115q-12 -106 -76 -196q-69 -97 -170 -172l-72 49q-9 6 -12 14q-2 6 -2 17q4 21 17 32q5 5 15.5 17t16.5 18q13 13 33 45q10 17 27 54q11 24 14 61q3 38 -2 74q-6 40 -27 84q-8 16 -6 26q3 35 43 47zM680 1569q32 -69 39 -115 q8 -54 2 -115q-12 -106 -76 -196q-69 -97 -170 -172l-72 49q-9 6 -12 14q-2 6 -2 17q4 21 17 32q5 5 15.5 17t16.5 18q13 13 33 45q10 17 27 54q11 24 14 61q3 38 -2 74q-6 40 -27 84q-8 16 -6 26q3 35 43 47z" />
<glyph unicode="&#x201e;" horiz-adv-x="792" d="M348 299q29 -63 37 -115q9 -61 4 -114q-13 -107 -76 -197q-69 -97 -170 -172l-73 49q-11 7 -13 14q-2 6 -2 17q3 21 19 33q5 5 14.5 16.5t15.5 17.5q16 16 33 43q10 17 27 54q13 30 16 61q3 39 -2 76q-5 35 -28 82q-9 18 -7 29q3 33 45 45zM688 297q29 -63 37 -115 q9 -61 4 -114q-12 -105 -76 -195q-69 -97 -170 -172l-73 47q-10 7 -13 16q-2 6 -2 17q3 21 19 33q5 5 14.5 16.5t15.5 17.5q16 16 33 43q10 17 27 54q13 30 16 61q3 39 -2 76q-5 32 -29 82q-8 17 -6 29q3 33 45 45z" />
<glyph unicode="&#x2022;" horiz-adv-x="1001" d="M53 606q13 96 58 174q50 86 112 142q67 61 154 96t176 35q92 0 170 -35q80 -36 131 -96q54 -64 78 -142q26 -85 14 -174q-13 -98 -55 -170q-45 -78 -115 -141q-64 -58 -153 -94q-87 -35 -179 -35q-90 0 -168 35q-83 37 -131 94q-53 62 -77 141q-26 86 -15 170z" />
<glyph unicode="&#x2026;" horiz-adv-x="1523" d="M59 139q3 34 19 62q16 29 39 49q25 22 53 33q30 12 63 12t60 -12t45 -33q17 -20 27 -49q8 -24 4 -62q-2 -28 -21 -61q-13 -22 -37 -47q-20 -20 -53 -33q-30 -12 -63 -12t-60 12t-45 33q-19 22 -27 47q-7 22 -4 61zM1153 139q4 36 18 62q16 29 39 49q24 21 54 33t63 12 q32 0 59 -12q29 -13 46 -33q16 -18 26 -49q8 -24 4 -62q-3 -30 -20 -61q-15 -27 -37 -49q-16 -16 -53 -31q-30 -12 -64 -12q-32 0 -59 12q-30 13 -45 31q-17 20 -27 49q-7 22 -4 61zM606 139q3 31 19 60t39 49q29 25 53 35q30 12 63 12t60 -12t45 -33q16 -18 26 -49 q8 -24 4 -62q-3 -30 -20 -61q-15 -27 -37 -49q-16 -16 -53 -31q-30 -12 -64 -12q-32 0 -59 12q-30 13 -45 31q-17 20 -27 49q-7 22 -4 61z" />
<glyph unicode="&#x202f;" horiz-adv-x="383" />
<glyph unicode="&#x2039;" horiz-adv-x="524" d="M49 535l4 32l312 406l77 -39q24 -12 29 -25q6 -16 4 -30q-3 -22 -18 -43l-170 -242q-19 -29 -39 -43q12 -12 26 -43l113 -242q11 -25 8 -45q-3 -34 -45 -53l-88 -39z" />
<glyph unicode="&#x203a;" horiz-adv-x="526" d="M160 129l-78 39q-21 11 -27 25q-8 19 -6 30q3 21 19 43l172 242q20 29 36 43q-12 12 -26 43l-113 242q-9 21 -6 43q3 36 45 55l88 39l211 -406l-4 -32z" />
<glyph unicode="&#x205f;" horiz-adv-x="479" />
<glyph unicode="&#x20ac;" horiz-adv-x="1294" d="M92 950h135q41 128 103 226q64 101 147 172q84 72 180 108q103 39 207 39q144 0 238 -55q90 -53 151 -148l-100 -96q-5 -5 -25 -20q-12 -9 -32 -9q-13 0 -25 9q-16 12 -24 20q-4 4 -14 13t-15 14q-11 11 -37 26q-17 9 -55 21q-27 8 -76 8q-124 0 -215 -82 q-94 -85 -146 -246h515l-11 -78q-3 -25 -24 -43q-23 -20 -54 -20h-460q-5 -30 -6 -35l-5 -33l-2 -24q0 -4 -1 -12.5t-1 -12.5h434l-10 -78q-3 -25 -24 -43t-52 -18h-352q6 -177 78 -264q71 -86 191 -86q68 0 120 20q47 18 78 43q7 6 53 45q24 21 43 21q9 0 21 -4 q7 -2 14 -13l99 -102q-83 -108 -203 -168q-118 -59 -264 -59q-118 0 -211 41q-96 42 -154 112q-62 74 -92 180q-34 120 -37 234h-129l16 139h119q0 4 1 12.5t1 12.5l4 24l4 33q1 6 2.5 17.5t2.5 17.5h-119z" />
<glyph unicode="&#x2122;" horiz-adv-x="1441" d="M958 1192q10 -31 11 -35l6 -37l18 37q7 14 21 35l168 262q13 20 26 23q16 4 35 4h150l-76 -617h-154l39 307l23 103l-195 -309q-25 -39 -63 -39h-25q-43 0 -55 39l-119 305v-99l-37 -307h-153l75 617h150q27 0 35 -2t18 -25zM580 1481l-19 -144h-168l-57 -473h-176 l57 473h-166l19 144h510z" />
<glyph unicode="&#x25fc;" horiz-adv-x="1054" d="M0 1055h1055v-1055h-1055v1055z" />
</font>
</defs>
</svg>
