<?xml version="1.0" standalone="no"?>
<!DOCTYPE svg PUBLIC "-//W3C//DTD SVG 1.1//EN" "http://www.w3.org/Graphics/SVG/1.1/DTD/svg11.dtd" >
<svg xmlns="http://www.w3.org/2000/svg" xmlns:xlink="http://www.w3.org/1999/xlink" version="1.1">
<metadata></metadata>
<defs>
<font id="aleolight" horiz-adv-x="1579" >
<font-face units-per-em="2048" ascent="1649" descent="-399" />
<missing-glyph horiz-adv-x="493" />
<glyph unicode="&#xfb01;" horiz-adv-x="1204" d="M92 946v41h172v88q0 86 29 168q27 76 80 129q56 56 129 82q77 27 172 27q191 0 297 -109l2 -4l2 -2q12 -12 18 -27q6 -18 6 -34q0 -20 -6 -35q-5 -12 -20 -27q-14 -14 -29 -20t-35 -6t-35 6q-13 5 -28 20q-17 17 -21 27q-6 15 -6 35q0 16 6 34q10 20 15 25 q-99 57 -234 35q-95 -17 -157 -76q-89 -83 -89 -252v-84h596v-905q13 0 36 -1t32 -1q11 0 26 -1t19 -1h21q40 -3 40 -37v-41h-172h-98h-172v41q0 34 41 37h19q4 0 19 1t26 1q9 0 31.5 1t35.5 1v831h-498v-831q13 0 35 -1t31 -1q11 0 26 -1t19 -1h21q41 -3 41 -37v-41h-173 h-94h-4h-168v41q0 34 41 37h19q4 0 19 1t26 1q9 0 29.5 1t33.5 1v829l-143 11q-29 3 -29 24z" />
<glyph unicode="&#xfb02;" horiz-adv-x="1323" d="M94 946v39h172v68q0 91 27 168q28 81 78 133q57 61 127 88q84 33 174 33q48 0 73 -2q14 -1 38 -3.5t34 -3.5q30 -2 66 -6q20 -2 51 -2h74v-1229q0 -80 41 -127q39 -45 122 -45q19 0 39 4l25 5q14 0 14 -13l4 -49q-15 -8 -45 -16q-24 -6 -53 -6q-54 0 -106 20 q-21 9 -39 21q-30 21 -37 30q-32 36 -45 78q-17 53 -17 96v1162q-72 4 -114 8q-82 4 -111 4q-73 0 -137 -25q-61 -24 -103 -69q-43 -49 -63 -111q-21 -64 -21 -143v-68h293v-74h-293v-831q13 0 36 -1t32 -1q11 0 26 -1t19 -1h19q41 -3 41 -37v-39h-173l-96 -2l-170 2v39 q0 34 41 37h21q4 0 18 1t25 1q9 0 30.5 1t34.5 1v831l-143 9q-29 3 -29 26z" />
<glyph horiz-adv-x="0" />
<glyph unicode="&#xd;" horiz-adv-x="395" />
<glyph horiz-adv-x="395" />
<glyph horiz-adv-x="395" />
<glyph unicode=" "  horiz-adv-x="493" />
<glyph unicode="&#x09;" horiz-adv-x="493" />
<glyph unicode="&#xa0;" horiz-adv-x="493" />
<glyph unicode="!" horiz-adv-x="436" d="M121 80q0 19 6 37q4 12 20 28t31 21q24 8 37 8t37 -8q15 -5 31 -21t20 -28q8 -24 8 -37q0 -15 -8 -39q-5 -14 -20 -29q-15 -14 -31 -20q-18 -6 -37 -6q-42 0 -68 26t-26 68zM172 776v88v586h94v-586v-88q0 -13 -2 -41t-2 -43q0 -28 -4 -90q-4 -58 -6 -102h-68 q-1 18 -2 52t-2 50q0 3 -3 38t-3 52q-2 29 -2 84z" />
<glyph unicode="&#x22;" horiz-adv-x="669" d="M143 1151v299h86v-299l-8 -158q-2 -15 -10 -26q-7 -11 -25 -11q-11 0 -22 11q-7 7 -10 26zM442 1151v299h84v-299l-10 -158q-3 -19 -8 -26q-7 -11 -25 -11q-11 0 -22 11q-7 7 -10 26z" />
<glyph unicode="#" horiz-adv-x="1146" d="M66 483v11v14l4 16h223l84 400h-258l4 39q3 32 45 32h219l88 414q3 19 19 31q13 10 30 10h41l-96 -455h305l98 455h41q15 0 24 -9t9 -24v-12l-90 -410h229l-4 -37q-6 -34 -47 -34h-188l-84 -400h229q33 0 33 -24l-4 -45h-268l-97 -455h-41q-16 0 -24 8t-8 25v12l88 410 h-305l-89 -414q-7 -25 -18 -33t-29 -8h-43l97 455h-189q-11 0 -20 6q-8 5 -8 22zM375 524h305l84 400h-305z" />
<glyph unicode="$" horiz-adv-x="1030" d="M53 172l29 41q13 16 29 16q10 0 22 -12q4 -4 16.5 -13.5t18.5 -15.5q18 -18 45 -36q41 -28 61 -37q53 -26 82 -33q52 -13 103 -16l33 651q-61 18 -138 49q-66 26 -116 68q-57 48 -84 102q-31 64 -31 154q0 77 24 137t80 116t127 84q82 32 172 35l11 172q0 11 8 23 q7 10 22 10h37l-12 -207q102 -6 182 -45q76 -37 141 -102l-22 -35q-9 -18 -27 -18q-12 0 -30 18q-5 5 -14 11t-21 13.5t-19 12.5q-29 21 -80 39q-50 18 -114 24l-29 -585q17 -5 48 -16.5t48 -16.5q49 -15 95 -37q48 -23 81 -47q44 -32 66 -62q32 -45 45 -84q14 -43 14 -108 q0 -95 -28 -166q-30 -76 -86 -135q-54 -57 -137 -96q-73 -34 -187 -41l-10 -215q0 -11 -8 -23q-5 -8 -23 -8h-37l13 246q-125 6 -228 57q-100 50 -172 131zM213 1098q0 -58 23 -109q22 -49 61 -78q44 -33 90 -55q42 -20 109 -41l28 565q-76 -3 -137 -28q-48 -20 -96 -64 q-39 -36 -58 -88q-20 -55 -20 -102zM524 66q78 6 146 34q60 25 106 74q51 54 68 105q20 59 20 129q0 68 -24 114q-21 41 -70 80q-43 34 -98 55q-79 30 -117 41z" />
<glyph unicode="%" horiz-adv-x="1564" d="M92 1102q0 93 23 158q24 67 65 114q37 42 96 68q55 24 121 24q63 0 119 -24q54 -24 96 -68q41 -44 66 -114q22 -62 22 -158q0 -90 -24 -158t-66 -113t-98 -69q-53 -23 -115 -23q-68 0 -121 23q-58 25 -96 69q-42 48 -65 113t-23 158zM172 1102q0 -86 16 -135 q17 -51 50 -93q30 -38 71 -53q36 -16 88 -16q47 0 86 16q47 20 74 53q32 40 49 93q17 52 17 135t-17 135t-49 92q-25 31 -74 53q-41 17 -86 17q-50 0 -88 -17q-44 -20 -71 -53q-34 -42 -50 -92q-16 -49 -16 -135zM213 0l1038 1430q5 7 15 14q9 6 24 6h68l-1041 -1432 q-12 -18 -34 -18h-70zM874 344q0 90 25 160q23 65 64 112q39 44 98 70q53 23 119 23q65 0 118 -23t97 -70q41 -43 65 -112q23 -65 23 -160q0 -88 -25 -158q-24 -69 -65 -112q-41 -44 -97 -68q-51 -22 -116 -22q-68 0 -119 22q-62 27 -98 68q-41 47 -64 112q-25 70 -25 158z M952 344q0 -76 19 -135q16 -48 49 -90q31 -39 72 -53q49 -17 88 -17t88 17q39 14 71 53q35 44 50 90q16 49 16 135t-16 135q-17 53 -50 94q-29 37 -71 54q-39 16 -88 16t-88 -16q-43 -18 -72 -54q-31 -39 -49 -94q-19 -59 -19 -135z" />
<glyph unicode="&#x26;" horiz-adv-x="1417" d="M82 371q0 81 24 141q27 66 74 123q45 53 111 98q79 54 135 74q-70 79 -109 158q-34 69 -34 165q0 72 24 134q21 54 74 104q52 49 117 72q73 26 149 26q67 0 129 -24q64 -25 109 -64q43 -37 71 -92q26 -50 29 -110q-6 -1 -13.5 -3.5l-10.5 -3.5q-16 -4 -37 -4q-11 0 -17 6 q-8 8 -10 17q-5 23 -25 61q-21 40 -47 66q-34 34 -73 53q-47 21 -105 21q-60 0 -112 -19q-47 -17 -86 -53q-38 -35 -56 -82q-20 -52 -20 -102q0 -86 43 -162q41 -72 133 -164l457 -451q45 71 73 154q25 74 35 154q4 16 8 20q8 8 21 8h55q-3 -98 -37 -198q-38 -113 -96 -195 l303 -299h-90q-15 0 -31 4q-9 2 -26 19l-209 206q-40 -45 -103 -98q-62 -52 -118 -78q-76 -35 -140 -51q-73 -18 -153 -18q-78 0 -152 24q-70 23 -133 76q-59 50 -96 123q-35 69 -35 164zM180 377q0 -77 31 -137q31 -61 78 -99q48 -39 106 -57q68 -21 117 -21q62 0 135 17 q66 15 121 45q57 31 102 70q42 36 84 88l-469 462q-2 2 -6 5.5t-6 5.5q-62 -25 -121 -68q-58 -42 -94 -90q-35 -47 -57 -104q-21 -56 -21 -117z" />
<glyph unicode="'" horiz-adv-x="374" d="M143 1151v299h86v-299l-8 -158q-2 -15 -10 -26q-7 -11 -25 -11q-11 0 -22 11q-7 7 -10 26z" />
<glyph unicode="(" horiz-adv-x="514" d="M111 645q0 112 16 234q17 128 47 225q42 134 86 225q61 125 133 234l43 -27q15 -8 15 -20q0 -5 -9 -23q-120 -192 -184 -408q-61 -207 -61 -440t61 -440q63 -212 184 -406q9 -18 9 -22q0 -17 -15 -23l-43 -26q-70 106 -133 235q-44 91 -86 225q-30 96 -47 226 q-16 122 -16 231z" />
<glyph unicode=")" horiz-adv-x="516" d="M66 -221q0 4 8 20q121 194 184 406q61 207 61 440t-61 440q-64 216 -184 408q-6 12 -6 23q0 13 14 20l41 27q81 -127 133 -234q50 -103 88 -225q30 -97 47 -225q15 -114 15 -234q0 -117 -15 -231q-17 -130 -47 -226q-38 -122 -88 -225t-133 -233l-41 24q-16 6 -16 25z " />
<glyph unicode="*" horiz-adv-x="774" d="M104 1356l27 47l193 -113q15 -9 26 -20q15 -15 25 -27q-10 20 -13 35q-2 10 -2 31v219h54v-217q0 -13 -4 -33q-4 -18 -11 -33q8 12 23 27q5 4 27 18l192 111l27 -45l-193 -111q-15 -9 -29 -16q-3 -1 -30 -6q18 -3 30 -6q13 -3 29 -13l195 -114l-27 -46l-194 113 q-15 9 -25 19q-2 2 -7 6t-9.5 8.5t-8.5 9.5l11 -33q4 -16 4 -28v-221h-54v219q0 22 2 30q4 18 11 31q-13 -17 -23 -24q-9 -7 -26 -17l-193 -113l-25 46l193 112q14 8 29 12q2 1 12.5 4.5t17.5 4.5q-24 4 -32 8q-3 1 -12 5t-15 7z" />
<glyph unicode="+" horiz-adv-x="1148" d="M94 649v76h438v461h82v-461h441v-76h-441v-465h-82v465h-438z" />
<glyph unicode="," horiz-adv-x="466" d="M147 86q0 36 25 61q27 27 64 27q42 0 67 -31t25 -80q0 -43 -11 -83q-15 -56 -30 -86q-15 -31 -49 -82q-12 -18 -64 -70l-16 14q-8 8 -8 19l4 8q4 8 6 10q1 1 26 31q15 18 31 47q23 41 29 59q14 39 16 70q-8 -4 -12 -4h-17q-39 0 -63 24q-23 23 -23 66z" />
<glyph unicode="-" horiz-adv-x="757" d="M143 565v84h475v-84h-475z" />
<glyph unicode="." horiz-adv-x="471" d="M143 78q0 16 7 37q5 15 20 30q17 17 29 21q24 8 39 8q12 0 36 -8q12 -4 29 -21t21 -30q8 -24 8 -37t-8 -37q-4 -12 -21 -29q-15 -16 -29 -20q-24 -8 -36 -8q-40 0 -68 28q-27 27 -27 66z" />
<glyph unicode="/" horiz-adv-x="845" d="M49 -86l637 1538q16 39 55 39h41l-635 -1536q-10 -22 -24 -31q-17 -10 -33 -10h-41z" />
<glyph unicode="0" horiz-adv-x="1263" d="M111 725q0 190 41 330q42 143 110 231q70 91 166 135q98 45 203 45q102 0 200 -45q96 -44 166 -135q73 -95 113 -231q41 -140 41 -330t-41 -330q-40 -136 -113 -231q-70 -91 -166 -135q-98 -45 -200 -45q-105 0 -203 45q-96 44 -166 135q-68 88 -110 231q-41 140 -41 330 zM213 725q0 -183 33 -301q37 -134 90 -205q56 -76 135 -115q73 -36 160 -36t160 36q80 39 133 115q54 78 90 205q35 125 35 301q0 173 -35 301q-34 125 -90 205q-55 79 -133 117q-73 36 -162 36q-87 0 -160 -36t-133 -117q-54 -73 -90 -205q-33 -121 -33 -301z" />
<glyph unicode="1" horiz-adv-x="923" d="M61 1085l418 369h76v-1376q75 -3 144 -7t101.5 -6t37.5 -2q34 -3 34 -30v-33h-747v33q0 27 33 30q2 0 12.5 1t30.5 2t41 2q98 4 145 6l70 4v1173q0 20 4 74l-320 -285q-8 -8 -24 -8q-18 0 -27 12z" />
<glyph unicode="2" horiz-adv-x="1112" d="M76 0v35q0 10 6 22q9 18 12 21l496 500q42 42 112 120q59 65 93 119q38 59 59 121q23 67 23 133q0 81 -27 139t-72 97q-51 41 -102 57q-58 18 -121 18q-71 0 -127 -20q-58 -21 -102 -59q-51 -44 -74 -89q-25 -45 -39 -114q-8 -35 -41 -35h-6h-4l-49 8q12 94 49 166 q36 71 98 123t135 78q68 24 166 24q88 0 158 -22q74 -24 133 -74q55 -47 90 -121q35 -75 35 -172q0 -72 -27 -151q-25 -74 -67 -136q-32 -48 -101 -124q-21 -23 -118 -125l-453 -463q36 9 68 12q50 4 71 4h555q3 39 6 74q1 8 1.5 17.5t1 15.5t1.5 10q3 12 3 16q3 49 43 49 h38h11v-217v-14v-43h-934z" />
<glyph unicode="3" horiz-adv-x="1107" d="M70 354l36 17q8 4 25 4q15 0 21 -4q10 -7 16 -21l8 -20q9 -27 17 -45q16 -36 28 -56q16 -27 45 -59q19 -21 66 -51q38 -24 90 -39q49 -14 119 -14q93 0 161 30t115 80q46 49 70 107q22 54 22 112q0 69 -20 125q-19 53 -70 98q-47 41 -129 66q-83 25 -198 25v69 q94 3 165 27q80 27 121 61q47 38 72 97q24 55 24 120q0 74 -26 134q-24 56 -68 94q-40 35 -100 53q-58 18 -119 18q-71 0 -127 -20q-61 -22 -102 -57q-47 -40 -74 -88t-43 -115q-9 -37 -39 -37h-10l-51 8q11 86 53 168q39 76 94 123q63 53 135 76q83 26 168 26q83 0 156 -24 q74 -24 129 -70q59 -49 88 -115q33 -74 33 -157q0 -66 -23 -127q-22 -58 -59 -101q-33 -39 -90 -71q-52 -30 -115 -45q158 -30 242 -123q82 -91 82 -236q0 -89 -37 -164q-38 -78 -99 -133q-62 -56 -147 -86t-184 -30q-128 0 -205 32q-84 35 -135 86q-54 54 -84 121 q-28 63 -47 131z" />
<glyph unicode="4" horiz-adv-x="1206" d="M70 487l727 963h88v-956h264v-54q0 -12 -6 -18t-21 -6h-237v-416h-90v416h-682q-14 0 -23 6t-12 18zM176 494h619v759q0 6 1 18.5t1 18.5q0 11 4 39z" />
<glyph unicode="5" horiz-adv-x="1040" d="M66 113l28 39q10 16 31 16q13 0 39 -16q28 -17 63 -33q42 -19 95 -33q59 -16 124 -16q85 0 156 26q69 25 127 80q54 51 84 125q31 76 31 170q0 81 -23 143q-26 70 -69 113q-51 51 -119 74q-76 26 -168 26q-51 0 -123 -10q-60 -8 -139 -31l-64 21l115 643h651v-43 q0 -21 -14 -35q-15 -12 -43 -12h-524l-88 -483q68 18 129 24q82 8 118 8q108 0 199 -32q80 -28 143 -91q57 -57 88 -139q29 -77 29 -172q0 -119 -39 -207q-38 -86 -108 -153q-67 -64 -160 -99q-85 -32 -193 -32q-68 0 -114 10q-57 12 -103 29q-40 15 -88 43q-47 28 -71 47z " />
<glyph unicode="6" horiz-adv-x="1103" d="M90 461q0 90 41 192q43 107 143 240l394 532q19 25 53 25h86l-432 -565q-11 -16 -31.5 -41.5t-28.5 -36.5q-25 -35 -47 -74q60 60 144 98q77 35 182 35q92 0 172 -30q79 -30 135 -86q59 -59 88 -136q33 -87 33 -178q0 -105 -35 -182q-38 -83 -98 -143q-59 -59 -152 -95 q-82 -32 -192 -32t-187 32q-82 34 -143 95q-56 56 -92 149q-33 85 -33 201zM184 438q0 -81 25 -151q23 -65 72 -117q50 -53 112 -78q65 -26 150 -26q89 0 157 26q73 28 121 76q49 49 76 117q29 73 29 145q0 74 -27 150q-24 67 -74 114q-53 50 -112 72q-67 25 -148 25 q-86 0 -159 -31q-68 -29 -121 -82q-54 -54 -76 -113q-25 -67 -25 -127z" />
<glyph unicode="7" horiz-adv-x="1126" d="M90 1174v212v62h105l858 2v-45q0 -15 -4 -31q-3 -10 -9 -20l-663 -1317q-11 -18 -23 -27q-13 -10 -37 -10h-65l668 1311q13 29 30 49h-760l-4 -66l-3 -49.5t-1 -21.5q-3 -49 -43 -49h-49z" />
<glyph unicode="8" horiz-adv-x="1132" d="M98 383q0 82 23 141q29 75 63 111q44 47 101 76q65 33 129 47q-63 18 -115 49q-42 25 -82 76q-29 37 -49 98q-18 55 -18 115q0 82 28 145q31 70 84 117q63 56 131 80q79 28 176 28q93 0 172 -28q72 -25 133 -80q53 -47 84 -117q29 -65 29 -145q0 -60 -18 -115 q-18 -57 -51 -98q-40 -51 -82 -76q-53 -32 -113 -49q60 -13 127 -47q56 -28 100 -76q39 -42 66 -111q22 -56 22 -141q0 -94 -34 -166q-35 -74 -97 -127q-59 -50 -147 -78q-89 -28 -193 -28q-101 0 -190 28q-90 28 -148 78q-64 55 -98 127q-33 70 -33 166zM197 385 q0 -77 26 -133q27 -59 76 -102q45 -40 119 -66q65 -23 151 -23q85 0 150 23q70 25 117 66t75 102q27 59 27 133q0 93 -35 158q-34 63 -88 100q-61 41 -121 55q-64 15 -127 15t-127 -15q-56 -13 -118 -55q-59 -40 -91 -100q-34 -64 -34 -158zM244 1094q0 -49 20 -111 q18 -55 58 -98q41 -44 102 -68q62 -24 143 -24q85 0 146 24q58 22 100 68q43 46 59 96q19 59 19 113q0 55 -23 116q-22 59 -61 95q-44 41 -102 61q-67 23 -138 23q-70 0 -137 -23q-54 -19 -100 -61q-43 -40 -64 -95q-22 -58 -22 -116z" />
<glyph unicode="9" horiz-adv-x="1087" d="M90 1030q0 91 35 172q34 78 96 137t146 93t186 34t176 -32q79 -34 137 -95q62 -65 90 -143q33 -91 33 -184q0 -56 -12 -109q-8 -34 -35 -102q-29 -62 -55 -105q-34 -54 -76 -114l-379 -557q-16 -25 -51 -25h-86l426 598q5 7 26.5 37t30.5 45q5 8 23 34t26 40 q-59 -65 -145 -103q-80 -35 -180 -35q-93 0 -164 29q-79 32 -131 84q-54 54 -84 131q-33 84 -33 170zM188 1036q0 -76 25 -143q23 -62 70 -109q42 -42 106 -67t139 -25q91 0 156 29q72 32 115 78q49 53 71 108q25 64 25 121q0 73 -27 146q-25 68 -69 112q-47 47 -111 72 q-67 26 -137 26q-81 0 -148 -24q-57 -20 -114 -74q-47 -45 -74 -108q-27 -64 -27 -142z" />
<glyph unicode=":" horiz-adv-x="466" d="M139 78q0 13 8 37q5 13 21 30q17 17 29 21q24 8 36 8q13 0 37 -8q15 -5 31 -21q17 -17 21 -30q8 -24 8 -37t-8 -37q-4 -12 -21 -29q-15 -14 -31 -20q-24 -8 -37 -8q-37 0 -65 28q-29 29 -29 66zM139 895q0 13 8 37q5 15 21 31q16 15 29 20q24 8 36 8q13 0 37 -8 q22 -11 31 -20q16 -16 21 -31q8 -24 8 -37q0 -17 -8 -37q-5 -15 -21 -31q-15 -15 -31 -20q-18 -6 -37 -6q-39 0 -65 26q-29 29 -29 68z" />
<glyph unicode=";" horiz-adv-x="468" d="M143 895q0 10 9 37q6 20 18 31q14 15 31 20q24 8 37 8q12 0 36 -8q22 -11 31 -20q16 -16 21 -31q6 -18 6 -37q0 -22 -6 -37q-5 -15 -21 -31q-15 -15 -31 -20q-18 -6 -36 -6q-42 0 -68 26q-27 27 -27 68zM147 88q0 32 27 59t64 27q42 0 67 -31t25 -77t-11 -86 q-15 -56 -30 -86q-11 -24 -49 -80q-16 -24 -64 -72l-16 14q-8 8 -8 19q0 2 4 10q2 4 6 8q1 1 26 31q15 18 31 47q23 41 29 59q16 46 18 70q-4 -2 -14 -2q-2 0 -9 -1t-10 -1q-34 0 -61 27q-25 25 -25 65z" />
<glyph unicode="&#x3c;" horiz-adv-x="972" d="M94 668v41l770 393v-66q0 -8 -8 -20q-6 -8 -20 -17l-566 -286q-36 -19 -73 -27q43 -9 73 -24l566 -289q14 -9 20 -17q8 -12 8 -18v-68z" />
<glyph unicode="=" horiz-adv-x="1128" d="M143 494v75h846v-75h-846zM143 815v74h846v-74h-846z" />
<glyph unicode="&#x3e;" horiz-adv-x="972" d="M111 270v68q0 14 4 20q8 12 20 17l570 287q37 18 71 26q-6 2 -19 5t-20 5q-6 2 -32 15l-570 286q-24 13 -24 37v66l766 -393v-41z" />
<glyph unicode="?" horiz-adv-x="841" d="M66 1323q35 35 61 53q45 31 78 45q65 27 90 33q49 12 106 12q68 0 136 -22q57 -19 110 -62q49 -40 76 -98q29 -63 29 -129q0 -77 -25 -135q-26 -59 -59 -98q-37 -43 -82 -74q-60 -48 -80 -62q-37 -27 -64 -57q-25 -28 -28 -63l-13 -168h-65l-4 176v4q0 44 24 74 q29 36 60 61q53 42 80 61q23 16 77 70q41 44 62 88q24 50 24 119q0 57 -20 98q-21 44 -59 74q-43 35 -84 47q-46 14 -103 14q-73 0 -117 -16q-39 -14 -83 -41q-38 -23 -54 -39q-18 -18 -24 -18q-19 0 -25 12zM272 78q0 16 7 37q5 15 20 30q14 14 31 21q24 8 37 8q12 0 36 -8 q15 -5 31 -21q16 -17 21 -30q6 -18 6 -37t-6 -37q-4 -12 -21 -29q-14 -14 -31 -20q-24 -8 -36 -8q-40 0 -68 28q-27 27 -27 66z" />
<glyph unicode="@" horiz-adv-x="1660" d="M98 561q0 177 60 320q61 146 166 254q104 107 241 168t299 61q137 0 262 -43q122 -42 224 -127q95 -82 155 -211q58 -125 58 -289q0 -107 -31 -202q-32 -99 -80 -160q-51 -66 -121 -103q-68 -36 -149 -36q-91 0 -135 47q-47 50 -50 137q-57 -93 -129 -137 q-73 -43 -155 -43q-53 0 -101 20q-41 17 -69 53q-30 38 -41 82q-15 58 -15 103q0 87 35 174q38 93 96 157q65 71 158 115q95 45 211 45q48 0 103 -10q48 -9 86 -27l-95 -356q-7 -26 -16 -84q-6 -38 -6 -68q0 -49 10 -71q14 -30 31 -45q21 -17 43 -23q16 -4 51 -4 q62 0 113 29t94 88q40 55 65 137q25 83 25 182q0 147 -51 264q-51 116 -135 189q-84 72 -199 110q-112 37 -242 37q-146 0 -266 -53q-129 -57 -219 -151q-99 -104 -152 -232q-55 -134 -55 -297q0 -183 57 -317q60 -141 158 -232q95 -88 231 -139q131 -49 283 -49 q142 0 277 37q129 35 227 100q6 6 18 6q15 0 21 -16l14 -37q-114 -76 -252 -117q-140 -41 -305 -41q-172 0 -315 54q-151 57 -254 157q-114 111 -172 252q-62 151 -62 342zM567 457q0 -30 11 -76q9 -38 30 -62q23 -26 51 -40q30 -15 72 -15q35 0 76 12q29 9 76 46 q36 29 67 86q35 66 54 141l81 315q-3 1 -21.5 6.5t-27.5 6.5q-32 4 -61 4q-92 0 -168 -39q-78 -40 -127 -97q-50 -59 -82 -137q-31 -76 -31 -151z" />
<glyph unicode="A" d="M78 0v47q0 38 39 41l65 6l555 1356h105l553 -1356l67 -6q39 -3 39 -41v-47h-67h-41h-39h-15h-192v47q0 38 47 41l4 1q4 1 8 1q2 0 12.5 1t18.5 1q31 0 51 2l-143 355l-10 26h-693l-10 -26l-143 -355q20 -2 53 -2q8 0 17.5 -1t11.5 -1q3 0 7 -1t5 -1q47 -3 47 -41v-47 h-192h-15h-37h-43h-65zM475 553h629l-287 707q-1 4 -6.5 17t-7.5 21q-2 6 -7.5 21t-7.5 24q-2 -9 -7 -24.5t-7 -20.5q-2 -8 -7.5 -23.5t-6.5 -17.5z" />
<glyph unicode="B" horiz-adv-x="1306" d="M102 1409v39h174h416q120 0 215 -25q91 -24 150 -71q62 -53 88 -117q31 -77 31 -156q0 -49 -21 -110q-17 -49 -57 -99q-30 -37 -94 -77q-55 -34 -125 -52q173 -24 264 -112q92 -89 92 -234q0 -96 -33 -166q-34 -72 -96 -125q-56 -48 -154 -77q-92 -27 -207 -27h-469h-172 v41q0 34 39 37h21q4 0 19 1t26 1q9 0 31.5 1t35.5 1v1286q-13 0 -35.5 1t-31.5 1q-11 0 -26 1t-19 1h-21q-41 3 -41 37zM381 84h362q191 0 289 82t98 231q0 65 -26 125q-24 50 -76 92q-52 39 -121 60q-67 20 -162 20h-364v-610zM381 770h313q93 0 172 27q71 24 117 67 q49 45 68 94q20 50 20 111q0 144 -92 221q-95 76 -287 76h-311v-596z" />
<glyph unicode="C" horiz-adv-x="1318" d="M76 725q0 170 51 301q54 139 145 234q82 89 226 151q126 53 286 53q212 0 463 -102v-328h-49q-40 0 -43 49q0 6 -1.5 33l-4.5 81t-6 110q-151 67 -359 67q-134 0 -241 -45q-112 -47 -191 -129q-78 -84 -125 -205q-43 -119 -43 -270q0 -155 43 -274t123 -205 q79 -86 182 -127q102 -45 232 -45q69 0 137 10q56 8 113 31q55 22 94 49q54 37 88 69q2 1 10 9q4 2 11 2q8 0 16 -8l41 -43q-39 -41 -98 -87q-53 -38 -115 -65q-68 -29 -139 -43t-166 -14q-148 0 -275 53q-130 54 -215 149q-92 103 -139 234q-51 142 -51 305z" />
<glyph unicode="D" horiz-adv-x="1556" d="M102 0v41q0 34 41 37h21q4 0 19 1t26 1q9 0 31.5 1t35.5 1v1286q-13 0 -35.5 1t-31.5 1q-11 0 -26 1t-19 1h-21q-41 3 -41 37v39h174h502q158 0 283 -49q122 -48 217 -146q93 -96 141 -227q51 -139 51 -301t-51 -301q-49 -134 -141 -229q-95 -98 -217 -146 q-125 -49 -283 -49h-502h-174zM381 84h397q133 0 240 43q109 44 184 125q72 78 117 201q43 119 43 272q0 151 -43 270q-45 123 -117 201q-75 81 -184 125q-107 43 -240 43h-397v-1280z" />
<glyph unicode="E" horiz-adv-x="1273" d="M102 1409v39h174h869v-86v-213h-51q-40 0 -43 49q0 7 -1.5 28t-3.5 59.5t-4 76.5h-661v-586h577v-84h-577v-604h661q0 10 2 34.5t3 35.5q2 31 2 65q0 8 1 17t1 10q3 51 43 51h51v-213v-88h-869h-172v41q0 34 39 37h21q4 0 19 1t26 1q9 0 31.5 1t35.5 1v1286 q-13 0 -35.5 1t-31.5 1q-11 0 -26 1t-19 1h-21q-41 3 -41 37z" />
<glyph unicode="F" horiz-adv-x="1218" d="M102 0v41q0 34 41 37h21q4 0 19 1t26 1q9 0 31.5 1t35.5 1v1286q-13 0 -35.5 1t-31.5 1q-11 0 -26 1t-19 1h-21q-41 3 -41 37v39h174h818h51h12v-299h-49q-42 0 -45 49q0 4 -1 23.5t-3 59t-4 81.5h-674v-608h541v-88h-541v-584q13 0 36 -1t32 -1q11 0 26 -1t19 -1h20 q39 -3 39 -37v-41h-172h-105h-174z" />
<glyph unicode="G" horiz-adv-x="1429" d="M76 725q0 174 51 305q55 144 145 234q97 97 230 149q131 51 301 51q119 0 262 -28q152 -30 248 -74v-328h-49q-42 0 -45 49q0 6 -1.5 31.5t-4 80t-5.5 110.5q-147 69 -409 69q-144 0 -254 -45q-116 -48 -195 -129q-78 -81 -123 -205t-45 -270q0 -147 45 -274 q44 -125 123 -207t191 -129q107 -45 245 -45q74 0 136 6q56 5 114 22q40 11 101 39q36 16 96 49v392h-279q-12 0 -18 6q-8 8 -8 16v57h399v-514q-56 -38 -113 -67q-62 -32 -124 -51q-77 -20 -144 -31q-85 -10 -168 -10q-154 0 -284 53q-138 56 -224 149q-92 99 -143 234 q-51 134 -51 305z" />
<glyph unicode="H" horiz-adv-x="1660" d="M102 0v41q0 34 41 37h21q4 0 19 1t26 1q9 0 31.5 1t35.5 1v1286q-13 0 -35.5 1t-31.5 1q-11 0 -26 1t-19 1h-21q-41 3 -41 37v39h174h105h172v-39q0 -34 -39 -37h-20q-4 0 -19 -1t-26 -1q-9 0 -32 -1t-36 -1v-594h907v594q-13 0 -34.5 1t-30.5 1q-11 0 -27 1t-20 1h-19 q-41 3 -41 37v39h172h107h172v-39q0 -34 -41 -37h-19q-4 0 -20 -1t-27 -1q-9 0 -30.5 -1t-34.5 -1v-1286q13 0 34.5 -1t30.5 -1q11 0 27 -1t20 -1h19q41 -3 41 -37v-41h-172h-107h-172v41q0 34 41 37h19q4 0 20 1t27 1q9 0 30.5 1t34.5 1v612h-907v-612q13 0 36 -1t32 -1 q11 0 26 -1t19 -1h20q39 -3 39 -37v-41h-172h-105h-174z" />
<glyph unicode="I" horiz-adv-x="647" d="M102 0v41q0 34 41 37h21q4 0 19 1t26 1q9 0 31.5 1t35.5 1v1286q-13 0 -35.5 1t-31.5 1q-11 0 -26 1t-19 1h-21q-41 3 -41 37v41h174h105h172v-41q0 -34 -39 -37h-20q-4 0 -19 -1t-26 -1q-9 0 -32 -1t-36 -1v-1286q13 0 36 -1t32 -1q11 0 26 -1t19 -1h20q39 -3 39 -37 v-41h-172h-105h-174z" />
<glyph unicode="J" horiz-adv-x="921" d="M78 14q4 20 4 29q2 10 2 29q4 12 8 16q6 6 19 6q6 0 22 -4q10 -2 31 -6q5 -1 19 -4t22 -4q28 -4 55 -4q78 0 139 24t107 76q42 48 67 127q23 84 23 182v887q-13 0 -37 1t-35 1q-13 0 -29.5 1t-21.5 1h-24q-41 3 -41 37v41h188h104h174v-41q0 -34 -40 -37h-21q-4 0 -19 -1 t-26 -1q-9 0 -32 -1t-36 -1v-885q0 -130 -28 -215q-29 -89 -86 -155q-52 -60 -137 -97q-85 -32 -181 -32q-32 0 -94 8q-41 5 -96 22z" />
<glyph unicode="K" horiz-adv-x="1470" d="M102 0v41q0 34 41 37h19q4 0 20 1t27 1q9 0 30.5 1t34.5 1v1288q-13 0 -34.5 1t-30.5 1q-11 0 -27 1t-20 1h-19q-41 3 -41 37v39h172h105h172v-39q0 -34 -39 -37h-20q-4 0 -19.5 -1t-26.5 -1q-9 0 -31.5 -1t-35.5 -1v-590h86q25 0 35 2l24 6q2 1 11 5t12 6q6 4 22 20 l537 551h-66q-14 0 -32.5 1t-24.5 1h-25q-40 3 -40 37v41h264h18h143v-41q0 -34 -40 -37h-13q-2 0 -10.5 -1t-15.5 -1h-39l-555 -571q-14 -16 -35 -33q-15 -12 -33 -18q18 -5 39 -19q16 -10 35 -33l590 -616q7 0 21 -1t20 -1h26h13q40 -3 40 -37v-41h-43h-86h-24h-8h-275v41 q0 34 41 37h27h59q13 0 37 1t33 1l-563 575q-4 4 -11 10t-10 9q-6 6 -22 14q-9 4 -27 8q-10 2 -41 2h-94v-616q13 0 35.5 -1t31.5 -1q11 0 26.5 -1t19.5 -1h20q39 -3 39 -37v-41h-172h-105h-172z" />
<glyph unicode="L" horiz-adv-x="1191" d="M102 0v41q0 34 41 37h21q4 0 19 1t26 1q9 0 31.5 1t35.5 1v1286q-13 0 -35.5 1t-31.5 1q-11 0 -26 1t-19 1h-21q-41 3 -41 37v39h174h105h172v-39q0 -34 -41 -37h-18q-4 0 -20.5 -1t-27.5 -1q-9 0 -30.5 -1t-34.5 -1v-1278h598q3 47 6 72q1 7 1.5 16t1 15.5t1.5 9.5 q2 8 2 18q3 49 43 49h10h41v-149v-82v-39h-18h-18h-773h-174z" />
<glyph unicode="M" horiz-adv-x="1974" d="M102 0v41q0 34 41 37h21q4 0 19 1t26 1q9 0 31.5 1t35.5 1v1286q-13 0 -35.5 1t-31.5 1q-11 0 -26 1t-19 1h-21q-41 3 -41 37v39h174h72q17 0 23 -2q5 -2 16 -16l586 -1008q12 -21 26 -62q2 5 6.5 16.5t6.5 16.5q9 23 14 31l569 1006q10 14 17 16q6 2 22 2h74h172v-39 q0 -34 -41 -37h-18q-4 0 -20 -1t-27 -1q-9 0 -31 -1t-35 -1v-1286q13 0 35 -1t31 -1q11 0 27 -1t20 -1h18q41 -3 41 -37v-41h-172h-92h-178v41q0 34 41 37h20q4 0 20 1t27 1q9 0 33 1t37 1v1153q0 37 2 57l-569 -1013q-15 -27 -41 -27h-17q-26 0 -41 27l-585 1013 q2 -20 2 -57v-1153q13 0 36.5 -1t32.5 -1q11 0 27 -1t20 -1h21q41 -3 41 -37v-41h-178h-91h-174z" />
<glyph unicode="N" horiz-adv-x="1615" d="M102 0v41q0 34 41 37h21q4 0 19 1t26 1q9 0 31.5 1t35.5 1v1286q-13 0 -35.5 1t-31.5 1q-11 0 -26 1t-19 1h-21q-41 3 -41 37v41h174h52q10 0 22 -4q7 -2 17 -16l938 -1256q-2 20 -2 59v1135q-13 0 -37 1t-33 1q-11 0 -27 1t-20 1h-21q-41 3 -41 37v39h179h92h172v-39 q0 -34 -41 -37h-19q-4 0 -20 -1t-27 -1q-9 0 -30.5 -1t-34.5 -1v-1368h-52q-22 0 -36 20l-942 1258q2 -20 2 -59v-1137q13 0 35.5 -1t31.5 -1q11 0 28 -1t21 -1h21q41 -3 41 -37v-41h-178h-91h-174z" />
<glyph unicode="O" horiz-adv-x="1542" d="M76 725q0 164 51 303q49 135 141 234q90 97 219 151q127 53 279 53q156 0 283 -53q126 -52 217 -151q92 -99 141 -234q51 -139 51 -303q0 -166 -51 -305q-49 -135 -141 -234q-88 -95 -217 -149q-127 -53 -283 -53q-152 0 -279 53q-132 55 -219 149q-92 99 -141 234 q-51 139 -51 305zM184 725q0 -159 41 -272q44 -122 121 -205q81 -88 184 -129q107 -43 236 -43q131 0 238 43q103 41 184 129q73 79 119 205q41 113 41 272t-41 272q-46 126 -119 205q-81 88 -184 129q-112 45 -238 45q-124 0 -236 -45q-103 -41 -184 -129 q-77 -83 -121 -205q-41 -113 -41 -272z" />
<glyph unicode="P" horiz-adv-x="1214" d="M102 0v41q0 34 41 37h21q4 0 19 1t26 1q9 0 31.5 1t35.5 1v1286q-13 0 -35.5 1t-31.5 1q-11 0 -26 1t-19 1h-21q-41 3 -41 37v39h174h353q256 0 385 -111t129 -319q0 -100 -35 -174q-34 -78 -102 -137q-64 -55 -162 -91q-101 -32 -215 -32h-248v-502q13 0 34.5 -1 t30.5 -1q11 0 27.5 -1t20.5 -1h18q41 -3 41 -37v-41h-172h-105h-174zM381 668h248q98 0 172 26q76 27 129 74t80 111q28 67 28 141q0 168 -102 256q-107 90 -307 90h-248v-698z" />
<glyph unicode="Q" horiz-adv-x="1554" d="M74 725q0 164 51 303q49 135 141 234q90 97 219 151q127 53 281 53t281 -53q129 -54 219 -151q88 -95 139 -234t51 -303q0 -103 -22 -207q-20 -96 -62 -178q-40 -79 -100 -145q-57 -63 -133 -111l377 -403h-89q-21 0 -36 6q-21 9 -29 18l-309 334q-50 -21 -135 -39 q-75 -16 -152 -16q-154 0 -281 53q-132 55 -219 149q-92 99 -141 234q-51 139 -51 305zM182 725q0 -153 43 -272q46 -126 119 -205q81 -88 184 -129q107 -43 238 -43t238 43q103 41 184 129q73 79 119 205q41 113 41 272t-41 272q-46 126 -119 205q-81 88 -184 129 q-112 45 -238 45t-238 -45q-103 -41 -184 -129q-73 -79 -119 -205q-43 -119 -43 -272z" />
<glyph unicode="R" horiz-adv-x="1384" d="M102 0v41q0 34 41 37h21q4 0 19 1t26 1q9 0 31.5 1t35.5 1v1286q-13 0 -35.5 1t-31.5 1q-11 0 -26 1t-19 1h-21q-39 3 -39 37v39h172h353q250 0 375 -96q122 -98 122 -283q0 -81 -28 -151q-26 -65 -82 -121q-56 -53 -129 -86q-75 -34 -172 -43q27 -17 45 -41l434 -547 q6 0 18.5 -1t18.5 -1h26h15q39 -3 39 -37v-41h-54h-79h-11q-16 0 -28 6q-10 5 -23 21l-465 587q-22 25 -37 33q-16 8 -61 8h-172v-573q13 0 34.5 -1t30.5 -1q11 0 26.5 -1t19.5 -1h20q41 -3 41 -37v-41h-172h-105h-174zM381 733h233q88 0 172 23q72 20 129 67q58 48 82 103 q27 61 27 135q0 157 -100 229q-105 76 -295 76h-248v-633z" />
<glyph unicode="S" horiz-adv-x="1052" d="M117 63v27v27v270h49q42 0 45 -49q0 -14 2 -37q1 -12 2 -39.5t2 -42.5q1 -16 2 -46.5t2 -45.5q116 -55 289 -55q94 0 154 24q65 23 114 72q47 47 70 106q24 62 24 134q0 78 -30 127q-27 45 -82 81q-60 39 -117 58q-23 7 -66.5 21.5t-66.5 21.5q-70 22 -135 49 q-67 28 -115 68q-57 48 -84 102q-31 64 -31 156q0 74 27 141q25 62 82 119q52 52 131 82t180 30q176 0 373 -84v-297h-49q-40 0 -43 52q0 4 -1 25t-4 70.5t-5 96.5q-119 51 -271 51q-75 0 -139 -22q-58 -20 -100 -62q-43 -43 -62 -90q-22 -55 -22 -106q0 -70 32 -123 q28 -47 82 -82q47 -31 117 -57q18 -6 63 -21.5t70 -23.5q61 -19 135 -50q62 -26 115 -67q52 -40 84 -103q31 -60 31 -147q0 -90 -31 -172q-28 -75 -92 -139q-61 -61 -146 -95q-84 -34 -196 -34q-203 0 -389 79z" />
<glyph unicode="T" horiz-adv-x="1275" d="M61 1149v299h15h30h1068h28h15v-299h-50q-42 0 -45 49q0 23 -8 162h-422v-1278q13 0 36 -1t32 -1q11 0 26 -1t19 -1h20q41 -3 41 -37v-41h-174h-104h-172v41q0 34 41 37h18q4 0 20 1t27 1q9 0 31 1t35 1v1278h-424q-2 -40 -4 -78.5t-3 -58t-1 -25.5q-3 -49 -43 -49h-52z " />
<glyph unicode="U" horiz-adv-x="1538" d="M49 1409v39h172h105h198v-39q0 -34 -41 -37h-24q-6 0 -26 -1t-34 -1q-13 0 -37 -1t-36 -1v-815q0 -102 30 -188q33 -93 86 -152q54 -63 140 -102q81 -37 188 -37q105 0 186 37q84 38 140 100q57 63 88 154q30 89 30 188v815q-12 0 -36 1t-37 1q-14 0 -34 1t-26 1h-24 q-41 3 -41 37v39h198h105h172v-39q0 -34 -41 -37h-18q-4 0 -20.5 -1t-27.5 -1q-9 0 -30.5 -1t-34.5 -1v-815q0 -114 -39 -223q-38 -106 -109 -183q-70 -75 -174 -120q-101 -43 -227 -43q-128 0 -229 43q-104 45 -174 120q-71 77 -109 183q-37 104 -37 223v815q-13 0 -35.5 1 t-31.5 1q-11 0 -26 1t-19 1h-21q-39 3 -39 37z" />
<glyph unicode="V" horiz-adv-x="1562" d="M49 1409v39h88h82h219v-39q0 -34 -41 -37h-16q-3 0 -16 -1t-23 -1q-8 0 -29.5 -1t-33.5 -1l473 -1149q17 -45 30 -100q10 45 31 100l469 1149q-12 0 -32.5 1t-28.5 1q-10 0 -23 1t-16 1h-19q-39 3 -39 37v39h215h4h82h86v-39q0 -34 -41 -37h-12q-3 0 -12 -1t-14 -1 q-4 0 -18 -1t-21 -1l-566 -1368h-92l-565 1368q-8 0 -21 1t-18 1t-15 1t-12 1h-14q-41 3 -41 37z" />
<glyph unicode="W" horiz-adv-x="2258" d="M49 1409v39h88h86h215v-39q0 -34 -41 -37h-16q-3 0 -16 -1t-23 -1q-8 0 -29 -1t-34 -1l348 -1137q8 -27 10 -45q8 -38 10 -49q1 7 4.5 24t5.5 25q2 9 7 23.5t6 19.5l409 1192q1 5 15 19q8 8 24 8h29q15 0 24 -6q7 -4 15 -21l409 -1190l13 -43q2 -7 5 -24.5t5 -24.5 q8 33 10 47q2 18 10 45l349 1137q-13 0 -35 1t-31 1q-12 0 -26.5 1t-16.5 1h-18q-39 3 -39 37v39h215h6h80h86v-39q0 -34 -39 -37h-15q-2 0 -10 -1t-14 -1q-5 0 -16 -1t-17 -1l-430 -1368h-94l-428 1257q-8 23 -15 52q-8 -36 -14 -52l-430 -1257h-92l-432 1368q-6 0 -18 1 t-17 1t-13 1t-10 1h-14q-41 3 -41 37z" />
<glyph unicode="X" horiz-adv-x="1499" d="M90 0v41q0 34 41 37h14q2 0 12 1t17 1q6 0 19 1t22 1l465 661l-440 625q-8 0 -21.5 1t-19.5 1q-7 0 -17 1t-12 1h-14q-41 3 -41 37v39h65h31h74h2h225v-39q0 -34 -39 -37h-16q-2 0 -14.5 -1t-22.5 -1q-8 0 -28 -1t-32 -1l398 -575q4 12 6 16q3 8 8 16l383 543 q-13 0 -34.5 1t-30.5 1q-12 0 -26 1t-17 1h-17q-41 3 -41 37v39h234h6h61h39h66v-39q0 -34 -41 -37h-15q-2 0 -11.5 -1t-16.5 -1q-5 0 -18 -1t-21 -1l-445 -618l465 -668q8 0 20 -1t17 -1t15 -1t12 -1h12q41 -3 41 -37v-41h-59h-31h-74h-8h-221v41q0 34 41 37h14q1 0 15 1 t24 1q8 0 28.5 1t32.5 1l-417 610q-1 -4 -15 -28l-409 -582q13 0 35 -1t30 -1q10 0 25 -1t18 -1h19q41 -3 41 -37v-41h-234h-12h-57h-37h-68z" />
<glyph unicode="Y" horiz-adv-x="1406" d="M49 1409v39h66h10h82h16h205v-39q0 -34 -41 -37h-14q-3 0 -15.5 -1t-21.5 -1q-8 0 -26 -1t-29 -1l381 -610q15 -24 24 -45q3 -7 9.5 -22.5t9.5 -22.5q3 7 9 22.5t9 22.5q7 16 25 45l378 610q-10 0 -29 1t-26 1q-9 0 -20.5 1t-14.5 1h-16q-41 3 -41 37v39h205h16h82h10h66 v-39q0 -34 -41 -37q-70 -4 -76 -4l-485 -770v-516q13 0 35.5 -1t31.5 -1q11 0 26 -1t19 -1h21q39 -3 39 -37v-41h-172h-105h-172v41q0 34 41 37h19q4 0 19 1t26 1q9 0 31.5 1t35.5 1v516l-485 770q-6 0 -76 4q-41 3 -41 37z" />
<glyph unicode="Z" horiz-adv-x="1296" d="M106 0v39q0 18 11 35l921 1288h-798q-1 -17 -3.5 -45t-3.5 -39t-2 -33.5t-2 -30.5q-1 -6 -2 -12.5t-1.5 -9.5t-0.5 -4q-3 -49 -43 -49h-51v309h1047v-35q0 -22 -15 -43l-919 -1284h819q3 39 6 86q1 10 2 31.5t2 29.5q1 6 2 12.5t1.5 10t0.5 4.5q3 51 43 51h49v-311h-1063 z" />
<glyph unicode="[" horiz-adv-x="550" d="M174 -270v1822h326v-36q0 -13 -8 -21t-25 -8h-209v-1692h209q17 0 25 -8t8 -20v-37h-326z" />
<glyph unicode="\" horiz-adv-x="847" d="M66 1491h43q39 0 55 -39l637 -1538h-39q-18 0 -35 10q-16 9 -25 31z" />
<glyph unicode="]" horiz-adv-x="548" d="M51 -233q0 12 8 20t23 8h211v1692h-211q-15 0 -23 8t-8 21v36h326v-1822h-326v37z" />
<glyph unicode="^" horiz-adv-x="931" d="M86 819l348 631h62l350 -631h-70q-11 0 -20 6q-4 3 -15 19l-245 446q-2 4 -8.5 15.5t-8.5 17.5l-12 31q-2 -5 -6 -16.5t-6 -16.5q-3 -8 -17 -31l-245 -446q-10 -15 -13 -17q-12 -8 -20 -8h-74z" />
<glyph unicode="_" horiz-adv-x="1167" d="M180 -209h807v-70h-807v70z" />
<glyph unicode="`" horiz-adv-x="555" d="M119 1466h94q21 0 37 -8q12 -6 24 -24l160 -246h-53q-11 0 -23 4q-3 1 -16 14z" />
<glyph unicode="a" horiz-adv-x="1050" d="M82 248q0 64 37 119q39 58 114 96q81 41 203 65q134 26 295 29v107q0 144 -59 217q-60 75 -183 75q-74 0 -124 -20q-42 -17 -86 -45q-47 -30 -60 -43q-23 -23 -39 -23q-20 0 -30 19l-17 30q81 81 168 121q90 41 199 41q84 0 143 -26q61 -24 102 -74q42 -51 62 -119 q20 -67 20 -153v-584q8 0 24 -1t23 -1h33h15q41 -3 41 -37v-41h-136h-36h-3q-32 0 -38 29l-15 131q-52 -49 -82 -74q-45 -35 -88 -55q-59 -26 -96 -35q-53 -12 -115 -12q-47 0 -100 16q-47 14 -88 47q-38 30 -62 80q-22 52 -22 121zM176 250q0 -53 17 -88q14 -34 45 -62 q24 -22 63 -34q34 -11 78 -11q54 0 108 13q56 14 93 34q29 16 79 56q15 12 72 69v265q-132 -3 -250 -23q-101 -17 -172 -49q-66 -29 -100 -72q-33 -42 -33 -98z" />
<glyph unicode="b" horiz-adv-x="1120" d="M45 1450v41h148h96l2 -649q68 90 155 141q89 53 201 53q186 0 293 -131q104 -128 104 -389q0 -121 -28 -209q-33 -104 -86 -168q-58 -70 -139 -110q-84 -41 -191 -41q-144 0 -407 57v51v1313q-9 0 -27 1t-25 1h-30q-3 0 -8 1t-7 1h-12q-39 3 -39 37zM289 106 q209 -43 293 -43q92 0 157 33q71 36 113 92q44 56 70 144q22 76 22 184q0 224 -84 334q-82 108 -242 108q-99 0 -182 -53q-81 -52 -147 -145v-654z" />
<glyph unicode="c" horiz-adv-x="940" d="M78 510q0 109 33 213q31 97 88 166q54 65 145 108q78 37 195 37q42 0 108 -14q37 -8 125 -33l53 -16v-256h-49q-42 0 -45 49q0 10 -2 24q-3 22 -6 58q-1 13 -2 39t-2 39q-98 34 -174 34q-89 0 -156 -30t-115 -90q-47 -59 -71 -142q-25 -86 -25 -186q0 -105 25 -191 q24 -83 71 -139q43 -55 111 -86q67 -31 145 -31q73 0 125 19q61 22 82 37q40 28 51 39q16 16 29 16q14 0 21 -10l26 -33q-27 -34 -59 -57q-48 -35 -80 -47q-42 -16 -98 -29q-53 -12 -111 -12q-98 0 -176 37q-81 35 -139 102q-62 72 -90 164q-33 95 -33 221z" />
<glyph unicode="d" horiz-adv-x="1146" d="M78 508q0 119 28 207q32 102 87 168q61 74 139 112q84 41 190 41t180 -39q78 -38 132 -110v522q-10 0 -27 1t-23 1h-32q-3 0 -8 1t-7 1h-10q-41 3 -41 37v41h148h96v-1411h45q7 0 17 -1t12 -1h14h10q39 -3 39 -37v-10v-31h-137h-53q-26 0 -29 27l-10 161 q-68 -93 -158 -147q-87 -53 -205 -53q-188 0 -293 129q-104 128 -104 391zM178 508q0 -226 84 -336q81 -106 242 -106q99 0 182 53t148 145v537q-57 83 -132 123q-70 37 -161 37q-93 0 -158 -33q-64 -33 -113 -94q-43 -54 -69 -144q-23 -79 -23 -182z" />
<glyph unicode="e" horiz-adv-x="1017" d="M78 530q0 102 33 203q30 90 90 160q58 67 143 104q89 39 195 39q85 0 159 -30t127 -86q51 -51 84 -142q31 -85 31 -190q0 -19 -8 -31q-5 -8 -21 -8h-735v-19q0 -116 27 -202q28 -90 76 -146q50 -59 118 -88q73 -31 156 -31q74 0 133 19q66 22 94 37q42 22 62 39 q19 16 32 16q14 0 21 -10l27 -33q-22 -28 -66 -57q-40 -27 -90 -45q-53 -19 -107 -31q-46 -10 -114 -10q-111 0 -191 35q-88 39 -147 106q-60 68 -94 170q-35 103 -35 231zM180 612h672q0 77 -23 148q-19 57 -63 108q-40 46 -98 70q-61 25 -127 25q-78 0 -142 -25 q-62 -24 -108 -70q-48 -48 -74 -110q-28 -67 -37 -146z" />
<glyph unicode="f" horiz-adv-x="784" d="M92 946v41h174v129q0 83 23 154q20 62 63 108q45 49 99 68q56 20 127 20q40 0 63 -4q31 -6 57 -16l-2 -47q0 -15 -20 -15q-19 0 -33 2q-35 5 -53 5q-48 0 -92 -15q-45 -15 -74 -49q-30 -35 -47 -84q-17 -50 -17 -131v-125h330v-74h-328v-831q13 0 36 -1t32 -1q11 0 26 -1 t19 -1h19q41 -3 41 -37v-41h-173h-94h-172v41q0 34 41 37h19q4 0 19 1t26 1q9 0 30.5 1t34.5 1v829l-145 11q-29 3 -29 24z" />
<glyph unicode="g" horiz-adv-x="1056" d="M61 -106q0 79 54 139q53 59 147 90q-56 19 -82 49q-28 32 -28 90q0 24 8 45t24 47q12 20 39 43q28 25 53 37q-71 42 -112 113t-41 162q0 66 27 135q22 58 73 102q48 42 115 66q68 24 149 24q64 0 123 -16q57 -15 103 -45h262v-35q0 -24 -29 -27l-155 -12q34 -50 45 -88 q14 -46 14 -104q0 -73 -27 -134q-27 -62 -73 -102t-115 -65q-65 -23 -148 -23q-94 0 -159 25q-45 -25 -68 -58q-24 -34 -24 -65q0 -44 30 -68q27 -22 82 -35q34 -8 115 -12q21 -1 65.5 -4t67.5 -4q66 -3 131 -12q69 -10 117 -33q57 -28 82 -64q28 -41 28 -110 q0 -63 -30 -121q-29 -57 -93 -105q-59 -44 -143 -71q-92 -29 -192 -29q-102 0 -189 23q-78 21 -135 59q-56 38 -82 86q-29 53 -29 107zM150 -96q0 -50 22 -84q25 -39 68 -66q50 -31 110 -45q69 -16 148 -16q85 0 145 16q65 17 117 49q47 29 78 78q28 45 28 94q0 46 -26 78 q-25 31 -66 45q-61 21 -98 25q-40 4 -115 8q-21 1 -60 3t-59 3q-59 3 -112 12q-30 -11 -74 -34q-21 -11 -55 -45q-24 -24 -37 -56q-14 -35 -14 -65zM213 707q0 -59 18 -105q18 -47 54 -80q40 -36 88 -53q52 -18 114 -18q65 0 117 18q50 17 86 53t53 80q19 49 19 107 q0 52 -19 104q-16 44 -55 80t-86 53q-52 19 -115 19q-59 0 -114 -19q-48 -17 -88 -53q-37 -34 -54 -80q-18 -49 -18 -106z" />
<glyph unicode="h" horiz-adv-x="1277" d="M100 0v41q0 34 41 37h13h34q7 0 27.5 2t32.5 2v1327q-10 0 -26 1t-23 1h-31q-3 0 -8.5 1t-7.5 1h-11q-41 3 -41 37v39h148h98v-645q71 86 160 139q89 51 205 51q85 0 147 -26q64 -27 107 -76q41 -46 63 -121q21 -70 21 -160v-569q9 0 27 -1t24 -1q8 0 18 -1t12 -1h15h12 q39 -3 39 -37v-41h-147h-97v651q0 143 -65 226q-64 79 -201 79q-103 0 -186 -51q-87 -54 -154 -141v-682q10 0 26 -1t23 -1q8 0 18.5 -1t12.5 -1h16h11q41 -3 41 -37v-41h-148h-98h-148z" />
<glyph unicode="i" horiz-adv-x="577" d="M102 0v41q0 34 41 37h13h34q7 0 27.5 2t32.5 2v856q-10 0 -26 1t-23 1h-31q-3 0 -8.5 1t-7.5 1h-11q-41 3 -41 37v41h148h98v-938q10 0 26 -1t23 -1q8 0 18.5 -1t12.5 -1h16h11q41 -3 41 -37v-41h-148h-98h-148zM209 1370q0 15 8 35q7 17 19 29q15 15 28 20q15 6 35 6 t35 -6q13 -5 28 -20q16 -16 21 -29q8 -24 8 -35q0 -15 -8 -35q-5 -12 -21 -28q-13 -13 -28 -19q-20 -8 -35 -8t-35 8q-15 6 -28 19t-19 28q-8 20 -8 35z" />
<glyph unicode="j" horiz-adv-x="516" d="M8 -356l4 49q0 12 15 12q2 0 22 -4t41 -4q84 0 123 45t39 129v1067q-10 0 -26 1t-23 1h-31q-3 0 -7.5 1t-6.5 1h-13q-41 3 -41 37v39h148h98v-1147q0 -48 -16 -98q-14 -45 -45 -80q-28 -33 -76 -51q-49 -19 -107 -19q-37 0 -53 4q-27 7 -45 17zM213 1370q0 20 6 35 q5 13 21 29t26 20q15 6 35 6t35 -6t29 -20t20 -29q8 -16 8 -35q0 -15 -8 -35q-5 -13 -20 -28q-12 -12 -29 -19q-20 -8 -35 -8t-35 8q-12 5 -26 19q-16 16 -21 28q-6 15 -6 35z" />
<glyph unicode="k" horiz-adv-x="1155" d="M100 0v41q0 34 41 37h13h34q7 0 27.5 2t32.5 2v1327q-10 0 -26 1t-23 1h-31q-3 0 -8.5 1t-7.5 1h-11q-41 3 -41 37v39h148h98v-907h47q11 0 27 4q15 4 29 18l352 336q-33 2 -51 2q-41 3 -41 37v41h168h41h106v-41q0 -34 -39 -37h-14q-4 0 -13 -1t-14 -1t-16 -1t-17 -1 l-364 -346q-3 -3 -10.5 -9.5t-10.5 -9.5q-12 -12 -20 -16q28 -16 29 -18q4 -4 11 -12.5t11 -12.5l399 -434q6 0 18 -1t17 -1h23h10h10q41 -3 41 -37v-41h-45h-80h-6q-12 0 -24 6q-8 4 -23 19l-428 456q-23 23 -33 27q-15 6 -45 6h-45v-432q10 0 26 -1t23 -1q8 0 18.5 -1 t12.5 -1h16h11q41 -3 41 -37v-41h-148h-98h-148z" />
<glyph unicode="l" horiz-adv-x="571" d="M100 0v41q0 34 41 37h13h34q7 0 27.5 2t32.5 2v1327q-10 0 -26 1t-23 1h-31q-3 0 -8.5 1t-7.5 1h-11q-41 3 -41 37v41h148h98v-1409q10 0 26 -1t23 -1q8 0 18.5 -1t12.5 -1h16h11q41 -3 41 -37v-41h-148h-98h-148z" />
<glyph unicode="m" horiz-adv-x="1808" d="M106 0v41q0 34 39 37h15h33q7 0 27 2t34 2v856q-10 0 -27 1t-24 1h-31q-3 0 -7.5 1t-6.5 1h-13q-39 3 -39 37v39h148h53q28 0 31 -25l8 -147q27 39 64 76q43 43 71 61q52 31 82 39q35 12 92 12q113 0 179 -63q65 -62 90 -183q19 68 51 111q34 45 78 76t92 45 q46 14 104 14q73 0 135 -24q61 -24 105 -74q41 -46 63 -121q23 -77 23 -164v-569q9 0 27 -1t24 -1q8 0 18.5 -1t12.5 -1h14h12q39 -3 39 -37v-41h-147h-96v651q0 147 -66 228q-65 77 -184 77q-53 0 -103 -18q-46 -17 -86 -57q-38 -38 -59 -97q-20 -56 -20 -133v-569 q9 0 26 -1t23 -1q8 0 18 -1t12 -1h17h10q41 -3 41 -37v-41h-147h-99v651q0 148 -59 228q-57 77 -172 77q-84 0 -154 -49q-73 -52 -127 -137v-688q10 0 27 -1t24 -1q8 0 18.5 -1t12.5 -1h14h13q39 -3 39 -37v-41h-148h-96h-148z" />
<glyph unicode="n" horiz-adv-x="1288" d="M106 0v41q0 34 39 37h15h33q7 0 27 2t34 2v856q-10 0 -27 1t-24 1h-31q-3 0 -7.5 1t-6.5 1h-13q-39 3 -39 37v39h148h53q28 0 31 -25l8 -153q66 83 162 141q92 53 207 53q85 0 147 -26q64 -27 107 -76q41 -46 63 -121q23 -77 23 -160v-569q9 0 26 -1t23 -1q8 0 18.5 -1 t12.5 -1h16h10q41 -3 41 -37v-41h-147h-99v651q0 143 -65 226q-64 79 -201 79q-103 0 -186 -51q-87 -54 -154 -141v-682q10 0 27 -1t24 -1q8 0 18.5 -1t12.5 -1h14h13q39 -3 39 -37v-41h-148h-96h-148z" />
<glyph unicode="o" horiz-adv-x="1085" d="M78 510q0 108 33 217q31 101 90 166q60 66 147 104q89 39 197 39q105 0 194 -39q90 -40 146 -104q64 -74 92 -166q31 -102 31 -217q0 -117 -31 -215q-30 -94 -92 -166q-56 -64 -146 -104q-84 -37 -194 -37q-113 0 -197 37q-87 38 -147 104q-57 63 -90 166 q-33 104 -33 215zM180 510q0 -105 23 -184q26 -91 67 -142q48 -60 115 -90q70 -31 160 -31q87 0 157 31q67 30 115 90q47 59 68 142q22 86 22 184t-22 184q-21 83 -68 142q-50 63 -115 92q-68 30 -157 30q-92 0 -160 -30q-65 -29 -115 -92q-41 -51 -67 -142 q-23 -79 -23 -184z" />
<glyph unicode="p" horiz-adv-x="1122" d="M43 -319q0 33 41 36h12h35q7 0 27 2t32 2v1217q-10 0 -26 1t-23 1h-30q-3 0 -9 1t-8 1h-10q-41 3 -41 37v39h147h54q16 0 22 -4q8 -5 8 -21l11 -157q64 87 157 145q91 55 203 55q186 0 293 -131q104 -128 104 -389q0 -121 -28 -209q-26 -92 -86 -168q-53 -67 -140 -110 q-84 -41 -188 -41q-105 0 -180 37q-74 36 -131 112v-416q9 0 26 -1t23 -1q8 0 18.5 -1t12.5 -1h16h10q41 -3 41 -36v-41h-147h-99h-147v41zM289 223q55 -84 129 -123q70 -37 162 -37t157 33q71 36 113 92q50 66 70 144q22 76 22 184q0 224 -84 334q-81 106 -240 106 q-104 0 -184 -51q-79 -50 -145 -147v-535z" />
<glyph unicode="q" horiz-adv-x="1101" d="M82 506q0 111 31 209q31 101 86 168q58 70 139 110q84 41 190 41q145 0 408 -57v-51v-1207q10 0 26 -1t23 -1h33q3 0 7.5 -1t6.5 -1h10q41 -3 41 -37v-38h-147h-98v26v-26h-148v38q0 34 41 37h12q2 0 14 1t21 1q7 0 27.5 1t32.5 1v461q-66 -86 -158 -141 q-86 -51 -201 -51q-186 0 -291 129q-106 130 -106 389zM184 506q0 -224 84 -334q81 -106 240 -106q104 0 184 51q79 51 146 145v653q-209 43 -291 43q-95 0 -158 -32q-71 -36 -115 -92q-40 -50 -67 -144q-23 -79 -23 -184z" />
<glyph unicode="r" horiz-adv-x="892" d="M106 0v41q0 19 9.5 27t29.5 10q25 0 109 4v856q-84 4 -109 4q-20 2 -29.5 10t-9.5 27v39h148h51q19 0 25 -6q8 -8 8 -25l8 -215q51 127 131 195q81 69 203 69q39 0 84 -10q32 -7 74 -29l-13 -67q-3 -17 -20 -17q-2 0 -4.5 1t-7 2t-7.5 2q-4 1 -12 4.5t-14 5.5 q-10 4 -43 8q-32 4 -55 4q-116 0 -191 -72t-121 -206v-580q84 -4 109 -4q20 -2 29.5 -10t9.5 -27v-41h-148h-96h-148z" />
<glyph unicode="s" horiz-adv-x="874" d="M135 41v248h49q42 0 45 -49q0 -13 2 -25q1 -5 5 -53q4 -40 6 -74q79 -33 198 -33q61 0 113 19q44 16 82 49q33 29 51 72q16 46 16 88q0 49 -24 84q-21 30 -66 57q-47 28 -90 41q-17 5 -52 16.5t-52 16.5q-45 12 -105 34q-42 14 -90 50q-40 30 -63 71q-25 45 -25 107 q0 57 23 104q25 52 67 88q45 39 107 60q64 22 139 22q118 0 270 -53v-244h-49q-42 0 -45 49q0 13 -2 25q-1 7 -2 25t-2 26q-3 34 -6 72q-83 27 -162 27q-47 0 -100 -17q-51 -16 -78 -41q-31 -24 -51 -63q-17 -33 -17 -74q0 -49 25 -80q28 -35 63 -53q53 -27 91 -39 q17 -5 52 -16.5t52 -16.5q11 -3 104 -37q49 -18 91 -49q39 -29 63 -72q27 -49 27 -104q0 -64 -25 -125q-22 -53 -70 -98q-49 -45 -112 -68q-68 -24 -152 -24q-150 0 -301 57z" />
<glyph unicode="t" horiz-adv-x="727" d="M35 938v37l174 12l24 365q0 7 9 16q8 8 16 8h47v-389h322v-74h-322v-690q0 -46 10 -71q13 -32 31 -50q19 -19 43 -28q29 -11 57 -11q37 0 62 11q33 15 47 24q24 16 31 23q10 10 20 10q9 0 17 -8l26 -45q-42 -45 -98 -68q-67 -26 -125 -26q-105 0 -162 57t-57 176v696 h-146q-11 0 -20 9q-6 6 -6 16z" />
<glyph unicode="u" horiz-adv-x="1224" d="M41 979v39h147l99 2v-651q0 -143 65 -226q67 -82 201 -82q94 0 184 52q91 56 156 141v684q-9 0 -26 1t-23 1h-31q-3 0 -8.5 1t-7.5 1h-11q-41 3 -41 37v39h148l98 2v-938q9 0 26 -1t23 -1q8 0 18.5 -1t12.5 -1h16h11q41 -3 41 -37v-41h-148h-53q-31 0 -31 27l-8 151 q-69 -86 -164 -141q-92 -53 -207 -53q-87 0 -149 26q-58 24 -105 78q-41 46 -63 121q-23 77 -23 160v569q-10 0 -26 1t-23 1h-30q-3 0 -9 1t-8 1h-10q-41 3 -41 37z" />
<glyph unicode="v" horiz-adv-x="1185" d="M37 979v39h74h75h207v-39q0 -34 -41 -37h-12l-12 -1q-12 -1 -21 -1q-7 0 -28 -1t-33 -1l313 -748q5 -13 14 -45q4 -9 7 -22q1 -4 1.5 -8.5t1 -7.5t1.5 -5q2 7 5 21.5t5 21.5q7 23 16 45l314 748q-10 0 -27 1t-23 1h-30q-3 0 -8 1t-7 1h-12q-41 3 -41 37v39h205h76h78v-39 q0 -34 -41 -37h-11q-1 0 -8 -1t-14 -1h-39l-395 -940h-86l-398 940l-67 2q-39 3 -39 37z" />
<glyph unicode="w" horiz-adv-x="1718" d="M37 979v39h80l76 2l200 -2v-39q0 -34 -41 -37h-12l-12 -1q-12 -1 -21 -1q-7 0 -28 -1t-33 -1l239 -748q11 -43 11 -45q2 -11 4 -21l3 -15t1 -7l12 43q9 32 14 45l273 811q7 23 28 23h41q22 0 29 -23l270 -811q19 -59 25 -88q4 30 8 43q12 43 13 45l239 748q-10 0 -26 1 t-23 1h-31q-3 0 -7.5 1t-6.5 1h-10q-41 3 -41 37v39h198h72h86v-39q0 -34 -41 -37h-10q-1 0 -8.5 -1t-14.5 -1h-39l-313 -940h-72q-17 0 -24 23l-279 827q-8 21 -10 29l-6 30l-6 -30q-2 -8 -10 -29l-283 -827q-7 -23 -25 -23h-67l-316 940h-28q-5 0 -11 1t-8 1h-10h-10 q-39 3 -39 37z" />
<glyph unicode="x" horiz-adv-x="1155" d="M98 0v41q0 34 41 37q19 0 56 2l313 442l-297 418l-64 2q-41 3 -41 37v39h48h92h2h6h156v-39q0 -34 -41 -37q-21 0 -50 -2l259 -375q2 13 18 37l238 338q-33 2 -54 2q-41 3 -41 37v39h156h10h90h47v-39q0 -34 -41 -37q-22 0 -63 -2l-299 -414l315 -446q37 -2 58 -2 q39 -3 39 -37v-41h-93h-55h-153v41q0 34 38 37q23 0 58 2l-275 395q-5 -18 -14 -33l-258 -362q39 -2 61 -2q41 -3 41 -37v-41h-155h-53h-95z" />
<glyph unicode="y" horiz-adv-x="1183" d="M35 979v39h67h82h207v-39q0 -34 -41 -37h-12l-12 -1q-12 -1 -21 -1q-7 0 -27 -1t-32 -1l317 -737q2 -5 5 -15.5t5 -15.5q1 -5 5.5 -15.5t5.5 -15.5q2 5 5 15.5t5 15.5l12 31l314 737q-10 0 -27 1t-23 1h-30q-3 0 -8 1t-7 1h-10q-41 3 -41 37v39h205h76h75v-39 q0 -34 -40 -37h-11q-1 0 -8 -1t-14 -1h-37l-551 -1268q-4 -10 -16 -22q-10 -10 -29 -10h-70l181 397l-398 903l-61 2q-41 3 -41 37z" />
<glyph unicode="z" horiz-adv-x="1021" d="M111 0v39q0 15 16 37l639 866h-516q-1 -11 -2 -34.5t-2 -33.5q-1 -8 -2 -25t-2 -24q-2 -12 -2 -22q-3 -49 -45 -49h-50v256v8h736v-41q0 -21 -15 -39l-637 -862h559q1 10 2.5 31t2.5 32q1 8 2 24t2 23q2 12 2 21q3 49 45 49h8h41v-256h-37h-16h-729z" />
<glyph unicode="{" horiz-adv-x="571" d="M78 610v62q35 0 65 12q28 11 50 33q18 18 32 49q13 29 13 61q0 45 -11 109q-7 39 -22 106q-11 50 -21 109q-10 62 -10 111q0 53 21 114q19 55 55 94q39 42 92 62t121 20h55v-41q0 -13 -8 -18q-9 -6 -16 -6h-35q-38 0 -80 -17q-37 -15 -62 -43q-26 -30 -41 -69 q-14 -38 -14 -92q0 -64 8 -113q8 -48 21 -109q10 -46 20 -108q8 -49 8 -109q0 -39 -12 -69q-11 -28 -33 -53q-23 -27 -49 -41q-33 -18 -57 -23q24 -5 57 -23q31 -17 49 -38q20 -22 33 -56q12 -30 12 -69q0 -60 -8 -109q-10 -62 -20 -108q-13 -62 -21 -109q-8 -49 -8 -113 q0 -54 14 -92q15 -39 41 -69q25 -28 62 -43q42 -17 80 -17h35q7 0 16 -6q10 -7 10 -16v-43h-57q-63 0 -121 22q-53 20 -92 62q-37 40 -55 92q-19 55 -19 114q0 64 8 113q8 52 21 107q15 67 22 106q9 52 9 109q0 38 -11 63q-14 31 -32 49t-50 31q-30 12 -65 12z" />
<glyph unicode="|" horiz-adv-x="425" d="M174 -360v1912h76v-1912h-76z" />
<glyph unicode="}" horiz-adv-x="569" d="M53 -227q0 13 8 18q6 4 17 4h33q39 0 82 17q33 13 61 45q26 30 41 69q16 43 16 90q0 51 -10 113q-12 74 -20 111q-15 70 -21 106q-10 62 -10 109q0 39 12 69q12 29 35 56q20 23 47 38q33 18 57 23q-24 5 -57 23q-22 12 -47 41q-22 25 -33 53q-12 30 -12 69q0 60 8 109 q7 43 21 108q9 43 20 109q10 62 10 113q0 49 -16 92q-15 39 -41 69q-30 34 -61 46q-35 14 -80 14h-35q-8 0 -17 6q-8 5 -8 18v43h56q62 0 120 -22q55 -21 93 -62q37 -40 55 -92q20 -58 20 -116q0 -49 -10 -111q-11 -67 -20 -107q-19 -84 -23 -106q-8 -47 -8 -111 q0 -39 10 -61q13 -29 33 -49q22 -22 49 -33q30 -12 66 -12v-62q-36 0 -66 -12t-49 -31q-20 -20 -33 -49q-10 -22 -10 -63q0 -62 8 -109q10 -56 21 -106q16 -70 22 -107q10 -62 10 -110q0 -59 -20 -117q-16 -47 -58 -92q-40 -43 -90 -62q-58 -22 -120 -22h-56v43z" />
<glyph unicode="~" horiz-adv-x="1171" d="M135 444q0 49 17 105q12 41 47 84q24 31 75 55q44 21 103 21q47 0 106 -19q36 -12 109 -45q77 -35 104 -45q50 -18 95 -18q37 0 67 12q29 12 53 39q21 24 33 59q12 34 12 74h80q0 -54 -16 -107q-11 -36 -47 -81q-30 -37 -76 -58q-44 -20 -102 -20q-45 0 -107 20 q-16 5 -108 45q-70 30 -105 43q-58 21 -94 21q-33 0 -70 -15q-30 -12 -51 -36q-20 -23 -33 -60q-14 -40 -14 -74h-78z" />
<glyph unicode="&#xa1;" horiz-adv-x="452" d="M131 940q0 39 29 68q28 28 65 28q13 0 37 -8q17 -6 31 -20q15 -16 20 -29q9 -27 9 -37q0 -12 -9 -39q-5 -17 -20 -31t-31 -20q-24 -8 -37 -8q-37 0 -65 28q-29 29 -29 68zM182 203q0 16 1 44.5t1 41.5t1 41t1 43q0 28 4 90q0 6 3 43.5t4 60.5h65q1 -22 4 -57t4 -47 q4 -62 4 -90q0 -15 1 -42t1 -40t1.5 -42.5t1.5 -45.5v-563h-97v563z" />
<glyph unicode="&#xa2;" horiz-adv-x="952" d="M92 510q0 115 31 213q30 93 90 166q59 71 143 108q70 29 142 35v2l4 70l6 141q0 13 10 23t21 10h36l-6 -135v-4l-6 -105q44 -4 109 -18q51 -11 116 -31l50 -14v-256h-50q-40 0 -43 49q0 1 -0.5 4t-1.5 8.5t-2 11.5q-1 8 -2 28t-2 30q-3 38 -6 78q-93 34 -170 34l-2 -2 l-33 -671l-10 -219q5 0 15 -1.5t14 -1.5q71 0 123 19q61 22 82 37q40 28 51 39q16 16 30 16t21 -10l27 -33q-26 -33 -60 -57q-46 -33 -82 -47q-45 -17 -96 -29q-44 -10 -111 -10h-18l-10 -215q0 -11 -8 -23q-8 -8 -23 -8h-37l6 119l6 133q-43 8 -94 29q-78 34 -137 102 q-62 72 -90 164q-33 95 -33 221zM190 510q0 -98 27 -191q25 -85 70 -139q45 -57 112 -88q16 -8 52 -16l45 878q-45 -6 -95 -26q-66 -29 -114 -90q-45 -57 -70 -142q-27 -93 -27 -186z" />
<glyph unicode="&#xa3;" horiz-adv-x="1206" d="M76 647v33q0 15 10 25t27 10h170v301q0 105 24 178q25 77 80 141q51 59 133 95q78 34 185 34q77 0 135 -18q61 -19 104 -53q52 -41 76 -76q39 -57 55 -94l-39 -23q-6 -4 -22 -4q-20 0 -31 16q-4 6 -19 29t-24 35q-20 25 -55 53q-31 24 -76 37q-51 14 -104 14 q-83 0 -142 -26q-62 -27 -100 -74q-42 -52 -62 -115q-20 -64 -20 -149v-299h491v-41q0 -11 -10 -21q-8 -8 -22 -8h-459v-311q0 -93 -37 -154q-36 -60 -102 -104q7 1 22.5 2t22.5 2q28 4 45 4h807v-41q0 -15 -13 -31q-11 -14 -32 -14h-994v66q28 10 68 34q30 18 57 52 q29 36 41 69q17 46 17 92v334h-207z" />
<glyph unicode="&#xa4;" horiz-adv-x="1089" d="M115 307l157 156q-35 43 -57 102q-22 58 -22 123q0 66 20 119q21 55 57 100l-155 158l49 51l158 -158q50 40 102 60q53 20 121 20q66 0 119 -20q59 -22 102 -57l158 157l51 -51l-158 -158q40 -50 60 -102q20 -53 20 -121q0 -66 -20 -119q-21 -57 -58 -102l156 -158 l-49 -51l-160 158q-45 -37 -102 -58q-53 -20 -119 -20t-119 20q-57 21 -102 58l-160 -158zM266 686q0 -52 23 -106q21 -50 59 -88q39 -39 88 -60q52 -22 109 -22q56 0 108 22q47 19 88 60q39 39 60 88q22 52 22 108q0 55 -22 107t-60 90t-88 59q-57 23 -108 23 q-55 0 -109 -23q-47 -20 -88 -61q-38 -38 -59 -88q-23 -57 -23 -109z" />
<glyph unicode="&#xa5;" horiz-adv-x="1144" d="M74 1450h82q28 0 41 -27l352 -682q2 -4 8 -16.5t8 -19.5q2 -6 5 -18.5t5 -18.5q8 30 27 73l354 682q7 13 15 19q12 8 24 8h82l-434 -819h356v-60h-374v-120h374v-60h-374v-391h-99v391h-374v60h374v120h-374v60h356z" />
<glyph unicode="&#xa6;" horiz-adv-x="413" d="M170 -360v794h76v-794h-76zM170 758v794h76v-794h-76z" />
<glyph unicode="&#xa7;" horiz-adv-x="948" d="M96 731q0 79 47 141q48 64 152 101q-49 33 -92 90q-35 49 -35 125q0 54 25 106q27 55 65 88q45 39 107 60q70 24 139 24q90 0 166 -28q71 -26 133 -82l-21 -33q-7 -14 -24 -14q-11 0 -29 12q-33 22 -47 29q-36 18 -72 28q-47 13 -104 13q-50 0 -103 -17q-41 -13 -79 -43 q-35 -27 -52 -63q-18 -38 -18 -76q0 -43 27 -82q24 -34 67 -61q67 -42 94 -54q20 -9 59 -25t52 -22q37 -16 109 -53q54 -28 96 -64q40 -34 65 -83q27 -56 27 -111q0 -87 -43 -148q-44 -62 -127 -100q58 -43 90 -88q33 -47 33 -121q0 -69 -23 -125q-22 -54 -69 -98 q-48 -45 -113 -68q-67 -24 -152 -24q-106 0 -184 35t-139 90l22 35q7 10 11 12q8 4 18 4q14 0 33 -16t51 -35q43 -26 78 -37q50 -16 119 -16q61 0 110 18q51 19 84 47q32 28 51 74q17 41 17 88q0 54 -25 92q-26 39 -71 70q-36 25 -101 53q-10 4 -49.5 22t-62.5 27 q-65 27 -115 51q-59 29 -100 64q-47 41 -70 80q-27 47 -27 108zM182 743q0 -33 21 -73q17 -32 55 -62q33 -26 78 -49q56 -29 94 -45q16 -7 49.5 -21.5t50.5 -21.5q12 -5 97 -49q76 36 104 82q33 54 33 112q0 42 -19 82q-17 35 -49 64q-38 34 -73 51q-7 3 -38.5 19t-49.5 24 q-82 37 -93 41q-41 15 -92 43q-96 -43 -129 -86q-39 -51 -39 -111z" />
<glyph unicode="&#xa8;" horiz-adv-x="792" d="M139 1315q0 18 6 33q5 12 19 26t26 19q20 8 33 8q11 0 31 -8q17 -7 29 -19q9 -9 16 -26q8 -20 8 -33q0 -16 -6 -31t-18 -27q-11 -11 -29 -18q-15 -6 -31 -6q-18 0 -33 6q-13 5 -26 18q-14 14 -19 27q-6 15 -6 31zM489 1315q0 15 7 33q5 13 18 26q14 14 27 19q15 6 32 6 q18 0 33 -6q13 -5 27 -19q13 -13 18 -26q8 -20 8 -33q0 -11 -8 -31q-6 -15 -18 -27t-27 -18t-33 -6q-17 0 -32 6t-27 18t-18 27q-7 18 -7 31z" />
<glyph unicode="&#xa9;" horiz-adv-x="1679" d="M102 725q0 109 25 197q27 94 76 176q53 88 114 149q63 62 150 115q82 49 176 76q91 26 197 26q105 0 196 -26q101 -29 176 -74q88 -52 152 -117q64 -64 115 -149q43 -72 73 -176q27 -95 27 -197q0 -103 -27 -197q-30 -104 -73 -176q-51 -85 -115 -149q-64 -65 -152 -117 q-75 -45 -176 -74q-91 -26 -196 -26q-106 0 -197 26q-101 29 -176 74q-83 50 -150 117q-61 61 -114 149q-49 82 -76 176q-25 88 -25 197zM162 725q0 -142 53 -266q54 -126 145 -217q98 -98 215 -148q124 -53 265 -53q142 0 266 53q120 51 217 148q88 88 143 217 q54 127 54 266t-54 266q-55 129 -143 217q-91 91 -217 148q-117 53 -266 53q-148 0 -265 -53q-122 -55 -215 -148q-91 -91 -145 -217q-53 -124 -53 -266zM401 725q0 101 35 188q34 84 96 146t146 96q82 33 186 33q41 0 99 -8q49 -10 81 -23q42 -17 72 -35t64 -49l-25 -33 q-6 -12 -20 -12q-12 0 -27 12q-45 30 -47 31q-39 19 -76 29q-54 14 -117 14q-77 0 -153 -29q-71 -27 -121 -77q-48 -48 -76 -121q-26 -68 -26 -162q0 -96 26 -164q28 -73 76 -121q54 -54 113 -75q70 -25 145 -25q90 0 149 20q66 23 119 64q13 10 23 10q8 0 10 -2q1 -1 3 -2 t3 -2l33 -31q-60 -61 -143 -98q-77 -35 -201 -35q-101 0 -180 33q-87 37 -142 94q-57 60 -92 146q-33 82 -33 188z" />
<glyph unicode="&#xaa;" horiz-adv-x="729" d="M117 1004q0 35 22 71t68 58q57 28 125 41q77 15 182 18v51q0 78 -35 119t-110 41q-44 0 -74 -12q-29 -12 -49 -23q-23 -13 -35 -25t-27 -12q-12 0 -20 15l-12 22q53 53 102 74q51 22 123 22q105 0 155 -59q54 -63 54 -160v-385l-33 -2q-8 0 -16 4q-1 0 -9 17l-12 69 q-25 -25 -49 -43t-53 -31q-26 -12 -58 -18q-30 -6 -69 -6q-37 0 -64 8t-55 29q-20 15 -37 49q-14 28 -14 68zM186 1008q0 -25 11 -47q9 -22 26 -33q21 -14 39 -19q21 -6 45 -6q26 0 62 8q23 5 55 21q26 13 47 31q3 3 19 15.5t24 20.5v142q-177 -6 -250 -39q-78 -35 -78 -94z " />
<glyph unicode="&#xab;" horiz-adv-x="776" d="M102 524v15l248 387l31 -17q16 -10 16 -24q0 -9 -8 -25l-186 -299q-8 -14 -23 -29q16 -16 23 -28l186 -303q8 -16 8 -23q0 -16 -16 -26l-31 -15zM365 524v15l245 387l33 -15q16 -10 16 -26q0 -7 -8 -23l-188 -301q-11 -19 -21 -29q12 -12 21 -28l188 -301q8 -16 8 -25 q0 -16 -16 -26l-33 -15z" />
<glyph unicode="&#xac;" horiz-adv-x="1126" d="M127 649v76h848v-377h-82v301h-766z" />
<glyph unicode="&#xad;" horiz-adv-x="757" d="M143 565v84h475v-84h-475z" />
<glyph unicode="&#xae;" horiz-adv-x="1679" d="M102 725q0 109 25 197q27 94 76 176q53 88 114 149q67 67 150 117q75 45 176 74q91 26 197 26q105 0 196 -26q101 -29 176 -74q82 -50 150 -117q69 -69 117 -149q43 -72 73 -176q27 -95 27 -197q0 -103 -27 -197q-30 -104 -73 -176q-51 -85 -115 -149q-64 -65 -152 -117 q-75 -45 -176 -74q-91 -26 -196 -26q-106 0 -197 26q-101 29 -176 74q-83 50 -150 117q-61 61 -114 149q-49 82 -76 176q-25 88 -25 197zM162 725q0 -142 53 -266q54 -126 145 -217q98 -98 215 -148q124 -53 265 -53q142 0 266 53q120 51 217 148q88 88 143 217 q54 127 54 266t-54 266q-55 129 -143 217q-91 91 -217 148q-117 53 -266 53q-148 0 -265 -53q-122 -55 -215 -148q-91 -91 -145 -217q-53 -124 -53 -266zM565 272v908h254q156 0 238 -60q80 -59 80 -180q0 -105 -66 -168q-71 -68 -186 -82q12 -6 22 -16t19 -25l291 -377h-82 q-13 0 -17 2q-6 3 -14 15l-277 358q-11 14 -20 19q-12 6 -41 6h-113v-400h-88zM653 737h152q121 0 184 51q62 50 62 142q0 95 -56 139q-52 41 -176 41h-166v-373z" />
<glyph unicode="&#xaf;" horiz-adv-x="829" d="M135 1282v66h559v-66h-559z" />
<glyph unicode="&#xb0;" horiz-adv-x="841" d="M111 1161q0 68 22 119q26 61 66 98q38 38 98 64q56 24 121 24q66 0 121 -24q60 -26 98 -64q40 -40 65 -98q23 -53 23 -119t-23 -119q-24 -55 -65 -96q-40 -40 -98 -65t-121 -25t-121 25t-98 65q-43 43 -66 96q-22 51 -22 119zM182 1161q0 -46 19 -92q16 -39 51 -74 t74 -51q43 -18 92 -18q48 0 92 18q39 16 74 51t51 74q18 43 18 92t-18 92t-51 76q-35 35 -74 51q-41 17 -92 17t-92 -17q-43 -18 -76 -51q-30 -30 -49 -76t-19 -92z" />
<glyph unicode="&#xb1;" horiz-adv-x="1167" d="M102 82v74h963v-74h-963zM102 690v76h443v414h78v-414h442v-76h-442v-411h-78v411h-443z" />
<glyph unicode="&#xb2;" horiz-adv-x="704" d="M98 922v24q0 5 4 17q3 9 11 14l241 244q30 30 54 57q33 37 45 57q10 15 28 60q11 27 11 63q0 39 -11 64q-9 20 -32 43q-15 15 -48 26q-24 8 -55 8q-64 0 -98 -34q-41 -41 -60 -92q-7 -21 -26 -21h-8q-2 0 -6 1t-5 1l-30 6q15 100 77 150q65 53 160 53q37 0 84 -14 q43 -13 70 -37q28 -25 47 -64q16 -40 16 -86q0 -38 -12 -76q-11 -35 -35 -69q-10 -16 -51 -62q-18 -20 -59 -61l-211 -215q13 4 39 8q14 2 41 2h239q0 3 1 11t1 12t1 9t1 7t1 5.5t1 4.5q3 43 37 43h23v-116v-43h-70h-416z" />
<glyph unicode="&#xb3;" horiz-adv-x="688" d="M90 1102l29 12q4 4 8 4h8q9 0 17 -4q7 -4 10 -12l2 -8q0 -1 14 -33q8 -17 29 -39q17 -17 49 -33q28 -14 76 -14q39 0 74 14q30 12 53 35q16 16 30 47q11 25 11 53q0 35 -11 60q-14 32 -34 47q-28 21 -62 29q-42 10 -90 10v49q90 3 137 41t47 102q0 38 -12 62t-31 43 q-10 10 -47 24q-21 8 -55 8q-67 0 -102 -32q-39 -36 -56 -94q-6 -21 -24 -21q-13 0 -23 2l-26 4q15 99 77 152t156 53q37 0 84 -14q40 -12 68 -37q32 -29 45 -58q16 -37 16 -79q0 -68 -37 -111q-39 -49 -98 -66q78 -19 115 -59q38 -41 38 -111q0 -48 -18 -88 q-17 -39 -53 -67q-43 -34 -76 -45q-43 -15 -92 -15q-62 0 -105 15q-34 12 -69 43q-27 24 -45 59q-10 20 -27 72z" />
<glyph unicode="&#xb4;" horiz-adv-x="550" d="M119 1188l160 246q12 18 24 24q16 8 37 8h96l-221 -260q-13 -13 -16 -14q-12 -4 -23 -4h-57z" />
<glyph unicode="&#xb5;" horiz-adv-x="1126" d="M168 -317v1337h98l2 -651q0 -145 66 -226q67 -82 198 -82q97 0 187 52q81 47 153 141v766h99v-1020h-53q-31 0 -31 27l-10 151q-72 -90 -158 -137t-191 -47q-103 0 -168 39q-69 41 -106 114q6 -43 6 -90q0 -16 1 -43t1 -39v-335h-49q-21 0 -33 12t-12 31z" />
<glyph unicode="&#xb6;" horiz-adv-x="1339" d="M84 1090q0 77 31 147q30 67 90 115q58 46 143 71q93 27 189 27h741v-86h-229v-1559h-88v1559h-336v-1559h-88v912q-103 0 -189 28q-83 27 -143 78q-59 50 -90 119q-31 70 -31 148z" />
<glyph unicode="&#xb7;" horiz-adv-x="485" d="M141 606q0 23 9 41q7 15 22 33q11 14 33 25q16 8 37 8q25 0 41 -8q18 -9 34 -25q13 -13 23 -33q8 -16 8 -41q0 -23 -8 -39q-11 -23 -23 -32q-20 -16 -34 -23q-16 -8 -41 -8q-21 0 -37 8q-20 10 -33 23q-12 12 -22 32q-9 18 -9 39z" />
<glyph unicode="&#xb8;" horiz-adv-x="587" d="M123 -319l10 28q6 12 17 12q5 0 14 -6q6 -4 22 -12q9 -5 35 -12q21 -6 49 -6q51 0 82 22q29 20 29 62q0 25 -12 43q-9 13 -39 28q-21 11 -58 17q-46 8 -73 12l43 135h61l-29 -98q87 -14 138 -45q47 -28 47 -92q0 -30 -13 -56q-10 -20 -38 -41q-21 -16 -60 -26 q-42 -11 -78 -11q-38 0 -82 13q-28 8 -65 33z" />
<glyph unicode="&#xb9;" horiz-adv-x="595" d="M90 1468l217 189h60v-686h149v-49h-385v49h160v553l4 39l-148 -129q-11 -7 -16 -7q-9 0 -16 11z" />
<glyph unicode="&#xba;" horiz-adv-x="821" d="M115 1155q0 65 20 127q15 50 60 98q39 42 92 62t123 20q69 0 122 -20q55 -21 93 -62q39 -42 57 -98q20 -62 20 -127t-20 -127q-18 -56 -57 -98q-38 -41 -93 -62q-53 -20 -122 -20q-70 0 -123 20t-92 62q-43 47 -60 98q-20 62 -20 127zM193 1155q0 -115 55 -182 q56 -68 162 -68q105 0 161 68q54 66 54 182t-54 182q-56 68 -161 68q-106 0 -162 -68q-55 -67 -55 -182z" />
<glyph unicode="&#xbb;" horiz-adv-x="780" d="M123 180q0 7 8 23l186 301q3 6 13 16q2 2 5 6.5t5 5.5l-10 11q-8 8 -13 18l-186 299q-8 16 -8 25q0 16 16 24l33 17l246 -387v-15l-246 -387l-33 17q-16 8 -16 26zM385 180q0 11 6 23l187 301q4 8 12 16q1 1 3.5 4t4.5 5t4 3q-2 2 -6 5.5t-6 5.5q-6 6 -12 18l-187 301 q-6 12 -6 23q0 18 16 26l31 15l248 -387v-13l-248 -389l-31 17q-16 8 -16 26z" />
<glyph unicode="&#xbc;" horiz-adv-x="1404" d="M66 1266l215 188h59v-686h152v-51h-390v51h164v553l4 39l-147 -131q-6 -4 -17 -4q-15 0 -20 8zM248 0l819 1413q8 16 23 27q13 10 32 10h45l-823 -1417q-14 -22 -25 -27q-12 -6 -30 -6h-41zM795 250l360 483h70v-479h129v-37q0 -16 -19 -16h-110v-201h-66v201h-332 q-21 0 -24 16zM868 254h291v342q0 13 4 53z" />
<glyph unicode="&#xbd;" horiz-adv-x="1409" d="M66 1266l215 188h59v-686h152v-49h-390v49h164v553l4 39l-147 -129q-9 -6 -17 -6q-15 0 -20 8zM201 0l819 1413q8 17 22 27q13 10 33 10h43l-821 -1417q-15 -22 -25 -27q-12 -6 -30 -6h-41zM829 0v25q0 1 5 16q4 12 10 16l241 242q30 30 54 57q25 28 43 58q22 34 30 59 q11 37 11 66q0 32 -13 61q-12 27 -30 45q-14 14 -47 25q-30 10 -56 10q-63 0 -100 -37q-36 -36 -57 -92q-7 -21 -27 -21h-8q-2 0 -6 1t-5 1l-30 7q15 98 78 149q65 53 159 53q37 0 84 -14q43 -13 70 -37q26 -23 45 -63q16 -40 16 -86q0 -39 -12 -76t-35 -70q-12 -20 -49 -61 q-27 -30 -59 -62l-211 -215q18 6 39 9q14 2 41 2h239q0 3 1 10.5t1 11.5t1 9t1 7v11q3 43 39 43h23v-117v-43h-72h-414z" />
<glyph unicode="&#xbe;" horiz-adv-x="1470" d="M78 897l33 14q2 2 6 2q1 0 4.5 1t5.5 1q6 0 14 -4t11 -12l4 -8q3 -12 12 -33q7 -17 29 -39q21 -21 49 -35t76 -14q38 0 73 14q32 13 54 35q15 15 30 49q13 29 13 52q0 32 -13 61q-13 30 -33 45q-28 21 -61 29q-42 10 -94 10v51q92 3 139 41q45 36 45 103q0 39 -10 59 q-12 24 -31 43q-10 10 -47 24q-29 11 -55 11q-66 0 -103 -37q-38 -38 -55 -90q-6 -21 -24 -21h-3h-8q-2 0 -5.5 1t-6.5 1q-5 0 -25 4q15 98 76 150q62 53 158 53q42 0 82 -12q38 -11 67 -37q32 -28 45 -59q17 -39 17 -78q0 -70 -37 -113q-36 -45 -98 -63q73 -18 114 -62 q39 -42 39 -110q0 -48 -18 -88q-19 -43 -51 -68q-37 -29 -78 -43q-46 -16 -94 -16q-57 0 -103 16q-37 13 -69 41q-26 23 -46 61q-14 28 -28 70zM324 0l819 1413q8 17 22 27q11 8 33 8h43l-821 -1417q-12 -19 -25 -25q-12 -6 -30 -6h-41zM862 250l361 483h67v-479h131v-37 q0 -16 -18 -16h-113v-201h-63v201h-334q-22 0 -25 16zM934 252h293v344q0 33 2 53z" />
<glyph unicode="&#xbf;" horiz-adv-x="849" d="M90 -66q0 76 25 134q23 53 61 94q35 38 80 69q9 6 37.5 26.5t42.5 29.5q46 29 65 51q26 30 29 63l10 166h68l4 -174v-4q0 -43 -25 -74q-27 -34 -59 -57q-54 -39 -80 -55q-47 -29 -80 -62q-35 -35 -59 -84q-25 -52 -25 -114q0 -55 21 -99q22 -45 57 -73q42 -34 86 -47 q49 -15 101 -15q71 0 118 17q36 13 82 41q33 20 51 38q19 19 29 19q6 0 14 -4q7 -3 9 -8l26 -41q-33 -33 -63 -54q-48 -33 -76 -45q-59 -25 -90 -32q-54 -13 -107 -13q-64 0 -135 23q-66 22 -112 59q-49 40 -76 96q-29 60 -29 129zM381 940q0 19 6 37q5 15 21 31 q13 13 30 20q18 6 37 6t37 -6q22 -11 31 -20q15 -14 20 -31q6 -18 6 -37q0 -22 -6 -37q-5 -17 -20 -31t-31 -20q-18 -6 -37 -6q-41 0 -67 26q-27 27 -27 68z" />
<glyph unicode="&#xc0;" d="M78 0v47q0 38 39 41l65 6l555 1356h105l553 -1356l67 -6q39 -3 39 -41v-47h-67h-41h-39h-15h-192v47q0 38 47 41l4 1q4 1 8 1q2 0 12.5 1t18.5 1q31 0 51 2l-143 355l-10 26h-693l-10 -26l-143 -355q20 -2 53 -2q8 0 17.5 -1t11.5 -1q3 0 7 -1t5 -1q47 -3 47 -41v-47 h-192h-15h-37h-43h-65zM475 553h629l-287 707q-1 4 -6.5 17t-7.5 21q-2 6 -7.5 21t-7.5 24q-2 -9 -7 -24.5t-7 -20.5q-2 -8 -7.5 -23.5t-6.5 -17.5zM487 1812h115q29 0 37 -4q12 -6 27 -18l233 -211h-74q-14 0 -20 2q-13 5 -19 10z" />
<glyph unicode="&#xc1;" d="M78 0v47q0 38 39 41l65 6l555 1356h105l553 -1356l67 -6q39 -3 39 -41v-47h-67h-41h-39h-15h-192v47q0 38 47 41l4 1q4 1 8 1q2 0 12.5 1t18.5 1q31 0 51 2l-143 355l-10 26h-693l-10 -26l-143 -355q20 -2 53 -2q8 0 17.5 -1t11.5 -1q3 0 7 -1t5 -1q47 -3 47 -41v-47 h-192h-15h-37h-43h-65zM475 553h629l-287 707q-1 4 -6.5 17t-7.5 21q-2 6 -7.5 21t-7.5 24q-2 -9 -7 -24.5t-7 -20.5q-2 -8 -7.5 -23.5t-6.5 -17.5zM674 1579l231 211q15 12 27 18q8 4 37 4h114l-299 -221q-12 -8 -18 -10t-21 -2h-71z" />
<glyph unicode="&#xc2;" d="M78 0v47q0 38 39 41l65 6l555 1356h105l553 -1356l67 -6q39 -3 39 -41v-47h-67h-41h-39h-15h-192v47q0 38 47 41l4 1q4 1 8 1q2 0 12.5 1t18.5 1q31 0 51 2l-143 355l-10 26h-693l-10 -26l-143 -355q20 -2 53 -2q8 0 17.5 -1t11.5 -1q3 0 7 -1t5 -1q47 -3 47 -41v-47 h-192h-15h-37h-43h-65zM475 553h629l-287 707q-1 4 -6.5 17t-7.5 21q-2 6 -7.5 21t-7.5 24q-2 -9 -7 -24.5t-7 -20.5q-2 -8 -7.5 -23.5t-6.5 -17.5zM502 1579l239 203h93l241 -203h-76q-12 0 -18 2q-12 4 -16 8l-160 127q-6 4 -10 8l-7 5q-1 -1 -3 -2.5t-3 -2.5 q-4 -4 -10 -8l-162 -127q-4 -4 -16 -8q-6 -2 -16 -2h-76z" />
<glyph unicode="&#xc3;" d="M78 0v47q0 38 39 41l65 6l555 1356h105l553 -1356l67 -6q39 -3 39 -41v-47h-67h-41h-39h-15h-192v47q0 38 47 41l4 1q4 1 8 1q2 0 12.5 1t18.5 1q31 0 51 2l-143 355l-10 26h-693l-10 -26l-143 -355q20 -2 53 -2q8 0 17.5 -1t11.5 -1q3 0 7 -1t5 -1q47 -3 47 -41v-47 h-192h-15h-37h-43h-65zM475 553h629l-287 707q-1 4 -6.5 17t-7.5 21q-2 6 -7.5 21t-7.5 24q-2 -9 -7 -24.5t-7 -20.5q-2 -8 -7.5 -23.5t-6.5 -17.5zM532 1589q0 36 9 66q9 29 28 55q17 22 45 35q27 12 62 12q33 0 65 -16q30 -15 60 -35q40 -27 55 -35q29 -16 55 -16 q44 0 66 28t22 72h56q0 -38 -8 -65q-10 -35 -27 -54q-19 -26 -45 -37q-27 -12 -62 -12q-31 0 -65 17q-36 18 -60 34q-40 27 -55 35q-31 17 -55 17q-43 0 -66 -29q-19 -24 -22 -72h-58z" />
<glyph unicode="&#xc4;" d="M78 0v47q0 38 39 41l65 6l555 1356h105l553 -1356l67 -6q39 -3 39 -41v-47h-67h-41h-39h-15h-192v47q0 38 47 41l4 1q4 1 8 1q2 0 12.5 1t18.5 1q31 0 51 2l-143 355l-10 26h-693l-10 -26l-143 -355q20 -2 53 -2q8 0 17.5 -1t11.5 -1q3 0 7 -1t5 -1q47 -3 47 -41v-47 h-192h-15h-37h-43h-65zM475 553h629l-287 707q-1 4 -6.5 17t-7.5 21q-2 6 -7.5 21t-7.5 24q-2 -9 -7 -24.5t-7 -20.5q-2 -8 -7.5 -23.5t-6.5 -17.5zM492 1704q0 18 6 33q5 13 18 26q14 14 27 19q20 8 30 8q13 0 33 -8q13 -5 27 -19q13 -13 18 -26q6 -15 6 -33q0 -16 -6 -31 t-18 -24q-14 -14 -27 -19q-15 -6 -33 -6q-15 0 -30 6q-4 1 -27 19q-14 14 -18 24q-6 15 -6 31zM918 1704q0 35 24 59q25 25 59 25q16 0 31 -6q13 -5 27 -19q13 -13 18 -26q6 -15 6 -33q0 -16 -6 -31t-18 -24q-14 -14 -27 -19q-15 -6 -31 -6q-17 0 -32 6q-4 1 -27 19 q-14 14 -18 24q-6 15 -6 31z" />
<glyph unicode="&#xc5;" d="M78 0v47q0 38 39 41l65 6l555 1356h105l553 -1356l67 -6q39 -3 39 -41v-47h-67h-41h-39h-15h-192v47q0 38 47 41l4 1q4 1 8 1q2 0 12.5 1t18.5 1q31 0 51 2l-143 355l-10 26h-693l-10 -26l-143 -355q20 -2 53 -2q8 0 17.5 -1t11.5 -1q3 0 7 -1t5 -1q47 -3 47 -41v-47 h-192h-15h-37h-43h-65zM475 553h629l-287 707q-1 4 -6.5 17t-7.5 21q-2 6 -7.5 21t-7.5 24q-2 -9 -7 -24.5t-7 -20.5q-2 -8 -7.5 -23.5t-6.5 -17.5zM616 1669q0 29 15 66q11 29 37 51q25 22 53 33q30 12 67 12q36 0 66 -12q32 -13 55 -33q26 -22 37 -51q15 -37 15 -66 q0 -27 -15 -65q-12 -30 -37 -52q-21 -18 -55 -32q-33 -13 -66 -13q-34 0 -67 13q-35 14 -53 32q-25 22 -37 52q-15 37 -15 65zM672 1669q0 -51 33 -84t83 -33q51 0 84 33t33 84t-33 84t-84 33q-50 0 -83 -33t-33 -84z" />
<glyph unicode="&#xc6;" horiz-adv-x="2043" d="M78 0v47q0 38 39 41l65 6l705 1276h-41q-7 0 -17 1t-12 1h-14q-41 3 -41 37v39h168h4h979v-86v-213h-49q-42 0 -45 49q0 7 -1.5 28t-3.5 59.5t-4 76.5h-731l74 -586h573v-84h-563l78 -604h569q0 10 2 34.5t3 35.5q4 62 4 65v27q3 51 45 51h49v-213v-88h-737h-23h-149v41 q0 34 38 37h17h35q8 0 24 1t25 1l-47 369h-611l-194 -355q20 -2 51 -2q8 0 17.5 -1t11.5 -1q3 0 8 -1t6 -1q47 -3 47 -41v-47h-192h-29h-25h-57h-51zM528 526h557l-106 842q-3 -9 -18 -49q-1 -4 -23 -47z" />
<glyph unicode="&#xc7;" horiz-adv-x="1316" d="M74 725q0 165 53 301q54 139 145 234q84 91 224 151q126 53 288 53q212 0 463 -102v-328h-49q-42 0 -45 49q0 6 -10 224q-151 67 -359 67q-136 0 -243 -45q-108 -45 -189 -129q-78 -84 -125 -205q-45 -124 -45 -270q0 -150 45 -274q44 -122 121 -205q78 -84 184 -127 q102 -45 230 -45q71 0 139 10q56 8 113 31q55 22 94 49q54 37 88 69q2 1 5 5l3 4q4 2 10 2q11 0 19 -8l41 -43q-39 -41 -98 -87q-50 -35 -117 -65q-70 -29 -137 -43q-82 -14 -154 -14l-4 -9l-21 -67q86 -14 140 -47q47 -30 47 -92q0 -26 -15 -56q-18 -28 -38 -41 q-28 -18 -60 -26q-31 -8 -76 -8q-48 0 -82 10q-31 9 -67 33l12 28q6 12 17 12q3 0 12 -6q12 -8 22 -12q9 -5 35 -12q21 -6 49 -6q54 0 82 22q29 23 29 62q0 28 -12 43q-10 14 -37 28q-20 10 -60 17q-46 8 -73 12l37 117q-117 6 -226 51q-130 54 -215 149q-92 103 -139 234 q-51 142 -51 305z" />
<glyph unicode="&#xc8;" horiz-adv-x="1273" d="M102 0v41q0 34 41 37h19q4 0 20 1t27 1q9 0 30.5 1t34.5 1v1286q-13 0 -34.5 1t-30.5 1q-11 0 -27 1t-20 1h-19q-41 3 -41 37v39h172h869v-86v-213h-49q-42 0 -45 49q0 7 -1.5 28t-3.5 59.5t-4 76.5h-659v-586h575v-84h-575v-604h659q0 8 4 70q1 14 3 35.5t2 29.5v27 q3 51 45 51h49v-213v-88h-869h-172zM418 1812h114q29 0 37 -4q12 -6 27 -18l233 -211h-73q-15 0 -21 2q-12 4 -18 10z" />
<glyph unicode="&#xc9;" horiz-adv-x="1273" d="M102 0v41q0 34 41 37h19q4 0 20 1t27 1q9 0 30.5 1t34.5 1v1286q-13 0 -34.5 1t-30.5 1q-11 0 -27 1t-20 1h-19q-41 3 -41 37v39h172h869v-86v-213h-49q-42 0 -45 49q0 7 -1.5 28t-3.5 59.5t-4 76.5h-659v-586h575v-84h-575v-604h659q0 8 4 70q1 14 3 35.5t2 29.5v27 q3 51 45 51h49v-213v-88h-869h-172zM604 1579l232 211q17 13 26 18q8 4 37 4h115l-299 -221q-11 -7 -19 -10q-6 -2 -20 -2h-72z" />
<glyph unicode="&#xca;" horiz-adv-x="1273" d="M102 0v41q0 34 41 37h19q4 0 20 1t27 1q9 0 30.5 1t34.5 1v1286q-13 0 -34.5 1t-30.5 1q-11 0 -27 1t-20 1h-19q-41 3 -41 37v39h172h869v-86v-213h-49q-42 0 -45 49q0 7 -1.5 28t-3.5 59.5t-4 76.5h-659v-586h575v-84h-575v-604h659q0 8 4 70q1 14 3 35.5t2 29.5v27 q3 51 45 51h49v-213v-88h-869h-172zM432 1579l240 203h92l242 -203h-76q-13 0 -19 2q-12 4 -16 8l-160 125l-10 10l-6 5q-1 -1 -3 -2.5t-3 -2.5q-8 -8 -11 -10l-161 -125q-3 -3 -17 -8q-6 -2 -16 -2h-76z" />
<glyph unicode="&#xcb;" horiz-adv-x="1273" d="M102 0v41q0 34 41 37h19q4 0 20 1t27 1q9 0 30.5 1t34.5 1v1286q-13 0 -34.5 1t-30.5 1q-11 0 -27 1t-20 1h-19q-41 3 -41 37v39h172h869v-86v-213h-49q-42 0 -45 49q0 7 -1.5 28t-3.5 59.5t-4 76.5h-659v-586h575v-84h-575v-604h659q0 8 4 70q1 14 3 35.5t2 29.5v27 q3 51 45 51h49v-213v-88h-869h-172zM422 1704q0 18 6 33q5 13 18 26q14 14 27 19q15 6 31 6q18 0 33 -6q12 -5 26 -19t19 -26q6 -15 6 -33q0 -16 -6 -31q-6 -14 -19 -24q-14 -14 -26 -19q-15 -6 -33 -6q-16 0 -31 6q-4 1 -27 19q-14 14 -18 24q-6 15 -6 31zM848 1704 q0 35 24 59q25 25 60 25q16 0 31 -6q12 -5 26 -19t19 -26q6 -15 6 -33q0 -16 -6 -31q-6 -14 -19 -24q-14 -14 -26 -19q-15 -6 -31 -6q-18 0 -33 6q-4 1 -27 19q-14 14 -18 24q-6 15 -6 31z" />
<glyph unicode="&#xcc;" horiz-adv-x="626" d="M10 1812h117q27 0 35 -4q9 -5 26 -18l234 -211h-74q-14 0 -20 2q-10 3 -17 10zM84 0v41q0 34 41 37h18q4 0 19 1t26 1q9 0 32 1t36 1v1286q-13 0 -36 1t-32 1q-11 0 -26 1t-19 1h-18q-41 3 -41 37v41h172h106h173v-41q0 -34 -41 -37h-21q-4 0 -19 -1t-26 -1q-9 0 -32 -1 t-36 -1v-1286q13 0 36 -1t32 -1q11 0 26 -1t19 -1h21q41 -3 41 -37v-41h-175h-104h-172z" />
<glyph unicode="&#xcd;" horiz-adv-x="634" d="M102 0v41q0 34 41 37h19q4 0 20 1t27 1q9 0 30.5 1t34.5 1v1286q-13 0 -34.5 1t-30.5 1q-11 0 -27 1t-20 1h-19q-41 3 -41 37v41h172h107h172v-41q0 -34 -41 -37h-18q-4 0 -20.5 -1t-27.5 -1q-9 0 -30.5 -1t-34.5 -1v-1286q13 0 34.5 -1t30.5 -1q11 0 27.5 -1t20.5 -1h18 q41 -3 41 -37v-41h-172h-107h-172zM215 1579l234 211q17 13 26 18q8 4 37 4h115l-299 -221q-9 -6 -21 -10q-6 -2 -20 -2h-72z" />
<glyph unicode="&#xce;" horiz-adv-x="608" d="M20 1579l242 203h90l242 -203h-76q-10 0 -16 2q-16 5 -19 8l-159 125q-3 2 -11 10l-6 5l-4 -5q-6 -6 -12 -10l-160 -125q-4 -4 -16 -8q-6 -2 -19 -2h-76zM80 0v41q0 34 41 37h18q4 0 19 1t26 1q9 0 32 1t36 1v1286q-13 0 -36 1t-32 1q-11 0 -26 1t-19 1h-18q-41 3 -41 37 v41h172h106h172v-41q0 -34 -41 -37h-20q-4 0 -19 -1t-26 -1q-9 0 -32 -1t-36 -1v-1286q13 0 36 -1t32 -1q11 0 26 -1t19 -1h20q41 -3 41 -37v-41h-174h-104h-172z" />
<glyph unicode="&#xcf;" horiz-adv-x="616" d="M12 1704q0 13 8 33q6 15 17 26q14 14 26 19q15 6 31 6q18 0 33 -6q13 -5 27 -19q13 -13 18 -26q8 -20 8 -33q0 -11 -8 -31q-6 -15 -18 -24q-14 -14 -27 -19q-15 -6 -33 -6q-16 0 -31 6q-4 2 -8.5 5t-10 7.5t-7.5 6.5q-12 12 -17 24q-8 20 -8 31zM82 0v41q0 34 41 37h18 q4 0 19 1t26 1q9 0 32 1t36 1v1286q-13 0 -36 1t-32 1q-11 0 -26 1t-19 1h-18q-41 3 -41 37v41h172h106h172v-41q0 -34 -40 -37h-21q-4 0 -19 -1t-26 -1q-9 0 -31 -1t-35 -1v-1286q13 0 35 -1t31 -1q11 0 26 -1t19 -1h21q40 -3 40 -37v-41h-172h-106h-172zM438 1704 q0 34 25 59t59 25q16 0 31 -6q13 -5 27 -19q13 -13 18 -26q8 -20 8 -33q0 -11 -8 -31q-6 -15 -18 -24q-14 -14 -27 -19q-15 -6 -31 -6q-18 0 -33 6q-4 2 -8.5 5t-10 7.5t-7.5 6.5q-12 12 -17 24q-8 20 -8 31z" />
<glyph unicode="&#xd0;" horiz-adv-x="1556" d="M55 700v66h221v602q-84 4 -133 4q-41 3 -41 37v39h174h502q158 0 283 -49q122 -48 217 -146q93 -96 141 -227q51 -139 51 -301q0 -164 -51 -303q-48 -131 -141 -227q-95 -98 -217 -146q-125 -49 -283 -49h-502h-174v41q0 34 41 37q49 0 133 4v618h-221zM381 84h397 q133 0 240 43q109 44 184 125q72 78 117 201q43 119 43 272q0 151 -43 270q-45 123 -117 201q-75 81 -184 125q-107 43 -240 43h-397v-598h414v-66h-414v-616z" />
<glyph unicode="&#xd1;" horiz-adv-x="1613" d="M102 0v41q0 34 41 37h19q4 0 20 1t27 1q9 0 30.5 1t34.5 1v1286q-13 0 -34.5 1t-30.5 1q-11 0 -27 1t-20 1h-19q-41 3 -41 37v41h172h52q10 0 22 -4q9 -3 19 -16l938 -1256q-5 50 -5 59v1135q-13 0 -35.5 1t-31.5 1q-11 0 -27 1t-20 1h-21q-41 3 -41 37v39h176h93h172 v-39q0 -34 -39 -37h-21q-4 0 -19 -1t-26 -1q-9 0 -31.5 -1t-35.5 -1v-1368h-50q-24 0 -38 20l-943 1258q5 -50 5 -59v-1137q13 0 35.5 -1t31.5 -1q11 0 27 -1t20 -1h21q41 -3 41 -37v-41h-176h-93h-172zM614 1589q0 29 11 66q9 29 28 55q17 22 45 35q27 12 62 12 q33 0 65 -16q30 -15 60 -35q40 -27 55 -35q29 -16 53 -16q44 0 66 28q24 31 24 72h56q0 -28 -11 -65q-11 -36 -26 -54q-19 -26 -45 -37q-27 -12 -62 -12q-29 0 -63 17q-36 18 -60 34q-30 20 -57 35q-31 17 -53 17q-43 0 -66 -29q-21 -27 -24 -72h-58z" />
<glyph unicode="&#xd2;" horiz-adv-x="1542" d="M74 725q0 164 51 303q49 135 141 234q90 97 219 151q127 53 281 53t281 -53q129 -54 219 -151q88 -95 139 -234t51 -303q0 -166 -51 -305t-139 -234q-87 -94 -219 -149q-127 -53 -281 -53t-281 53q-132 55 -219 149q-92 99 -141 234q-51 139 -51 305zM182 725 q0 -153 43 -272q46 -126 119 -205q81 -88 184 -129q107 -43 238 -43t238 43q103 41 184 129q73 79 119 205q41 113 41 272t-41 272q-46 126 -119 205q-81 88 -184 129q-112 45 -238 45t-238 -45q-103 -41 -184 -129q-73 -79 -119 -205q-43 -119 -43 -272zM467 1812h115 q28 0 36 -4q7 -3 25 -18l234 -211h-72q-15 0 -21 2q-12 4 -18 10z" />
<glyph unicode="&#xd3;" horiz-adv-x="1542" d="M74 725q0 164 51 303q49 135 141 234q90 97 219 151q127 53 281 53t281 -53q129 -54 219 -151q88 -95 139 -234t51 -303q0 -166 -51 -305t-139 -234q-87 -94 -219 -149q-127 -53 -281 -53t-281 53q-132 55 -219 149q-92 99 -141 234q-51 139 -51 305zM182 725 q0 -153 43 -272q46 -126 119 -205q81 -88 184 -129q107 -43 238 -43t238 43q103 41 184 129q73 79 119 205q41 113 41 272t-41 272q-46 126 -119 205q-81 88 -184 129q-112 45 -238 45t-238 -45q-103 -41 -184 -129q-73 -79 -119 -205q-43 -119 -43 -272zM651 1579l234 211 q17 13 26 18q8 4 37 4h115l-299 -221q-11 -7 -19 -10q-6 -2 -20 -2h-74z" />
<glyph unicode="&#xd4;" horiz-adv-x="1542" d="M74 725q0 164 51 303q49 135 141 234q90 97 219 151q127 53 281 53t281 -53q129 -54 219 -151q88 -95 139 -234t51 -303q0 -166 -51 -305t-139 -234q-87 -94 -219 -149q-127 -53 -281 -53t-281 53q-132 55 -219 149q-92 99 -141 234q-51 139 -51 305zM182 725 q0 -153 43 -272q46 -126 119 -205q81 -88 184 -129q107 -43 238 -43t238 43q103 41 184 129q73 79 119 205q41 113 41 272t-41 272q-46 126 -119 205q-81 88 -184 129q-112 45 -238 45t-238 -45q-103 -41 -184 -129q-73 -79 -119 -205q-43 -119 -43 -272zM479 1579l242 203 h92l240 -203h-74q-12 0 -18 2q-13 5 -17 8l-160 127q-2 1 -5 3l-4.5 3t-2.5 2l-4 5q-1 -1 -3 -2.5t-3 -2.5l-12 -8l-160 -127q-4 -3 -17 -8q-6 -2 -16 -2h-78z" />
<glyph unicode="&#xd5;" horiz-adv-x="1542" d="M74 725q0 164 51 303q49 135 141 234q90 97 219 151q127 53 281 53t281 -53q129 -54 219 -151q88 -95 139 -234t51 -303q0 -166 -51 -305t-139 -234q-87 -94 -219 -149q-127 -53 -281 -53t-281 53q-132 55 -219 149q-92 99 -141 234q-51 139 -51 305zM182 725 q0 -153 43 -272q46 -126 119 -205q81 -88 184 -129q107 -43 238 -43t238 43q103 41 184 129q73 79 119 205q41 113 41 272t-41 272q-46 126 -119 205q-81 88 -184 129q-112 45 -238 45t-238 -45q-103 -41 -184 -129q-73 -79 -119 -205q-43 -119 -43 -272zM512 1589 q0 39 8 66t29 55q17 22 45 35q27 12 61 12t66 -16q26 -13 59 -35q35 -23 56 -35q29 -16 53 -16q45 0 67 28q23 30 23 72h55q0 -38 -8 -65q-10 -35 -27 -54q-19 -26 -45 -37q-27 -12 -61 -12q-32 0 -66 17q-32 16 -59 34q-40 27 -55 35q-31 17 -56 17q-42 0 -65 -29 q-20 -25 -23 -72h-57z" />
<glyph unicode="&#xd6;" horiz-adv-x="1542" d="M74 725q0 164 51 303q49 135 141 234q90 97 219 151q127 53 281 53t281 -53q129 -54 219 -151q88 -95 139 -234t51 -303q0 -166 -51 -305t-139 -234q-87 -94 -219 -149q-127 -53 -281 -53t-281 53q-132 55 -219 149q-92 99 -141 234q-51 139 -51 305zM182 725 q0 -153 43 -272q46 -126 119 -205q81 -88 184 -129q107 -43 238 -43t238 43q103 41 184 129q73 79 119 205q41 113 41 272t-41 272q-46 126 -119 205q-81 88 -184 129q-112 45 -238 45t-238 -45q-103 -41 -184 -129q-73 -79 -119 -205q-43 -119 -43 -272zM471 1704 q0 18 6 33q5 12 19 26t26 19q20 8 31 8q13 0 33 -8q8 -3 24 -19q18 -18 21 -26q6 -15 6 -33q0 -16 -6 -31q-5 -12 -21 -24q-16 -16 -24 -19q-15 -6 -33 -6q-16 0 -31 6q-4 2 -8.5 5t-10 7.5t-7.5 6.5q-16 16 -19 24q-6 15 -6 31zM897 1704q0 34 25 59t57 25q18 0 33 -6 q12 -5 26 -19t19 -26q6 -15 6 -33q0 -16 -6 -31q-6 -14 -19 -24q-14 -14 -26 -19q-15 -6 -33 -6q-16 0 -31 6q-4 2 -8.5 5t-10 7.5t-7.5 6.5q-16 16 -19 24q-6 15 -6 31z" />
<glyph unicode="&#xd7;" horiz-adv-x="980" d="M51 303l383 383l-377 377l54 55l376 -377l375 375l56 -55l-377 -375l381 -381l-54 -53l-381 381l-383 -383z" />
<glyph unicode="&#xd8;" horiz-adv-x="1546" d="M78 725q0 169 49 303q48 131 143 234q91 99 217 151q127 53 279 53q125 0 231 -34q99 -32 191 -101l115 154q15 19 20 22q13 9 31 9h55l-168 -228q105 -99 160 -239q57 -145 57 -324q0 -171 -49 -305q-48 -131 -143 -234q-88 -95 -217 -149q-127 -53 -283 -53 q-110 0 -219 32q-99 29 -185 90l-133 -180q-13 -19 -30 -26q-15 -6 -35 -6h-45l190 253q-112 99 -172 244q-59 141 -59 334zM184 725q0 -164 49 -289q50 -128 136 -211l764 1030q-72 57 -166 88q-101 33 -201 33q-124 0 -236 -45q-107 -46 -184 -129q-73 -79 -119 -205 q-43 -119 -43 -272zM420 182q70 -52 158 -80q82 -26 188 -26q128 0 240 45q106 43 184 127q70 76 117 205q43 119 43 272q0 157 -43 279q-42 117 -125 204z" />
<glyph unicode="&#xd9;" horiz-adv-x="1538" d="M49 1409v39h172h105h198v-39q0 -34 -41 -37h-24q-6 0 -26 -1t-34 -1q-13 0 -37 -1t-36 -1v-815q0 -102 30 -188q33 -93 86 -152q54 -63 140 -102q81 -37 188 -37q105 0 186 37q84 38 140 100q57 63 88 154q30 89 30 188v815q-12 0 -36 1t-37 1q-14 0 -34 1t-26 1h-24 q-41 3 -41 37v39h198h105h172v-39q0 -34 -41 -37h-18q-4 0 -20.5 -1t-27.5 -1q-9 0 -30.5 -1t-34.5 -1v-815q0 -114 -39 -223q-38 -106 -109 -183q-70 -75 -174 -120q-101 -43 -227 -43q-128 0 -229 43q-104 45 -174 120q-71 77 -109 183q-37 104 -37 223v815q-13 0 -35.5 1 t-31.5 1q-11 0 -26 1t-19 1h-21q-39 3 -39 37zM469 1812h115q29 0 37 -4q9 -5 26 -18l234 -211h-74q-15 0 -21 2q-12 4 -18 10z" />
<glyph unicode="&#xda;" horiz-adv-x="1538" d="M49 1409v39h172h105h198v-39q0 -34 -41 -37h-24q-6 0 -26 -1t-34 -1q-13 0 -37 -1t-36 -1v-815q0 -102 30 -188q33 -93 86 -152q54 -63 140 -102q81 -37 188 -37q105 0 186 37q84 38 140 100q57 63 88 154q30 89 30 188v815q-12 0 -36 1t-37 1q-14 0 -34 1t-26 1h-24 q-41 3 -41 37v39h198h105h172v-39q0 -34 -41 -37h-18q-4 0 -20.5 -1t-27.5 -1q-9 0 -30.5 -1t-34.5 -1v-815q0 -114 -39 -223q-38 -106 -109 -183q-70 -75 -174 -120q-101 -43 -227 -43q-128 0 -229 43q-104 45 -174 120q-71 77 -109 183q-37 104 -37 223v815q-13 0 -35.5 1 t-31.5 1q-11 0 -26 1t-19 1h-21q-39 3 -39 37zM655 1579l232 211q17 13 26 18q8 4 37 4h115l-299 -221q-12 -8 -18 -10t-21 -2h-72z" />
<glyph unicode="&#xdb;" horiz-adv-x="1538" d="M49 1409v39h172h105h198v-39q0 -34 -41 -37h-24q-6 0 -26 -1t-34 -1q-13 0 -37 -1t-36 -1v-815q0 -102 30 -188q33 -93 86 -152q54 -63 140 -102q81 -37 188 -37q105 0 186 37q84 38 140 100q57 63 88 154q30 89 30 188v815q-12 0 -36 1t-37 1q-14 0 -34 1t-26 1h-24 q-41 3 -41 37v39h198h105h172v-39q0 -34 -41 -37h-18q-4 0 -20.5 -1t-27.5 -1q-9 0 -30.5 -1t-34.5 -1v-815q0 -114 -39 -223q-38 -106 -109 -183q-70 -75 -174 -120q-101 -43 -227 -43q-128 0 -229 43q-104 45 -174 120q-71 77 -109 183q-37 104 -37 223v815q-13 0 -35.5 1 t-31.5 1q-11 0 -26 1t-19 1h-21q-39 3 -39 37zM483 1579l240 203h92l242 -203h-76q-12 0 -18 2q-14 5 -17 8l-160 127q-6 4 -10 8l-6 5q-1 -1 -3 -2.5t-3 -2.5q-4 -4 -10 -8l-162 -127q-4 -3 -17 -8q-6 -2 -16 -2h-76z" />
<glyph unicode="&#xdc;" horiz-adv-x="1538" d="M49 1409v39h172h105h198v-39q0 -34 -41 -37h-24q-6 0 -26 -1t-34 -1q-13 0 -37 -1t-36 -1v-815q0 -102 30 -188q33 -93 86 -152q54 -63 140 -102q81 -37 188 -37q105 0 186 37q84 38 140 100q57 63 88 154q30 89 30 188v815q-12 0 -36 1t-37 1q-14 0 -34 1t-26 1h-24 q-41 3 -41 37v39h198h105h172v-39q0 -34 -41 -37h-18q-4 0 -20.5 -1t-27.5 -1q-9 0 -30.5 -1t-34.5 -1v-815q0 -114 -39 -223q-38 -106 -109 -183q-70 -75 -174 -120q-101 -43 -227 -43q-128 0 -229 43q-104 45 -174 120q-71 77 -109 183q-37 104 -37 223v815q-13 0 -35.5 1 t-31.5 1q-11 0 -26 1t-19 1h-21q-39 3 -39 37zM473 1704q0 18 6 33q5 12 19 26t26 19q20 8 31 8q13 0 33 -8q12 -5 26 -19t19 -26q6 -15 6 -33q0 -16 -6 -31q-6 -14 -19 -24q-14 -14 -26 -19q-15 -6 -33 -6q-16 0 -31 6q-4 2 -8.5 5t-10 7.5t-7.5 6.5q-16 16 -19 24 q-6 15 -6 31zM899 1704q0 34 25 59t59 25q16 0 31 -6q12 -5 26 -19t19 -26q6 -15 6 -33q0 -16 -6 -31q-6 -14 -19 -24q-14 -14 -26 -19q-15 -6 -31 -6q-18 0 -33 6q-4 2 -8.5 5t-10 7.5t-7.5 6.5q-16 16 -19 24q-6 15 -6 31z" />
<glyph unicode="&#xdd;" horiz-adv-x="1406" d="M49 1409v39h66h10h82h16h205v-39q0 -34 -41 -37h-14q-3 0 -15.5 -1t-21.5 -1q-8 0 -26 -1t-29 -1l381 -610q15 -24 24 -45q3 -7 9.5 -22.5t9.5 -22.5q3 7 9 22.5t9 22.5q7 16 25 45l378 610q-10 0 -29 1t-26 1q-9 0 -20.5 1t-14.5 1h-16q-41 3 -41 37v39h205h16h82h10h66 v-39q0 -34 -41 -37q-70 -4 -76 -4l-485 -770v-516q13 0 35.5 -1t31.5 -1q11 0 26 -1t19 -1h21q39 -3 39 -37v-41h-172h-105h-172v41q0 34 41 37h19q4 0 19 1t26 1q9 0 31.5 1t35.5 1v516l-485 770q-6 0 -76 4q-41 3 -41 37zM590 1579l231 211q15 12 27 18q8 4 37 4h114 l-299 -221q-12 -8 -18 -10t-20 -2h-72z" />
<glyph unicode="&#xde;" horiz-adv-x="1132" d="M172 0v1450h102v-291h271q255 0 385 -112q129 -111 129 -318q0 -102 -35 -176q-39 -82 -102 -137q-70 -61 -162 -90q-104 -33 -215 -33h-271v-293h-102zM274 377h271q98 0 172 26q76 27 129 74t80 111q28 67 28 141q0 170 -102 256q-104 88 -307 88h-271v-696z" />
<glyph unicode="&#xdf;" horiz-adv-x="1101" d="M154 0v1024q0 105 34 186q38 90 93 140q67 60 143 88q77 28 182 28q88 0 156 -24q63 -23 112 -68q49 -46 70 -92q25 -55 25 -102q0 -63 -25 -111t-61 -84q-44 -44 -78 -65q-17 -10 -44.5 -31.5t-33.5 -26.5q-36 -26 -61 -57q-23 -29 -23 -68q0 -40 16 -61q21 -29 46 -45 q29 -19 63 -33q19 -8 72 -33q48 -23 73 -37q33 -18 64 -53q28 -31 45 -72q16 -39 16 -102q0 -71 -24 -129q-22 -53 -72 -100q-44 -41 -111 -66q-59 -22 -143 -22q-106 0 -178 34q-71 33 -135 91l22 34q7 11 11 13q8 4 18 4q13 0 33 -17q33 -27 49 -37q34 -21 76 -34 q53 -17 110 -17q60 0 109 19q47 18 78 49t49 74t18 90q0 65 -30 108q-27 40 -76 68q-58 34 -97 47q-32 11 -98 45q-44 23 -76 63q-30 38 -30 103q0 49 24 86q25 39 64 70q53 42 80 61q42 29 79 63q43 39 64 78q25 45 25 101q0 26 -17 69q-17 42 -45 70q-31 31 -86 53 q-53 21 -127 21q-70 0 -135 -21q-64 -21 -113 -67q-48 -45 -75 -115q-29 -76 -29 -166v-1024h-96z" />
<glyph unicode="&#xe0;" horiz-adv-x="1038" d="M76 248q0 64 37 119q39 58 114 96q81 41 203 65q134 26 295 29v107q0 144 -59 217q-60 75 -183 75q-75 0 -125 -20q-47 -19 -88 -45q-39 -25 -57 -43q-23 -23 -39 -23q-22 0 -31 19l-16 30q81 81 168 121q90 41 199 41q84 0 143 -26q61 -24 102 -74q42 -51 62 -119 q20 -67 20 -153v-584q8 0 24 -1t23 -1h33h14q41 -3 41 -37v-41h-135h-37h-2q-33 0 -39 29l-14 131q-52 -49 -82 -74q-45 -35 -88 -55q-59 -26 -96 -35q-53 -12 -115 -12q-49 0 -102 16q-44 13 -86 47q-38 30 -62 80q-22 52 -22 121zM170 250q0 -55 16 -88q14 -34 45 -62 q24 -21 64 -34q34 -11 78 -11q54 0 108 13t92 34q32 18 80 56q15 12 72 69v265q-132 -3 -250 -23q-101 -17 -172 -49q-66 -29 -100 -72q-33 -42 -33 -98zM272 1466h95q20 0 36 -8q13 -7 25 -24l160 -244h-56q-14 0 -20 2q-3 1 -16 14z" />
<glyph unicode="&#xe1;" horiz-adv-x="1038" d="M78 248q0 67 35 119q38 56 116 96q82 42 201 65q134 26 297 29v107q0 141 -61 217q-60 75 -181 75q-75 0 -125 -20q-47 -19 -88 -45q-44 -28 -59 -43q-23 -23 -37 -23q-22 0 -31 19l-16 30q83 83 166 121q90 41 201 41q84 0 143 -26q61 -24 102 -74q39 -47 60 -119 q20 -67 20 -153v-584q8 0 24 -1t23 -1h33h17q38 -3 38 -37v-41h-135h-37h-2q-31 0 -37 29l-14 131q-31 -29 -84 -74q-47 -38 -86 -55q-56 -26 -98 -35q-53 -12 -115 -12q-47 0 -100 16q-47 14 -88 47q-35 28 -60 80q-22 52 -22 121zM172 250q0 -55 16 -88q14 -34 45 -62 q24 -21 64 -34q34 -11 78 -11q54 0 108 13t92 34q26 14 78 56q25 20 74 69v265q-132 -3 -250 -23q-104 -18 -174 -49q-66 -29 -100 -72q-31 -39 -31 -98zM397 1190l162 244q13 19 23 24q16 8 36 8h97l-221 -260q-13 -12 -17 -14q-6 -2 -20 -2h-60z" />
<glyph unicode="&#xe2;" horiz-adv-x="1038" d="M76 248q0 64 37 119q39 58 114 96q81 41 203 65q134 26 295 29v107q0 144 -59 217q-60 75 -183 75q-75 0 -125 -20q-47 -19 -88 -45q-39 -25 -57 -43q-23 -23 -39 -23q-22 0 -31 19l-16 30q81 81 168 121q90 41 199 41q84 0 143 -26q61 -24 102 -74q42 -51 62 -119 q20 -67 20 -153v-584q8 0 24 -1t23 -1h33h14q41 -3 41 -37v-41h-135h-37h-2q-33 0 -39 29l-14 131q-52 -49 -82 -74q-45 -35 -88 -55q-59 -26 -96 -35q-53 -12 -115 -12q-49 0 -102 16q-44 13 -86 47q-38 30 -62 80q-22 52 -22 121zM170 250q0 -55 16 -88q14 -34 45 -62 q24 -21 64 -34q34 -11 78 -11q54 0 108 13t92 34q32 18 80 56q15 12 72 69v265q-132 -3 -250 -23q-101 -17 -172 -49q-66 -29 -100 -72q-33 -42 -33 -98zM217 1198l223 252h88l222 -252h-66q-17 0 -29 12l-159 166q-2 1 -6 6.5t-5 6.5q-1 -1 -3 -4.5t-3 -4.5l-4 -4 l-162 -166q-8 -8 -12 -10t-14 -2h-70z" />
<glyph unicode="&#xe3;" horiz-adv-x="1040" d="M78 248q0 67 35 119q38 56 116 96q82 42 201 65q134 26 297 29v107q0 141 -61 217q-60 75 -181 75q-75 0 -125 -20q-47 -19 -88 -45q-44 -28 -59 -43q-23 -23 -37 -23q-22 0 -31 19l-16 30q83 83 166 121q90 41 201 41q84 0 143 -26q61 -24 102 -74q39 -47 60 -119 q20 -67 20 -153v-584q8 0 24 -1t23 -1h33h17q38 -3 38 -37v-41h-135h-37h-2q-31 0 -37 29l-14 131q-31 -29 -84 -74q-47 -38 -86 -55q-56 -26 -98 -35q-53 -12 -115 -12q-47 0 -100 16q-47 14 -88 47q-35 28 -60 80q-22 52 -22 121zM172 250q0 -55 16 -88q14 -34 45 -62 q24 -21 64 -34q34 -11 78 -11q54 0 108 13t92 34q26 14 78 56q25 20 74 69v265q-132 -3 -250 -23q-104 -18 -174 -49q-66 -29 -100 -72q-31 -39 -31 -98zM225 1243q0 33 11 70q7 27 28 55q18 24 47 37q31 14 64 14q35 0 65 -18q25 -15 58 -37t53 -37q21 -16 51 -16 q46 0 68 28t22 76h62q0 -32 -11 -69q-9 -31 -28 -56q-18 -24 -47 -37q-27 -12 -62 -12q-36 0 -63 16q-45 27 -60 37q-33 22 -53 37q-23 17 -53 17q-46 0 -66 -29q-21 -30 -24 -76h-62z" />
<glyph unicode="&#xe4;" horiz-adv-x="1040" d="M78 248q0 67 35 119q38 56 116 96q82 42 201 65q134 26 297 29v107q0 141 -61 217q-60 75 -181 75q-75 0 -125 -20q-47 -19 -88 -45q-44 -28 -59 -43q-23 -23 -37 -23q-22 0 -31 19l-16 30q83 83 166 121q90 41 201 41q84 0 143 -26q61 -24 102 -74q39 -47 60 -119 q20 -67 20 -153v-584q8 0 24 -1t23 -1h33h17q38 -3 38 -37v-41h-135h-37h-2q-31 0 -37 29l-14 131q-31 -29 -84 -74q-47 -38 -86 -55q-56 -26 -98 -35q-53 -12 -115 -12q-47 0 -100 16q-47 14 -88 47q-35 28 -60 80q-22 52 -22 121zM172 250q0 -55 16 -88q14 -34 45 -62 q24 -21 64 -34q34 -11 78 -11q54 0 108 13t92 34q26 14 78 56q25 20 74 69v265q-132 -3 -250 -23q-104 -18 -174 -49q-66 -29 -100 -72q-31 -39 -31 -98zM225 1315q0 13 8 33q5 12 19 26t27 19q20 8 30 8q13 0 33 -8q13 -5 27 -19q13 -13 18 -26q6 -15 6 -33q0 -16 -6 -31 t-18 -27t-27 -18t-33 -6q-15 0 -30 6t-27 18q-14 14 -19 27q-8 20 -8 31zM575 1315q0 11 9 33q5 13 18 26q14 14 27 19q20 8 30 8q13 0 33 -8q13 -5 27 -19q13 -13 18 -26q8 -20 8 -33q0 -11 -8 -31q-6 -15 -18 -27t-27 -18t-33 -6q-15 0 -30 6t-27 18t-18 27q-9 22 -9 31z " />
<glyph unicode="&#xe5;" horiz-adv-x="1036" d="M74 248q0 64 37 119q38 56 116 96q82 42 201 65q134 26 297 29v107q0 141 -61 217q-60 75 -181 75q-75 0 -125 -20q-47 -19 -88 -45q-44 -28 -59 -43q-23 -23 -37 -23q-22 0 -31 19l-16 30q83 83 166 121q90 41 201 41q84 0 143 -26q61 -24 102 -74q39 -47 60 -119 q20 -67 20 -153v-584q8 0 24 -1t23 -1h33h16q39 -3 39 -37v-41h-135h-37h-2q-31 0 -37 29l-14 131q-31 -29 -84 -74q-47 -38 -86 -55q-56 -26 -98 -35q-53 -12 -115 -12q-47 0 -100 16q-47 14 -88 47q-35 28 -60 80q-24 57 -24 121zM170 250q0 -55 16 -88q14 -34 45 -62 q24 -21 64 -34q34 -11 78 -11q54 0 108 13t92 34q26 14 78 56q25 20 74 69v265q-132 -3 -250 -23q-104 -18 -174 -49q-66 -29 -100 -72q-31 -39 -31 -98zM307 1333q0 30 15 68q13 33 36 53q25 22 58 35q30 12 67 12q38 0 68 -12q28 -10 57 -35q19 -16 37 -53q14 -28 14 -68 q0 -39 -14 -67q-17 -35 -37 -52q-24 -21 -57 -34q-37 -13 -68 -13q-35 0 -67 13q-35 14 -58 34t-36 52q-15 38 -15 67zM367 1333q0 -52 32 -84t84 -32t84 32q33 33 33 84t-33 84t-84 33t-84 -33q-32 -32 -32 -84z" />
<glyph unicode="&#xe6;" horiz-adv-x="1603" d="M82 264q0 65 37 123q39 61 114 102q85 47 201 72q138 30 297 33v70q0 143 -61 219q-60 75 -181 75q-74 0 -124 -20t-89 -45t-59 -45q-21 -21 -37 -21q-14 0 -18 4q-10 10 -12 13l-19 30q80 80 166 121q87 41 195 41q131 0 202 -65q73 -67 97 -180q47 109 141 178 q91 67 227 67q69 0 141 -32q67 -30 117 -89q50 -60 78 -147q27 -85 27 -201q0 -24 -4 -30q-6 -9 -21 -9h-676q0 -111 25 -200q26 -92 69 -146q47 -59 109 -88q67 -31 141 -31q70 0 125 19q44 15 86 37q36 19 54 37q16 16 30 16q13 0 23 -10l24 -31q-25 -31 -61 -57 q-38 -27 -84 -45q-54 -21 -98 -31q-52 -12 -105 -12q-131 0 -231 71q-96 68 -146 211q-21 -79 -63 -133q-41 -53 -98 -88q-54 -34 -117 -49q-57 -14 -119 -14q-60 0 -119 16t-98 49q-40 34 -64 86q-22 48 -22 129zM174 268q0 -55 19 -98q20 -44 47 -66q35 -28 71 -38 q47 -13 92 -13q63 0 127 23q59 21 105 67q48 48 70 107q26 70 26 143v133q-164 -7 -250 -24q-106 -21 -174 -56q-75 -38 -100 -77q-33 -51 -33 -101zM823 592h613q0 88 -21 156q-22 69 -57 116q-39 52 -88 74q-55 25 -115 25q-73 0 -131 -27q-59 -27 -102 -76 q-41 -47 -66 -117q-28 -78 -33 -151z" />
<glyph unicode="&#xe7;" horiz-adv-x="937" d="M78 510q0 109 33 213q31 97 88 166q54 65 145 108q78 37 195 37q42 0 108 -14q37 -8 125 -33l53 -16v-256h-49q-42 0 -45 49q0 10 -2 24q-3 22 -6 58q-1 13 -2 39t-2 39q-98 34 -174 34q-89 0 -156 -30t-115 -90q-47 -59 -71 -142q-25 -86 -25 -186q0 -105 25 -191 q24 -83 71 -139q43 -55 111 -86q67 -31 145 -31q73 0 125 19q61 22 82 37q40 28 51 39q16 16 29 16q14 0 21 -10l26 -33q-27 -34 -59 -57q-48 -35 -80 -47q-42 -16 -98 -29q-30 -6 -88 -10l-23 -82q86 -14 137 -45q49 -32 49 -92q0 -28 -14 -56q-17 -27 -39 -41 q-29 -18 -59 -26q-42 -11 -76 -11q-38 0 -82 13q-40 12 -67 30l10 29q6 12 16 12q9 0 15 -4q12 -8 22 -12q9 -5 35 -12q21 -6 49 -6q54 0 82 22q29 23 29 62q0 27 -13 43q-6 10 -39 26q-28 14 -57 19q-13 2 -38 5t-36 5l37 121q-66 5 -137 35q-81 35 -139 102 q-62 72 -90 164q-33 95 -33 221z" />
<glyph unicode="&#xe8;" horiz-adv-x="1005" d="M74 530q0 112 30 203q29 88 91 160q58 67 143 104q89 39 194 39q86 0 160 -30t127 -86q51 -51 84 -142q31 -85 31 -190q0 -19 -8 -31q-5 -8 -21 -8h-735v-19q0 -116 27 -202q29 -92 75 -146q49 -58 119 -88q73 -31 156 -31q74 0 133 19q66 22 94 37q42 22 62 39 q19 16 32 16q14 0 21 -10l26 -33q-23 -29 -65 -57q-40 -27 -90 -45q-53 -19 -107 -31q-46 -10 -114 -10q-111 0 -191 35q-88 39 -147 106q-61 70 -95 170q-32 95 -32 231zM174 612h672q0 77 -23 148q-19 57 -63 108q-40 46 -98 70q-61 25 -127 25q-78 0 -142 -25 q-62 -24 -108 -70q-48 -48 -74 -110q-28 -67 -37 -146zM322 1466h94q21 0 37 -8q12 -6 24 -24l160 -246h-55q-9 0 -21 4q-3 1 -16 14z" />
<glyph unicode="&#xe9;" horiz-adv-x="1005" d="M74 530q0 112 30 203q29 88 91 160q58 67 143 104q89 39 194 39q86 0 160 -30t127 -86q51 -51 84 -142q31 -85 31 -190q0 -19 -8 -31q-5 -8 -21 -8h-735v-19q0 -116 27 -202q29 -92 75 -146q49 -58 119 -88q73 -31 156 -31q74 0 133 19q66 22 94 37q42 22 62 39 q19 16 32 16q14 0 21 -10l26 -33q-23 -29 -65 -57q-40 -27 -90 -45q-53 -19 -107 -31q-46 -10 -114 -10q-111 0 -191 35q-88 39 -147 106q-61 70 -95 170q-32 95 -32 231zM174 612h672q0 77 -23 148q-19 57 -63 108q-40 46 -98 70q-61 25 -127 25q-78 0 -142 -25 q-62 -24 -108 -70q-48 -48 -74 -110q-28 -67 -37 -146zM446 1188l160 246q12 17 25 24q16 8 37 8h96l-221 -260q-11 -12 -19 -14q-12 -4 -20 -4h-58z" />
<glyph unicode="&#xea;" horiz-adv-x="1005" d="M74 530q0 112 30 203q29 88 91 160q58 67 143 104q89 39 194 39q86 0 160 -30t127 -86q51 -51 84 -142q31 -85 31 -190q0 -19 -8 -31q-5 -8 -21 -8h-735v-19q0 -116 27 -202q29 -92 75 -146q49 -58 119 -88q73 -31 156 -31q74 0 133 19q66 22 94 37q42 22 62 39 q19 16 32 16q14 0 21 -10l26 -33q-23 -29 -65 -57q-40 -27 -90 -45q-53 -19 -107 -31q-46 -10 -114 -10q-111 0 -191 35q-88 39 -147 106q-61 70 -95 170q-32 95 -32 231zM174 612h672q0 77 -23 148q-19 57 -63 108q-40 46 -98 70q-61 25 -127 25q-78 0 -142 -25 q-62 -24 -108 -70q-48 -48 -74 -110q-28 -67 -37 -146zM266 1196l223 254h89l221 -254h-66q-16 0 -28 12l-160 168q-2 1 -5 6t-5 7q-1 -1 -3.5 -4.5t-3.5 -4.5l-4 -4l-162 -168q-4 -4 -12 -8t-14 -4h-70z" />
<glyph unicode="&#xeb;" horiz-adv-x="1009" d="M74 530q0 112 30 203q29 88 91 160q56 65 145 104t192 39q86 0 160 -30t127 -86q51 -51 84 -142q31 -85 31 -190q0 -22 -6 -31q-5 -8 -21 -8h-737v-19q0 -116 27 -202q29 -92 75 -146q49 -58 119 -88q73 -31 156 -31q74 0 133 19q66 22 94 37q42 22 62 39q19 16 32 16 q14 0 21 -10l26 -33q-23 -29 -65 -57q-40 -27 -90 -45q-53 -19 -107 -31q-46 -10 -112 -10q-113 0 -193 35q-88 39 -147 106q-61 70 -95 170q-32 95 -32 231zM174 612h672q0 77 -23 148q-19 57 -63 108q-40 46 -98 70q-61 25 -127 25q-78 0 -142 -25q-62 -24 -108 -70 q-48 -48 -74 -110q-28 -67 -37 -146zM274 1315q0 15 7 33q5 13 18 26q14 14 27 19q20 8 32 8q11 0 31 -8q17 -7 29 -19q13 -13 18 -26q6 -15 6 -33q0 -16 -6 -31t-18 -27q-11 -11 -29 -18q-15 -6 -31 -6q-17 0 -32 6t-27 18t-18 27q-7 18 -7 31zM625 1315q0 18 6 33 q5 13 18 26q14 14 27 19q20 8 33 8q12 0 32 -8q13 -5 27 -19q13 -13 18 -26q9 -22 9 -33q0 -9 -9 -31q-6 -15 -18 -27t-27 -18t-32 -6q-18 0 -33 6t-27 18t-18 27t-6 31z" />
<glyph unicode="&#xec;" horiz-adv-x="585" d="M98 1466h95q20 0 36 -8q13 -7 25 -24l160 -246h-54q-10 0 -22 4q-3 1 -16 14zM111 0v41q0 34 41 37h14h33q7 0 27 2t34 2v856q-10 0 -27 1t-24 1h-31q-3 0 -8.5 1t-7.5 1h-10q-41 3 -41 37v41h149h96v-938q10 0 27 -1t23 -1q8 0 19 -1t13 -1h15h10q41 -3 41 -37v-41h-148 h-96h-149z" />
<glyph unicode="&#xed;" horiz-adv-x="581" d="M98 0v41q0 34 41 37h15h32q7 0 27.5 2t34.5 2v856q-10 0 -27 1t-24 1h-31q-3 0 -7.5 1t-6.5 1h-13q-41 3 -41 37v41h150h96v-938q10 0 27 -1t24 -1q8 0 18.5 -1t12.5 -1h14h13q39 -3 39 -37v-41h-148h-96h-150zM211 1188l162 246q13 19 22 24q16 8 37 8h96l-221 -260 q-13 -13 -16 -14q-12 -4 -21 -4h-59z" />
<glyph unicode="&#xee;" horiz-adv-x="575" d="M29 1196l225 254h86l221 -254h-65q-17 0 -29 12l-160 168q-2 1 -5 6t-5 7q-1 -1 -3 -4.5t-3 -4.5l-4 -4l-160 -168q-4 -4 -12 -8t-17 -4h-69zM96 0v41q0 34 41 37h15h32q7 0 27.5 2t34.5 2v856q-10 0 -27 1t-24 1h-31q-3 0 -9 1t-8 1h-10q-41 3 -41 37v41h150h96v-938 q10 0 26 -1t23 -1q8 0 19.5 -1t13.5 -1h14h11q40 -3 40 -37v-41h-147h-96h-150z" />
<glyph unicode="&#xef;" horiz-adv-x="606" d="M53 1315q0 13 8 33q5 12 19 26t26 19q20 8 31 8q13 0 33 -8q13 -5 27 -19q13 -13 18 -26q6 -15 6 -33q0 -16 -6 -31t-18 -27t-27 -18t-33 -6q-16 0 -31 6q-13 5 -26 18q-14 14 -19 27q-8 20 -8 31zM115 0v41q0 34 41 37h12h33q7 0 27 2t34 2v856q-10 0 -26 1t-23 1h-33 q-3 0 -7.5 1t-6.5 1h-10q-41 3 -41 37v41h147h98v-938q10 0 27 -1t23 -1q8 0 18 -1t12 -1h17h10q41 -3 41 -37v-41h-148h-98h-147zM406 1315q0 18 6 33q5 13 18 26q14 14 27 19q15 6 32 6q16 0 31 -6q17 -7 29 -19q9 -9 16 -26q8 -20 8 -33q0 -11 -8 -31q-7 -18 -16 -27 q-11 -11 -29 -18q-15 -6 -33 -6q-15 0 -30 6t-27 18t-18 27t-6 31z" />
<glyph unicode="&#xf0;" horiz-adv-x="1071" d="M70 467q0 104 28 184q29 84 88 152q54 63 140 102q81 37 188 37q54 0 109 -12q54 -12 106 -43q53 -32 94 -76q46 -49 78 -106q-15 183 -88 311q-72 126 -184 201l-168 -150l-19 29q-6 9 -6 18q0 8 13 21l129 112q-59 33 -129 58q-59 21 -146 38q-3 1 -5.5 2.5t-5.5 4.5 t-5 4q-8 8 -8 22q0 7 2 15q3 13 4 14l6 20q95 -16 182 -45q91 -31 170 -80l156 140l18 -31q6 -9 6 -16q0 -9 -14 -23l-117 -102q61 -47 119 -111q44 -49 92 -143q41 -80 62 -180q22 -104 22 -220q0 -137 -31 -258q-29 -113 -88 -196q-61 -86 -145 -127q-92 -45 -207 -45 q-100 0 -174 32q-78 34 -141 97q-64 64 -97 149q-34 87 -34 201zM168 467q0 -99 27 -172q26 -71 77 -125q48 -51 113 -78q62 -26 135 -26q97 0 158 34q77 43 117 101q48 69 71 161q26 103 29 216q-14 50 -45 104q-29 51 -76 92q-55 48 -106 68q-62 24 -138 24 q-90 0 -157 -30q-71 -32 -115 -84q-42 -51 -68 -129q-22 -67 -22 -156z" />
<glyph unicode="&#xf1;" horiz-adv-x="1280" d="M102 0v41q0 34 39 37h15h32q7 0 27.5 2t34.5 2v856q-10 0 -27 1t-24 1h-31q-3 0 -7.5 1t-6.5 1h-13q-39 3 -39 37v39h148h53q28 0 31 -25l8 -153q66 83 162 141q92 53 207 53q85 0 147 -26q64 -27 107 -76q41 -46 63 -121q23 -77 23 -160v-569q9 0 26 -1t23 -1q8 0 18 -1 t12 -1h17h10q41 -3 41 -37v-41h-147h-99v651q0 143 -65 226q-64 79 -201 79q-103 0 -186 -51q-87 -54 -154 -141v-682q10 0 27 -1t24 -1q8 0 18.5 -1t12.5 -1h14h13q39 -3 39 -37v-41h-148h-96h-148zM385 1243q0 37 10 70q5 21 31 55q18 24 47 37q27 12 62 12q38 0 65 -16 q15 -9 57 -37t54 -37q21 -16 53 -16q43 0 65 28q25 32 25 76h59q0 -36 -10 -69q-9 -29 -29 -56q-19 -26 -45 -37q-32 -14 -63 -14q-34 0 -64 18q-15 9 -57 37q-51 34 -55 37q-23 17 -51 17q-46 0 -66 -29q-21 -30 -24 -76h-64z" />
<glyph unicode="&#xf2;" horiz-adv-x="1075" d="M74 510q0 118 30 217t91 166q60 66 147 104q89 39 195 39q107 0 196 -39q93 -41 148 -104q61 -70 90 -166q30 -99 30 -217q0 -120 -30 -215q-31 -98 -90 -166q-55 -63 -148 -104q-84 -37 -196 -37q-111 0 -195 37q-87 38 -147 104q-59 65 -91 166q-30 95 -30 215z M172 510q0 -98 25 -184q26 -91 67 -142q48 -60 115 -90q70 -31 158 -31q89 0 159 31q67 30 115 90q47 59 68 142q22 86 22 184t-22 184q-21 83 -68 142q-50 63 -115 92q-68 30 -159 30t-158 -30q-65 -29 -115 -92q-41 -51 -67 -142q-25 -86 -25 -184zM328 1466h94 q21 0 37 -8q12 -6 24 -24l160 -244h-55q-15 0 -21 2q-3 1 -16 14z" />
<glyph unicode="&#xf3;" horiz-adv-x="1077" d="M74 510q0 118 30 217q29 96 93 166q61 67 145 104q89 39 197 39q107 0 196 -39q90 -40 146 -104q61 -70 90 -166q33 -109 33 -217q0 -111 -33 -215q-31 -98 -90 -166q-56 -64 -146 -104q-84 -37 -196 -37q-113 0 -197 37t-145 104q-62 68 -93 166q-30 95 -30 215z M174 510q0 -105 23 -184q25 -87 69 -142q49 -62 113 -90q70 -31 160 -31q89 0 159 31q64 28 113 90q50 63 70 142t20 184t-20 184t-70 142q-51 65 -113 92q-68 30 -159 30q-93 0 -160 -30q-62 -27 -113 -92q-44 -55 -69 -142q-23 -79 -23 -184zM453 1190l161 244 q12 19 23 24q16 8 37 8h96l-221 -260q-13 -12 -17 -14q-6 -2 -20 -2h-59z" />
<glyph unicode="&#xf4;" horiz-adv-x="1075" d="M74 510q0 118 30 217t91 166q60 66 147 104q89 39 195 39q107 0 196 -39q93 -41 148 -104q61 -70 90 -166q30 -99 30 -217q0 -120 -30 -215q-31 -98 -90 -166q-55 -63 -148 -104q-84 -37 -196 -37q-111 0 -195 37q-87 38 -147 104q-59 65 -91 166q-30 95 -30 215z M172 510q0 -98 25 -184q26 -91 67 -142q48 -60 115 -90q70 -31 158 -31q89 0 159 31q67 30 115 90q47 59 68 142q22 86 22 184t-22 184q-21 83 -68 142q-50 63 -115 92q-68 30 -159 30t-158 -30q-65 -29 -115 -92q-41 -51 -67 -142q-25 -86 -25 -184zM272 1198l224 252h88 l221 -252l-66 -2q-16 0 -28 12l-160 168q-2 1 -5 6t-5 7q-1 -1 -3 -4.5t-3 -4.5l-5 -4l-161 -168q-3 -3 -13 -8q-4 -2 -14 -2h-70z" />
<glyph unicode="&#xf5;" horiz-adv-x="1079" d="M74 510q0 111 32 217q30 99 91 166q60 66 147 104q89 39 197 39q105 0 194 -39q90 -40 146 -104q64 -74 92 -166q31 -102 31 -217q0 -117 -31 -215q-30 -94 -92 -166q-56 -64 -146 -104q-84 -37 -194 -37q-113 0 -197 37q-87 38 -147 104q-59 65 -91 166t-32 215z M176 510q0 -105 23 -184q26 -91 67 -142q48 -60 115 -90q70 -31 160 -31q87 0 157 31q67 30 115 90q47 59 68 142q22 86 22 184t-22 184q-21 83 -68 142q-50 63 -115 92q-68 30 -157 30q-93 0 -160 -30q-65 -29 -115 -92q-41 -51 -67 -142q-23 -79 -23 -184zM281 1243 q0 37 10 70q7 27 28 55q17 22 50 37q31 14 61 14q36 0 66 -18q15 -9 57 -37q33 -22 53 -37q21 -16 53 -16q44 0 66 28q25 32 25 76h59q0 -36 -10 -69q-9 -29 -29 -56q-19 -26 -45 -37q-27 -12 -63 -12q-37 0 -64 16q-15 9 -57 37q-3 2 -25 16t-31 21q-23 17 -51 17 q-45 0 -65 -29q-22 -32 -25 -76h-63z" />
<glyph unicode="&#xf6;" horiz-adv-x="1079" d="M74 510q0 111 32 217q30 99 91 166q60 66 147 104q89 39 197 39q105 0 194 -39q90 -40 146 -104q64 -74 92 -166q31 -102 31 -217q0 -117 -31 -215q-30 -94 -92 -166q-56 -64 -146 -104q-84 -37 -194 -37q-113 0 -197 37q-87 38 -147 104q-59 65 -91 166t-32 215z M176 510q0 -105 23 -184q26 -91 67 -142q48 -60 115 -90q70 -31 160 -31q87 0 157 31q67 30 115 90q47 59 68 142q22 86 22 184t-22 184q-21 83 -68 142q-50 63 -115 92q-68 30 -157 30q-93 0 -160 -30q-65 -29 -115 -92q-41 -51 -67 -142q-23 -79 -23 -184zM283 1315 q0 18 6 33q5 13 18 26q14 14 27 19q20 8 31 8q12 0 32 -8q13 -5 27 -19q13 -13 18 -26q9 -22 9 -33q0 -9 -9 -31q-6 -15 -18 -27t-27 -18t-32 -6q-16 0 -31 6t-27 18t-18 27t-6 31zM631 1315q0 13 8 33q5 13 18 26q14 14 27 19q20 8 33 8q11 0 31 -8q12 -5 26 -19t19 -26 q8 -20 8 -33q0 -16 -6 -31q-4 -10 -21 -27q-13 -13 -26 -18q-15 -6 -31 -6q-18 0 -33 6t-27 18t-18 27q-8 20 -8 31z" />
<glyph unicode="&#xf7;" horiz-adv-x="1073" d="M53 649v76h963v-76h-963zM438 1049q0 40 29 69t68 29q12 0 36 -8q12 -4 29 -21q16 -16 21 -31q8 -24 8 -38q0 -13 -8 -37q-8 -16 -21 -29q-14 -15 -31 -20q-27 -9 -37 -9q-36 0 -65 29t-29 66zM440 322q0 40 27 67q29 29 68 29q12 0 36 -8q12 -4 29 -21q16 -16 21 -31 q8 -24 8 -36q0 -15 -8 -39q-8 -16 -21 -29q-17 -17 -29 -21q-18 -6 -36 -6q-41 0 -68 27t-27 68z" />
<glyph unicode="&#xf8;" horiz-adv-x="1105" d="M86 510q0 108 33 217q31 101 90 166q60 66 147 104q89 39 197 39q82 0 162 -26q71 -23 129 -72l90 119q18 23 20 24q9 6 29 6h51l-143 -194q63 -70 92 -164q33 -109 33 -219q0 -117 -31 -215q-30 -94 -92 -166q-56 -65 -145 -104q-84 -37 -195 -37q-165 0 -277 80 l-83 -113q-13 -20 -29 -25q-24 -8 -35 -8h-39l139 187q-67 64 -106 170q-37 101 -37 231zM182 510q0 -105 25 -191q25 -85 72 -141l516 694q-50 46 -107 66q-67 23 -135 23q-88 0 -162 -33q-73 -37 -115 -90q-46 -58 -71 -144q-23 -79 -23 -184zM326 133q90 -72 227 -72 q86 0 160 33q66 29 114 90q45 57 70 142q25 86 25 184q0 197 -82 313z" />
<glyph unicode="&#xf9;" horiz-adv-x="1216" d="M37 979v39h149l97 2v-651q0 -143 65 -226q67 -82 201 -82q96 0 186 52q91 56 156 141v684q-10 0 -27.5 1t-23.5 1h-31q-3 0 -7.5 1t-6.5 1h-13q-39 3 -39 37v39h148l96 2v-938q9 0 27 -1t24 -1q8 0 18.5 -1t12.5 -1h14h13q39 -3 39 -37v-41h-148h-53q-29 0 -29 27 l-10 151q-69 -86 -164 -141q-92 -53 -207 -53q-85 0 -147 26q-61 25 -107 78q-41 46 -63 121q-21 71 -21 160v569q-10 0 -27 1t-24 1h-31q-3 0 -7.5 1t-6.5 1h-12q-41 3 -41 37zM383 1466h94q21 0 37 -8q10 -5 23 -24l161 -244h-55q-16 0 -22 2q-5 2 -17 14z" />
<glyph unicode="&#xfa;" horiz-adv-x="1216" d="M37 979v39h149l97 2v-651q0 -143 65 -226q67 -82 201 -82q96 0 186 52q91 56 156 141v684q-10 0 -27.5 1t-23.5 1h-31q-3 0 -7.5 1t-6.5 1h-13q-39 3 -39 37v39h148l96 2v-938q9 0 27 -1t24 -1q8 0 18.5 -1t12.5 -1h14h13q39 -3 39 -37v-41h-148h-53q-29 0 -29 27 l-10 151q-69 -86 -164 -141q-92 -53 -207 -53q-85 0 -147 26q-61 25 -107 78q-41 46 -63 121q-21 71 -21 160v569q-10 0 -27 1t-24 1h-31q-3 0 -7.5 1t-6.5 1h-12q-41 3 -41 37zM506 1190l162 244q13 19 22 24q16 8 37 8h96l-221 -260q-13 -13 -16 -14q-6 -2 -21 -2h-59z " />
<glyph unicode="&#xfb;" horiz-adv-x="1216" d="M37 979v39h149l97 2v-651q0 -143 65 -226q67 -82 201 -82q96 0 186 52q91 56 156 141v684q-10 0 -27.5 1t-23.5 1h-31q-3 0 -7.5 1t-6.5 1h-13q-39 3 -39 37v39h148l96 2v-938q9 0 27 -1t24 -1q8 0 18.5 -1t12.5 -1h14h13q39 -3 39 -37v-41h-148h-53q-29 0 -29 27 l-10 151q-69 -86 -164 -141q-92 -53 -207 -53q-85 0 -147 26q-61 25 -107 78q-41 46 -63 121q-21 71 -21 160v569q-10 0 -27 1t-24 1h-31q-3 0 -7.5 1t-6.5 1h-12q-41 3 -41 37zM328 1198l223 252h86l223 -252h-67q-15 0 -27 12l-160 166q-2 1 -6.5 6.5t-5.5 6.5 q-1 -1 -2 -4.5t-2 -4.5t-3 -2t-3 -2l-160 -166q-8 -8 -12 -10t-17 -2h-67z" />
<glyph unicode="&#xfc;" horiz-adv-x="1218" d="M39 979v39h147l99 2v-651q0 -143 65 -226q67 -82 201 -82q94 0 184 52q91 56 156 141v684q-9 0 -25.5 1t-23.5 1h-31q-3 0 -8.5 1t-7.5 1h-11q-41 3 -41 37v39h148l98 2v-938q9 0 26 -1t23 -1q8 0 18.5 -1t12.5 -1h16h11q41 -3 41 -37v-41h-148h-53q-31 0 -31 27l-8 151 q-69 -86 -164 -141q-92 -53 -207 -53q-87 0 -149 26q-58 24 -105 78q-41 46 -63 121q-23 77 -23 160v569q-10 0 -26 1t-23 1h-31q-3 0 -8.5 1t-7.5 1h-10q-41 3 -41 37zM336 1315q0 18 6 33q5 13 18 26q14 14 27 19q20 8 31 8q13 0 33 -8q12 -5 26 -19t19 -26q8 -20 8 -33 q0 -11 -8 -31q-5 -13 -19 -27q-13 -13 -26 -18q-15 -6 -33 -6q-16 0 -31 6t-27 18t-18 27t-6 31zM686 1315q0 18 6 33q5 12 19 26t26 19q20 8 33 8q11 0 31 -8q15 -6 28 -19q14 -14 19 -26q6 -15 6 -33q0 -16 -6 -31q-5 -13 -19 -27q-11 -11 -28 -18q-15 -6 -31 -6 q-18 0 -33 6q-13 5 -26 18q-14 14 -19 27q-6 15 -6 31z" />
<glyph unicode="&#xfd;" horiz-adv-x="1179" d="M33 979v39h69h80h2h207v-39q0 -34 -41 -37h-12l-12 -1q-12 -1 -21 -1q-7 0 -28 -1t-33 -1l319 -737q2 -5 5 -15.5t5 -15.5q1 -5 4.5 -15.5t4.5 -15.5q2 5 5 15.5t5 15.5l12 31l316 737q-10 0 -27 1t-23 1h-30q-3 0 -8 1t-7 1h-12q-39 3 -39 37v39h203h76h77v-39 q0 -34 -40 -37h-11q-1 0 -8 -1t-14 -1h-39l-551 -1268q-4 -10 -16 -22q-10 -10 -27 -10h-70l178 397l-395 903l-63 2q-41 3 -41 37zM516 1190l162 244q13 19 22 24q16 8 37 8h97l-222 -260q-13 -13 -16 -14q-6 -2 -21 -2h-59z" />
<glyph unicode="&#xfe;" horiz-adv-x="1097" d="M172 -360v1851h96v-651q69 90 158 143t201 53q184 0 291 -131q106 -130 106 -389q0 -107 -31 -209q-30 -100 -84 -168t-139 -110q-84 -41 -190 -41q-107 0 -181 39q-76 40 -131 116v-503h-96zM268 223q57 -87 129 -125q66 -35 164 -35q93 0 158 33q69 35 112 92 q47 62 68 144q23 79 23 184q0 227 -82 334q-82 108 -242 108q-101 0 -184 -53q-81 -51 -146 -147v-535z" />
<glyph unicode="&#xff;" horiz-adv-x="1179" d="M33 979v39h69h80h2h207v-39q0 -34 -41 -37h-12l-12 -1q-12 -1 -21 -1q-7 0 -28 -1t-33 -1l319 -737q2 -5 5 -15.5t5 -15.5q1 -5 4.5 -15.5t4.5 -15.5q2 5 5 15.5t5 15.5l12 31l316 737q-10 0 -27 1t-23 1h-30q-3 0 -8 1t-7 1h-12q-39 3 -39 37v39h203h76h77v-39 q0 -34 -40 -37h-11q-1 0 -8 -1t-14 -1h-39l-551 -1268q-4 -10 -16 -22q-10 -10 -27 -10h-70l178 397l-395 903l-63 2q-41 3 -41 37zM344 1315q0 18 6 33q5 12 19 26t26 19q20 8 33 8q11 0 31 -8q15 -6 28 -19q14 -14 19 -26q6 -15 6 -33q0 -16 -6 -31q-5 -13 -19 -27 q-11 -11 -28 -18q-15 -6 -31 -6q-18 0 -33 6q-13 5 -26 18q-14 14 -19 27q-6 15 -6 31zM694 1315q0 18 6 33q5 12 19 26t26 19q20 8 33 8t33 -8q13 -5 27 -19q13 -13 18 -26q8 -20 8 -33q0 -11 -8 -31q-6 -15 -18 -27t-27 -18t-33 -6t-33 6q-13 5 -26 18q-14 14 -19 27 q-6 15 -6 31z" />
<glyph unicode="&#x152;" horiz-adv-x="2236" d="M78 725q0 169 45 303q50 146 127 234q86 98 196 149q115 53 252 53q98 0 181 -24q80 -23 151 -70q64 -42 125 -113q54 -66 92 -149v340h858v-86v-213h-49q-24 0 -33.5 12t-11.5 37q0 4 -8 164h-662v-586h578v-84h-578v-604h662q8 160 8 162q3 51 45 51h49v-213v-88h-858 v342q-41 -89 -92 -149q-55 -67 -125 -113q-71 -47 -151 -70q-76 -22 -181 -22q-141 0 -252 51q-110 51 -196 149q-77 88 -127 234q-45 131 -45 303zM184 725q0 -147 39 -272q38 -122 109 -205q72 -88 166 -129q98 -43 213 -43q122 0 215 43q94 41 166 129q68 83 106 205 q39 125 39 272t-39 272q-38 123 -106 205q-65 79 -166 129q-91 45 -215 45q-117 0 -213 -45q-93 -44 -166 -129q-72 -88 -109 -205q-39 -125 -39 -272z" />
<glyph unicode="&#x153;" horiz-adv-x="1734" d="M80 510q0 115 31 217q31 101 84 166q53 64 137 104q83 39 182 39q146 0 246 -80t143 -217q23 73 55 121q38 57 84 94q48 39 109 60q64 22 135 22q74 0 146 -32q65 -29 116 -89q48 -57 76 -145q29 -92 29 -201q0 -23 -6 -32t-21 -9h-676q0 -111 25 -200q24 -86 72 -146 t108 -88t141 -28q75 0 119 16q57 21 86 37q36 20 58 39q19 16 30 16q14 0 21 -10l26 -33q-25 -31 -61 -57q-37 -27 -84 -45q-54 -21 -98 -31t-105 -10q-140 0 -237 75q-100 77 -146 226q-44 -144 -143 -221q-103 -80 -250 -80q-102 0 -180 37q-84 40 -137 104 q-51 62 -84 166q-31 98 -31 215zM180 510q0 -102 21 -184q22 -87 63 -142q46 -62 107 -90q67 -31 149 -31t146 31q58 28 104 90q42 57 64 142q22 86 22 184t-22 184q-22 85 -64 142q-48 65 -104 92q-61 30 -146 30q-84 0 -149 -30q-59 -27 -107 -92q-41 -55 -63 -142 q-21 -82 -21 -184zM954 592h613q0 88 -21 156q-22 69 -57 116q-38 50 -90 74q-55 25 -113 25q-74 0 -133 -27q-62 -29 -102 -74q-41 -47 -66 -117t-31 -153z" />
<glyph unicode="&#x178;" horiz-adv-x="1406" d="M49 1409v39h66h10h82h16h205v-39q0 -34 -41 -37h-14q-3 0 -15.5 -1t-21.5 -1q-8 0 -26 -1t-29 -1l381 -610q15 -24 24 -45q3 -7 9.5 -22.5t9.5 -22.5q3 7 9 22.5t9 22.5q7 16 25 45l378 610q-10 0 -29 1t-26 1q-9 0 -20.5 1t-14.5 1h-16q-41 3 -41 37v39h205h16h82h10h66 v-39q0 -34 -41 -37q-70 -4 -76 -4l-485 -770v-516q13 0 35.5 -1t31.5 -1q11 0 26 -1t19 -1h21q39 -3 39 -37v-41h-172h-105h-172v41q0 34 41 37h19q4 0 19 1t26 1q9 0 31.5 1t35.5 1v516l-485 770q-6 0 -76 4q-41 3 -41 37zM408 1704q0 13 8 33q7 17 16 26q14 14 27 19 q15 6 30 6q18 0 33 -6q13 -5 27 -19q13 -13 18 -26q6 -15 6 -33q0 -16 -6 -31t-18 -24q-14 -14 -27 -19q-15 -6 -33 -6q-15 0 -30 6q-4 1 -27 19q-11 11 -16 24q-8 20 -8 31zM834 1704q0 35 24 59q25 25 60 25q15 0 30 -6q13 -5 27 -19q13 -13 18 -26q6 -15 6 -33 q0 -16 -6 -31t-18 -24q-14 -14 -27 -19q-15 -6 -30 -6q-18 0 -33 6q-4 1 -27 19q-11 11 -16 24q-8 20 -8 31z" />
<glyph unicode="&#x2c6;" horiz-adv-x="765" d="M115 1196l225 254h86l221 -254h-65q-17 0 -29 12l-160 168q-2 1 -5 6t-5 7q-1 -1 -3 -4.5t-3 -4.5l-4 -4l-160 -168q-4 -4 -12 -8t-17 -4h-69z" />
<glyph unicode="&#x2dc;" horiz-adv-x="798" d="M135 1243q0 30 12 70q7 25 29 55q18 24 47 37q27 12 64 12q36 0 63 -16q25 -15 58 -37t53 -37q21 -16 53 -16q44 0 66 28q24 31 24 76h60q0 -39 -9 -69q-9 -31 -28 -56q-18 -24 -47 -37q-27 -12 -64 -12q-36 0 -63 16q-25 15 -58 37t-53 37q-23 17 -53 17q-46 0 -66 -29 q-21 -30 -24 -76h-64z" />
<glyph unicode="&#x2000;" horiz-adv-x="915" />
<glyph unicode="&#x2001;" horiz-adv-x="1831" />
<glyph unicode="&#x2002;" horiz-adv-x="915" />
<glyph unicode="&#x2003;" horiz-adv-x="1831" />
<glyph unicode="&#x2004;" horiz-adv-x="610" />
<glyph unicode="&#x2005;" horiz-adv-x="457" />
<glyph unicode="&#x2006;" horiz-adv-x="305" />
<glyph unicode="&#x2007;" horiz-adv-x="305" />
<glyph unicode="&#x2008;" horiz-adv-x="228" />
<glyph unicode="&#x2009;" horiz-adv-x="366" />
<glyph unicode="&#x200a;" horiz-adv-x="101" />
<glyph unicode="&#x2010;" horiz-adv-x="757" d="M143 565v84h475v-84h-475z" />
<glyph unicode="&#x2011;" horiz-adv-x="757" d="M143 565v84h475v-84h-475z" />
<glyph unicode="&#x2012;" horiz-adv-x="757" d="M143 565v84h475v-84h-475z" />
<glyph unicode="&#x2013;" horiz-adv-x="1081" d="M139 557v72h807v-72h-807z" />
<glyph unicode="&#x2014;" horiz-adv-x="1603" d="M139 557v72h1329v-72h-1329z" />
<glyph unicode="&#x2018;" horiz-adv-x="419" d="M131 1237q0 87 37 154q38 69 102 133l29 -19q8 -5 8 -14q0 -4 -8 -12q-39 -51 -63 -103q-27 -59 -27 -106q0 -62 37 -123q4 -6 4 -17q0 -14 -14 -20l-64 -29q-27 51 -33 78q-8 36 -8 78z" />
<glyph unicode="&#x2019;" horiz-adv-x="423" d="M117 1102q0 8 6 14q42 54 65 105q25 55 25 106q0 62 -37 123q-4 6 -4 16q0 15 16 21l62 24q28 -54 33 -75q10 -42 10 -78q0 -83 -39 -154q-40 -74 -102 -135l-29 18q-6 6 -6 15z" />
<glyph unicode="&#x201a;" horiz-adv-x="444" d="M129 -229q0 8 6 14q48 62 66 102q24 53 24 109q0 60 -37 121q-4 6 -4 16q0 14 17 21l61 26q27 -51 33 -78q10 -42 10 -77q0 -81 -39 -152q-40 -73 -102 -135l-29 18q-6 6 -6 15z" />
<glyph unicode="&#x201c;" horiz-adv-x="696" d="M131 1237q0 87 37 154q38 69 102 133l29 -19q8 -5 8 -14q0 -4 -8 -12q-39 -51 -63 -103q-27 -59 -27 -106q0 -62 37 -123q4 -6 4 -17q0 -14 -14 -20l-64 -29q-27 51 -33 78q-8 36 -8 78zM406 1237q0 85 38 154q39 71 101 133l28 -19q9 -6 9 -14q0 -5 -7 -12 q-37 -48 -63 -105q-27 -59 -27 -106q0 -66 35 -123q6 -9 6 -17q0 -14 -14 -20l-66 -27q-21 41 -30 78q-10 45 -10 78z" />
<glyph unicode="&#x201d;" horiz-adv-x="698" d="M117 1102q0 8 6 14q42 54 65 105q25 55 25 106q0 62 -37 123q-4 6 -4 16q0 15 16 21l62 24q28 -54 33 -75q10 -42 10 -78q0 -83 -39 -154q-40 -74 -102 -135l-29 18q-6 6 -6 15zM393 1102q0 10 4 14q44 57 66 105q24 53 24 106q0 65 -34 121q-7 10 -7 16q0 14 17 21 l61 26q28 -54 33 -75q12 -50 12 -78q0 -80 -41 -154q-43 -78 -100 -135l-29 18q-6 6 -6 15z" />
<glyph unicode="&#x201e;" horiz-adv-x="720" d="M129 -229q0 8 6 14q48 62 66 102q24 53 24 109q0 60 -37 121q-4 6 -4 16q0 14 17 21l61 26q27 -51 33 -78q10 -42 10 -77q0 -81 -39 -152q-40 -73 -102 -135l-29 18q-6 6 -6 15zM406 -229q0 10 4 14q45 58 65 102q25 55 25 109q0 64 -35 121q-6 9 -6 16q0 15 16 21l62 26 q25 -48 32 -78q13 -54 13 -77q0 -78 -41 -152q-42 -76 -101 -135l-28 18q-6 6 -6 15z" />
<glyph unicode="&#x2022;" horiz-adv-x="858" d="M129 610q0 64 23 117t65 98q36 39 94 64q55 24 117 24t117 -24q60 -26 98 -64q40 -43 64 -98q22 -51 22 -117q0 -63 -22 -114q-24 -55 -64 -95t-98 -65t-117 -25t-117 25q-51 22 -94 65q-42 42 -65 95t-23 114z" />
<glyph unicode="&#x2026;" horiz-adv-x="1476" d="M143 78q0 16 7 37q5 15 20 30q17 17 29 21q24 8 39 8q12 0 36 -8q12 -4 29 -21t21 -30q8 -24 8 -37t-8 -37q-4 -12 -21 -29q-15 -16 -29 -20q-24 -8 -36 -8q-40 0 -68 28q-27 27 -27 66zM643 78q0 13 8 37q5 13 21 30q18 17 28 21q24 8 37 8t37 -8q15 -5 31 -21 q15 -15 20 -30q9 -27 9 -37t-9 -37q-9 -18 -20 -29q-15 -14 -31 -20q-24 -8 -37 -8q-37 0 -65 28q-29 29 -29 66zM1147 78q0 19 6 37q5 14 21 30q15 15 30 21q24 8 37 8t37 -8q15 -5 31 -21q15 -15 20 -30q6 -18 6 -37t-6 -37q-5 -14 -20 -29q-15 -14 -31 -20q-24 -8 -37 -8 q-39 0 -67 28q-27 27 -27 66z" />
<glyph unicode="&#x202f;" horiz-adv-x="366" />
<glyph unicode="&#x2039;" horiz-adv-x="514" d="M102 524v15l248 387l31 -17q16 -10 16 -24q0 -9 -8 -25l-186 -299q-8 -14 -23 -29q16 -16 23 -28l186 -303q8 -16 8 -23q0 -16 -16 -26l-31 -15z" />
<glyph unicode="&#x203a;" horiz-adv-x="518" d="M123 180q0 7 8 23l186 301q3 6 13 16q2 2 5 6.5t5 5.5l-10 11q-8 8 -13 18l-186 299q-8 16 -8 25q0 16 16 24l33 17l246 -387v-15l-246 -387l-33 17q-16 8 -16 26z" />
<glyph unicode="&#x205f;" horiz-adv-x="457" />
<glyph unicode="&#x20ac;" horiz-adv-x="1282" d="M82 582v61h160q0 7 -1 21t-1 20v41q0 65 2 98h-160v62h166q14 128 63 241q48 111 117 183t164 114q88 39 205 39q77 0 123 -10q40 -9 102 -35q44 -19 90 -55q34 -27 78 -78l-31 -35q-3 -7 -10 -10q-4 -2 -12 -2q-9 0 -19 10q-22 22 -28 27q-9 7 -43 33q-25 19 -60 34 q-36 16 -80 27q-39 10 -104 10q-88 0 -170 -32q-78 -35 -135 -95q-60 -63 -97 -153q-38 -93 -53 -213h619v-31q0 -6 -9 -20q-9 -9 -24 -9h-590q-4 -66 -4 -100v-41q0 -7 1 -20.5t1 -20.5h530v-31q0 -12 -8 -20t-24 -8h-492q13 -132 49 -224q40 -100 95 -161t135 -97 q71 -32 168 -32q63 0 112 12q39 10 84 31q35 17 66 41q18 14 45 41l31 30q13 13 22 13q10 0 19 -9l38 -36q-43 -54 -82 -87q-48 -41 -94 -65q-49 -25 -114 -41q-66 -16 -131 -16q-115 0 -211 41q-99 42 -164 116q-70 79 -113 189q-41 106 -57 252h-164z" />
<glyph unicode="&#x2122;" horiz-adv-x="1482" d="M92 1389v59h481v-59h-202v-529h-72v529h-207zM702 860v590h60q10 0 14 -4q7 -4 10 -8l224 -373l10 -31q11 26 14 31l219 373q2 4 5 6l4 2q8 4 16 4h57v-590h-63v455l6 45l-225 -389q-10 -17 -25 -17h-12q-15 0 -25 17l-229 385l4 -41v-455h-64z" />
<glyph unicode="&#x25fc;" horiz-adv-x="1013" d="M0 0v1014h1014v-1014h-1014z" />
</font>
</defs>
</svg>
