<?xml version="1.0" standalone="no"?>
<!DOCTYPE svg PUBLIC "-//W3C//DTD SVG 1.1//EN" "http://www.w3.org/Graphics/SVG/1.1/DTD/svg11.dtd" >
<svg xmlns="http://www.w3.org/2000/svg">
<metadata></metadata>
<defs>
<font id="texgyreherosregular" horiz-adv-x="556" >
<font-face units-per-em="1000" ascent="784" descent="-216" />
<missing-glyph horiz-adv-x="278" />
<glyph unicode="&#xfb01;" horiz-adv-x="500" d="M18 456v68h70v89q0 56 32.5 87.5t90.5 31.5q23 0 47 -5v-69q-19 1 -29 1q-58 0 -58 -53v-82h87v-68h-87v-456h-83v456h-70zM336 603v104h104v-104h-104zM346 0v524h83v-524h-83z" />
<glyph unicode="&#xfb02;" horiz-adv-x="500" d="M18 456v68h70v89q0 56 32.5 87.5t90.5 31.5q23 0 47 -5v-69q-19 1 -29 1q-58 0 -58 -53v-82h87v-68h-87v-456h-83v456h-70zM346 0v729h83v-729h-83z" />
<glyph unicode="&#xfb03;" horiz-adv-x="758" d="M18 456v68h70v89q0 56 32.5 87.5t90.5 31.5q23 0 47 -5v-69q-19 1 -29 1q-58 0 -58 -53v-82h175v89q0 56 32.5 87.5t90.5 31.5q23 0 47 -5v-69q-19 1 -29 1q-58 0 -58 -53v-82h87v-68h-87v-456h-83v456h-175v-456h-83v456h-70zM594 603v104h104v-104h-104zM604 0v524h83 v-524h-83z" />
<glyph unicode="&#xfb04;" horiz-adv-x="758" d="M18 456v68h70v89q0 56 32.5 87.5t90.5 31.5q23 0 47 -5v-69q-19 1 -29 1q-58 0 -58 -53v-82h175v89q0 56 32.5 87.5t90.5 31.5q23 0 47 -5v-69q-19 1 -29 1q-58 0 -58 -53v-82h87v-68h-87v-456h-83v456h-175v-456h-83v456h-70zM604 0v729h83v-729h-83z" />
<glyph horiz-adv-x="1000" />
<glyph horiz-adv-x="1000" />
<glyph unicode="&#xd;" horiz-adv-x="1000" />
<glyph unicode=" "  horiz-adv-x="278" />
<glyph unicode="&#x09;" horiz-adv-x="278" />
<glyph unicode="&#xa0;" horiz-adv-x="278" />
<glyph unicode="!" horiz-adv-x="278" d="M97 0v104h84v-104h-84zM98 391v338h83v-338l-22 -223h-39z" />
<glyph unicode="&#x22;" horiz-adv-x="355" d="M52 598v111h93v-111l-27 -134h-39zM212 598v111h93v-111l-27 -134h-39z" />
<glyph unicode="#" d="M14 191v68h114l31 174h-108v68h121l36 196h76l-36 -196h125l35 196h77l-36 -196h93v-68h-106l-31 -174h105v-68h-117l-39 -211h-76l38 211h-124l-39 -211h-76l38 211h-101zM204 259h125l31 174h-124z" />
<glyph unicode="$" d="M32 191q0 2 0.5 8t0.5 9h79q6 -53 10 -71t15 -34q33 -47 106 -57v272q-93 28 -126 52q-71 51 -71 146q0 85 50.5 136.5t146.5 63.5v54h59v-54q91 -7 142.5 -59.5t51.5 -137.5h-79q-1 55 -33 90t-82 37v-249q101 -31 131 -48q85 -48 85 -154q0 -96 -55.5 -153.5 t-160.5 -64.5v-103h-59v103q-101 6 -156 61.5t-55 152.5zM127 526q0 -90 116 -121v240q-56 -8 -86 -39t-30 -80zM302 46q65 7 99.5 44.5t34.5 92.5q0 49 -28.5 76t-105.5 50v-263z" />
<glyph unicode="%" horiz-adv-x="889" d="M29 514q0 70 50 120.5t120 50.5q72 0 121.5 -50t49.5 -123q0 -69 -50 -119t-120 -50t-120.5 50.5t-50.5 120.5zM98 514q0 -41 30 -71t72 -30q41 0 71 29.5t30 70.5q0 43 -29.5 72.5t-72.5 29.5q-41 0 -71 -29.5t-30 -71.5zM214 -20l395 729h66l-395 -729h-66zM518 152 q0 70 50 120t120 50q72 0 121.5 -50t49.5 -122q0 -69 -50.5 -119t-119.5 -50q-71 0 -121 50.5t-50 120.5zM587 152q0 -42 30 -71.5t72 -29.5q41 0 71 29.5t30 69.5q0 43 -29.5 72.5t-72.5 29.5q-41 0 -71 -29.5t-30 -70.5z" />
<glyph unicode="&#x26;" horiz-adv-x="667" d="M52 176q0 68 34.5 113.5t127.5 99.5q-47 59 -64 93.5t-17 69.5q0 66 50 111.5t121 45.5t117 -44t46 -113q0 -54 -30 -92t-108 -82l133 -163q31 56 31 119h80q0 -94 -58 -183l122 -151h-109l-62 78q-63 -61 -104.5 -81t-104.5 -20q-92 0 -148.5 54.5t-56.5 144.5zM136 183 q0 -53 38.5 -90.5t92.5 -37.5q73 0 151 82l-160 200q-68 -43 -95 -77.5t-27 -76.5zM215 553q0 -27 12.5 -48.5t57.5 -73.5q59 37 81 63t22 60q0 37 -24.5 61t-62.5 24q-39 0 -62.5 -23.5t-23.5 -62.5z" />
<glyph unicode="'" horiz-adv-x="191" d="M48 598v111h94v-111l-27 -134h-40z" />
<glyph unicode="(" horiz-adv-x="333" d="M73 259q0 118 44 245t119 225h55q-137 -221 -137 -470q0 -248 137 -471h-55q-75 98 -119 225.5t-44 245.5z" />
<glyph unicode=")" horiz-adv-x="333" d="M38 -212q137 221 137 470q0 248 -137 471h55q75 -98 119 -225.5t44 -245.5t-44 -245t-119 -225h-55z" />
<glyph unicode="*" horiz-adv-x="389" d="M40 596l19 59l101 -38v112h58v-112l106 38l19 -59l-108 -30l70 -89l-51 -36l-62 93l-63 -93l-50 36l69 89z" />
<glyph unicode="+" horiz-adv-x="584" d="M68 216v68h190v190h68v-190h190v-68h-190v-190h-68v190h-190z" />
<glyph unicode="," horiz-adv-x="278" d="M87 0v104h105v-120q0 -131 -105 -131v38q35 1 47.5 20t12.5 71v18h-60z" />
<glyph unicode="-" horiz-adv-x="333" d="M46 240v72h238v-72h-238z" />
<glyph unicode="." horiz-adv-x="278" d="M87 0v104h104v-104h-104z" />
<glyph unicode="/" horiz-adv-x="278" d="M-8 -20l237 749h55l-237 -749h-55z" />
<glyph unicode="0" d="M43 347q0 179 58.5 270.5t173.5 91.5q232 0 232 -368q0 -174 -59.5 -265t-172.5 -91q-114 0 -173 91.5t-59 270.5zM133 346q0 -288 140 -288q74 0 109 70.5t35 220.5q0 282 -142 282t-142 -285z" />
<glyph unicode="1" d="M102 505v63q102 13 133 36t54 105h58v-709h-88v505h-157z" />
<glyph unicode="2" d="M34 0q6 117 47 180.5t152 126.5l92 52q96 55 96 140q0 57 -40 95t-100 38q-67 0 -102.5 -40.5t-40.5 -128.5h-88q7 246 234 246q100 0 163.5 -59t63.5 -149q0 -134 -150 -214l-100 -54q-65 -38 -93 -70t-35 -76h373v-87h-472z" />
<glyph unicode="3" d="M32 214h88q5 -77 41 -114t108 -37q69 0 108 37.5t39 104.5q0 60 -37.5 92.5t-109.5 32.5h-48v74q102 0 138 24t36 83q0 56 -33.5 88.5t-91.5 32.5q-68 0 -101 -37t-34 -115h-88q5 229 222 229q101 0 158.5 -52t57.5 -143q0 -104 -99 -143q63 -22 91.5 -61t28.5 -104 q0 -101 -65.5 -161t-174.5 -60q-110 0 -168 56t-66 173z" />
<glyph unicode="4" d="M28 170v93l322 446h65v-460h105v-79h-105v-170h-88v170h-299zM105 249h222v310z" />
<glyph unicode="5" d="M35 182h88q31 -119 145 -119q73 0 114 42t41 118q0 78 -41.5 122t-113.5 44q-41 0 -70 -14.5t-60 -51.5h-81l53 371h366v-87h-295l-28 -183q59 43 131 43q102 0 165.5 -63.5t63.5 -168.5q0 -112 -67.5 -181t-175.5 -69q-97 0 -155.5 47t-79.5 150z" />
<glyph unicode="6" d="M43 323q0 186 65.5 286t188.5 100q81 0 134.5 -49t66.5 -136h-88q-11 51 -42 79t-77 28q-76 0 -116.5 -69.5t-41.5 -199.5q58 79 163 79q96 0 156.5 -61t60.5 -160q0 -104 -65 -169.5t-167 -65.5q-238 0 -238 338zM138 218q0 -68 41 -111.5t103 -43.5q61 0 101 42t40 108 q0 71 -37 110.5t-101 39.5q-66 0 -106.5 -39.5t-40.5 -105.5z" />
<glyph unicode="7" d="M46 607v87h474v-74q-229 -272 -288 -620h-94q75 335 291 607h-383z" />
<glyph unicode="8" d="M37 201q0 114 121 172q-54 34 -75 66t-21 81q0 83 59.5 136t153.5 53t153.5 -53t59.5 -136q0 -50 -21 -82t-76 -65q122 -58 122 -173q0 -96 -66.5 -155.5t-171.5 -59.5q-106 0 -172 59.5t-66 156.5zM127 199q0 -62 40.5 -99t105.5 -37q68 0 109 36.5t41 99.5 q0 62 -40.5 98.5t-107.5 36.5t-107.5 -36.5t-40.5 -98.5zM152 519q0 -50 33.5 -80.5t89.5 -30.5q55 0 89 30t34 80q0 52 -33.5 82.5t-89.5 30.5t-89.5 -30.5t-33.5 -81.5z" />
<glyph unicode="9" d="M38 474q0 104 65 169.5t167 65.5q239 0 239 -338q0 -185 -65.5 -285.5t-189.5 -100.5q-81 0 -134.5 49t-66.5 136h88q11 -51 42 -79t77 -28q76 0 116.5 69.5t41.5 199.5q-66 -79 -162 -79t-157 61t-61 160zM128 481q0 -71 37 -110.5t101 -39.5q65 0 106 40t41 105 q0 68 -41 112t-103 44q-61 0 -101 -42t-40 -109z" />
<glyph unicode=":" horiz-adv-x="278" d="M87 0v104h104v-104h-104zM87 420v104h104v-104h-104z" />
<glyph unicode=";" horiz-adv-x="278" d="M87 0v104h105v-120q0 -131 -105 -131v38q35 1 47.5 20t12.5 71v18h-60zM88 420v104h104v-104h-104z" />
<glyph unicode="&#x3c;" horiz-adv-x="584" d="M114 224v52l334 293v-90l-260 -229l260 -229v-90z" />
<glyph unicode="=" horiz-adv-x="584" d="M68 125v68h448v-68h-448zM68 307v68h448v-68h-448z" />
<glyph unicode="&#x3e;" horiz-adv-x="584" d="M114 21l260 229l-260 229v90l334 -293v-52l-334 -293v90z" />
<glyph unicode="?" d="M70 507q0 115 55.5 174.5t163.5 59.5q97 0 155 -52t58 -140q0 -50 -22 -89t-78 -90q-51 -47 -65 -69.5t-14 -54.5v-47h-90v55q0 50 28 87q13 17 22.5 26.5t53.5 49.5q75 67 75 132q0 51 -35 82.5t-93 31.5q-67 0 -98 -37.5t-31 -118.5h-85zM233 0v104h90v-104h-90z" />
<glyph unicode="@" horiz-adv-x="1015" d="M34 258q0 128 66.5 239.5t180 177.5t244.5 66q175 0 300.5 -110t125.5 -262q0 -75 -34.5 -146.5t-98.5 -118.5t-139 -47q-96 0 -110 77q-66 -72 -142 -72q-70 0 -116.5 52.5t-46.5 130.5q0 109 78 193t179 84q84 0 122 -87l22 66h83l-90 -280q-13 -38 -12 -50 q0 -18 15 -31t35 -13q64 0 116 71t52 159q0 125 -104.5 216t-247.5 91q-158 0 -275.5 -117t-117.5 -274q0 -143 108 -240.5t267 -97.5q79 0 193 32l28 -67q-112 -42 -226 -42q-124 0 -229 53.5t-165.5 145.5t-60.5 201zM354 244q0 -49 29 -83.5t70 -34.5q58 0 105 72t51 164 v5q0 39 -27 65t-67 26q-63 0 -112 -65t-49 -149z" />
<glyph unicode="A" horiz-adv-x="667" d="M17 0l260 729h120l256 -729h-104l-75 219h-281l-77 -219h-99zM216 297h232l-112 332z" />
<glyph unicode="B" horiz-adv-x="667" d="M79 0v729h296q101 0 158.5 -51.5t57.5 -133.5q0 -112 -101 -159q70 -27 101.5 -69t31.5 -108q0 -91 -59 -149.5t-156 -58.5h-329zM172 82h227q63 0 97 35t34 90q0 56 -33.5 91t-97.5 35h-227v-251zM172 415h180q146 0 146 116t-146 116h-180v-232z" />
<glyph unicode="C" horiz-adv-x="722" d="M48 356q0 168 87 279.5t246 111.5q237 0 281 -244h-95q-17 84 -64.5 123t-132.5 39q-105 0 -167 -83.5t-62 -224.5q0 -136 64 -214.5t173 -78.5q91 0 138.5 48.5t64.5 153.5h96q-33 -284 -300 -284q-156 0 -242.5 104.5t-86.5 269.5z" />
<glyph unicode="D" horiz-adv-x="722" d="M89 0v729h281q139 0 218 -97t79 -267t-79.5 -267.5t-217.5 -97.5h-281zM182 82h172q108 0 164 72t56 210q0 139 -56 211t-164 72h-172v-565z" />
<glyph unicode="E" horiz-adv-x="667" d="M90 0v729h505v-82h-412v-233h397v-82h-397v-250h430v-82h-523z" />
<glyph unicode="F" horiz-adv-x="611" d="M90 0v729h489v-82h-396v-233h348v-82h-348v-332h-93z" />
<glyph unicode="G" horiz-adv-x="778" d="M44 357q0 169 93.5 279.5t256.5 110.5q125 0 205 -63.5t100 -175.5h-95q-15 71 -72 114t-139 43q-115 0 -185.5 -84t-70.5 -219t69.5 -216.5t191.5 -81.5q100 0 164.5 61t64.5 158v20h-222v82h304v-385h-59l-23 96q-102 -114 -249 -114q-148 0 -241 103.5t-93 271.5z" />
<glyph unicode="H" horiz-adv-x="722" d="M83 0v729h93v-315h375v315h93v-729h-93v332h-375v-332h-93z" />
<glyph unicode="I" horiz-adv-x="278" d="M100 0v729h93v-729h-93z" />
<glyph unicode="J" horiz-adv-x="500" d="M19 175v59h93v-42q0 -64 28 -98t81 -34q56 0 84 37t28 124v508h93v-542q0 -95 -55.5 -150t-150.5 -55t-148 52t-53 141z" />
<glyph unicode="K" horiz-adv-x="667" d="M79 0v729h93v-369l363 369h120l-297 -297l300 -432h-110l-257 374l-119 -119v-255h-93z" />
<glyph unicode="L" d="M80 0v729h93v-647h360v-82h-453z" />
<glyph unicode="M" horiz-adv-x="833" d="M75 0v729h129l216 -635l212 635h129v-729h-88v611l-205 -611h-98l-207 611v-611h-88z" />
<glyph unicode="N" horiz-adv-x="722" d="M76 0v729h101l381 -596v596h88v-729h-105l-377 591v-591h-88z" />
<glyph unicode="O" horiz-adv-x="778" d="M38 359q0 172 97.5 280t253.5 108q160 0 256.5 -108.5t96.5 -285.5q0 -163 -96.5 -267t-255.5 -104q-158 0 -255 103.5t-97 273.5zM131 359q0 -134 71 -214.5t188 -80.5q116 0 187.5 80t71.5 211q0 139 -71 224.5t-189 85.5q-115 0 -186.5 -85.5t-71.5 -220.5z" />
<glyph unicode="P" horiz-adv-x="667" d="M91 0v729h301q108 0 166.5 -55.5t58.5 -158.5q0 -91 -57 -148.5t-147 -57.5h-229v-309h-93zM184 391h194q67 0 104.5 34t37.5 94t-37.5 94t-104.5 34h-194v-256z" />
<glyph unicode="Q" horiz-adv-x="778" d="M38 359q0 172 97.5 280t254.5 108t254.5 -108t97.5 -278q0 -167 -103 -280l94 -77l-47 -58l-105 87q-86 -51 -191 -51q-158 0 -255 103.5t-97 273.5zM131 359q0 -135 70.5 -215t187.5 -80q60 0 120 28l-74 62l46 56l89 -73q79 89 79 223q0 135 -71.5 220t-187.5 85 t-187.5 -85t-71.5 -221z" />
<glyph unicode="R" horiz-adv-x="722" d="M93 0v729h336q107 0 164.5 -50.5t57.5 -144.5q0 -62 -27 -103t-88 -71q59 -25 78 -62.5t21 -127.5q1 -73 9.5 -101t34.5 -46v-23h-113q-22 52 -21 119l1 65q1 67 -28.5 98.5t-91.5 31.5h-240v-314h-93zM186 396h225q74 0 108.5 30t34.5 95q0 63 -33.5 94.5t-109.5 31.5 h-225v-251z" />
<glyph unicode="S" horiz-adv-x="667" d="M48 237h88q0 -80 52.5 -126.5t153.5 -46.5q186 0 186 127q0 83 -134 118l-181 48q-143 37 -143 170q0 100 70 160t189 60q126 0 196.5 -59.5t70.5 -166.5h-88q0 71 -47.5 109.5t-134.5 38.5q-73 0 -118 -36.5t-45 -92.5q0 -42 27 -66.5t93 -41.5l183 -49 q74 -20 114.5 -68t40.5 -115q0 -100 -74.5 -159t-210.5 -59q-133 0 -210.5 65t-77.5 190z" />
<glyph unicode="T" horiz-adv-x="611" d="M21 647v82h572v-82h-239v-647h-93v647h-240z" />
<glyph unicode="U" horiz-adv-x="722" d="M85 222v507h93v-507q0 -77 50.5 -117.5t135.5 -40.5q88 0 138 42t50 116v507h93v-507q0 -110 -76.5 -175t-204.5 -65q-130 0 -204.5 64.5t-74.5 175.5z" />
<glyph unicode="V" horiz-adv-x="667" d="M30 729h100l214 -617l202 617h99l-253 -729h-100z" />
<glyph unicode="W" horiz-adv-x="944" d="M22 729h104l137 -592l162 592h100l166 -592l134 592h104l-185 -729h-102l-168 599l-163 -599h-102z" />
<glyph unicode="X" horiz-adv-x="667" d="M22 0l258 374l-242 355h113l187 -286l188 286h111l-246 -355l258 -374h-115l-199 304l-200 -304h-113z" />
<glyph unicode="Y" horiz-adv-x="667" d="M13 729h115l214 -355l208 355h111l-274 -443v-286h-93v286z" />
<glyph unicode="Z" horiz-adv-x="611" d="M28 0v82l438 565h-410v82h525v-84l-436 -563h438v-82h-555z" />
<glyph unicode="[" horiz-adv-x="278" d="M64 -212v941h186v-72h-103v-797h103v-72h-186z" />
<glyph unicode="\" horiz-adv-x="278" d="M-8 729h55l237 -749h-55z" />
<glyph unicode="]" horiz-adv-x="278" d="M23 -140h103v797h-103v72h186v-941h-186v72z" />
<glyph unicode="^" horiz-adv-x="469" d="M44 329l153 380h73l155 -380h-69l-122 300l-121 -300h-69z" />
<glyph unicode="_" d="M-22 -127h600v-50h-600v50z" />
<glyph unicode="`" horiz-adv-x="333" d="M-13 729h113l96 -148h-60z" />
<glyph unicode="a" d="M42 136q0 98 92 136q25 10 53 15.5t115 16.5q49 6 68 19t19 39v22q0 38 -30.5 58t-86.5 20q-58 0 -88 -22.5t-35 -70.5h-84q7 170 210 170q97 0 147 -36.5t50 -106.5v-292q0 -41 45 -41q9 0 18 2v-63q-35 -9 -57 -9q-31 0 -55 19.5t-31 49.5q-72 -77 -178 -77 q-80 0 -126 40t-46 111zM129 138q0 -80 103 -80q63 0 110 34.5t47 88.5v78q-33 -15 -134 -29q-68 -10 -97 -30.5t-29 -61.5z" />
<glyph unicode="b" d="M54 0v729h83v-276q57 86 162 86q104 0 164 -72t60 -199q0 -128 -62.5 -205.5t-165.5 -77.5q-107 0 -166 90v-75h-75zM137 262q0 -89 40 -144t106 -55q68 0 110.5 55.5t42.5 144.5q0 88 -42 143t-111 55q-66 3 -106 -52t-40 -147z" />
<glyph unicode="c" horiz-adv-x="500" d="M31 257q0 130 63.5 206t169.5 76q90 0 145 -48.5t62 -142.5h-84q-8 55 -40 84.5t-84 29.5q-69 0 -107 -53.5t-38 -151.5q0 -93 39 -144t108 -51q54 0 86 28t42 90h84q-8 -91 -64.5 -143t-149.5 -52q-107 0 -169.5 73t-62.5 199z" />
<glyph unicode="d" d="M26 267q0 125 61.5 198.5t163.5 73.5q108 0 161 -81v271h83v-729h-74v77q-34 -49 -73.5 -70.5t-93.5 -21.5q-106 0 -167 75t-61 207zM113 262q0 -91 42 -145t111 -54q66 0 106 53.5t40 143.5q0 91 -40 146t-107 55q-69 0 -110.5 -54t-41.5 -145z" />
<glyph unicode="e" d="M40 259q0 129 65 204.5t175 75.5q74 0 130.5 -37t81.5 -101q21 -55 21 -163h-386q1 -87 43.5 -131.5t110.5 -44.5q105 0 137 97h84q-16 -80 -75.5 -127t-148.5 -47q-111 0 -174.5 72.5t-63.5 201.5zM129 306h294l1 6q0 62 -42 106t-103 44q-63 0 -104 -43t-46 -113z" />
<glyph unicode="f" horiz-adv-x="278" d="M18 456v68h70v89q0 56 32.5 87.5t90.5 31.5q23 0 47 -5v-69q-19 1 -29 1q-58 0 -58 -53v-82h87v-68h-87v-456h-83v456h-70z" />
<glyph unicode="g" d="M29 257q0 127 61.5 204.5t161.5 77.5q98 0 160 -91v76h77v-438q0 -170 -54 -237t-180 -67q-92 0 -147 42t-62 116h85q14 -88 127 -88q76 0 115 45.5t39 146.5v35q-42 -50 -80 -72t-87 -22q-94 0 -155 75t-61 197zM116 262q0 -95 38.5 -147.5t107.5 -52.5q66 0 104 52 t38 145q0 95 -38 149t-105 54t-106 -53t-39 -147z" />
<glyph unicode="h" d="M70 0v729h83v-277q37 48 74.5 67.5t93.5 19.5q76 0 120.5 -38.5t44.5 -104.5v-396h-83v363q0 50 -30.5 76.5t-77.5 26.5q-64 0 -103 -48.5t-39 -128.5v-289h-83z" />
<glyph unicode="i" horiz-adv-x="222" d="M60 603v104h104v-104h-104zM70 0v524h83v-524h-83z" />
<glyph unicode="j" horiz-adv-x="222" d="M-18 -144l20 -1q37 -2 52.5 14.5t15.5 54.5v600h83v-633q0 -109 -143 -109q-13 0 -28 3v71zM60 603v104h104v-104h-104z" />
<glyph unicode="k" horiz-adv-x="500" d="M58 0v729h83v-427l222 222h107l-182 -181l214 -343h-103l-177 284l-81 -80v-204h-83z" />
<glyph unicode="l" horiz-adv-x="222" d="M68 0v729h83v-729h-83z" />
<glyph unicode="m" horiz-adv-x="833" d="M71 0v524h76v-74q34 47 71.5 68t89.5 21q97 0 141 -80q37 44 73 62t88 18q73 0 111.5 -37.5t38.5 -108.5v-393h-83v361q0 50 -25 77.5t-71 27.5q-51 0 -87.5 -40t-36.5 -97v-329h-83v361q0 50 -25.5 77.5t-71.5 27.5q-51 0 -87 -40t-36 -97v-329h-83z" />
<glyph unicode="n" d="M70 0v524h77v-88q35 55 75.5 79t98.5 24q76 0 121 -39t45 -104v-396h-83v363q0 47 -29 75t-79 28q-64 0 -103.5 -48.5t-39.5 -128.5v-289h-83z" />
<glyph unicode="o" d="M36 262q0 131 62.5 204t173.5 73q114 0 176 -73t62 -208q0 -129 -63 -201t-174 -72q-112 0 -174.5 72.5t-62.5 204.5zM123 262q0 -95 40 -147.5t110 -52.5q69 0 109.5 52.5t40.5 144.5q0 97 -39.5 150t-110.5 53q-70 0 -110 -53t-40 -147z" />
<glyph unicode="p" d="M55 -218v742h76v-79q59 94 167 94q105 0 165 -75t60 -207q0 -125 -61 -198.5t-163 -73.5q-97 0 -161 78v-281h-83zM138 258q0 -91 39.5 -143t106.5 -52q68 0 110 53.5t42 142.5q0 93 -41.5 147.5t-110.5 54.5q-66 0 -106 -55.5t-40 -147.5z" />
<glyph unicode="q" d="M26 256q0 130 62 206.5t166 76.5q107 0 167 -85v70h74v-742h-83v286q-57 -83 -162 -83q-104 0 -164 72t-60 199zM113 262q0 -91 42 -145t111 -54q66 0 106 53t40 143q0 92 -39.5 147t-106.5 55q-69 0 -111 -54t-42 -145z" />
<glyph unicode="r" horiz-adv-x="333" d="M70 0v524h76v-95q36 59 69.5 84.5t73.5 25.5q11 0 32 -3v-85q-94 -1 -131 -44t-37 -135v-272h-83z" />
<glyph unicode="s" horiz-adv-x="500" d="M34 160h88q8 -57 38 -77.5t90 -20.5q55 0 88.5 21t33.5 57q0 28 -18.5 43t-62.5 26l-78 19q-93 22 -129.5 55.5t-36.5 95.5q0 73 55 116.5t146 43.5t140 -42t50 -119h-88q-3 84 -105 84q-51 0 -81 -21.5t-30 -57.5q0 -28 23 -45.5t74 -29.5l80 -19q79 -19 113.5 -51.5 t34.5 -90.5q0 -75 -58.5 -118.5t-157.5 -43.5q-103 0 -154.5 42.5t-54.5 132.5z" />
<glyph unicode="t" horiz-adv-x="278" d="M14 456v68h71v144h83v-144h86v-68h-86v-343q0 -28 9.5 -37.5t36.5 -9.5q25 0 40 4v-70q-39 -7 -68 -7q-49 0 -75 21.5t-26 61.5v380h-71z" />
<glyph unicode="u" d="M65 128v396h83v-363q0 -47 29 -75t79 -28q65 0 104 48.5t39 128.5v289h83v-524h-75v81q-37 -52 -77 -74t-98 -22q-76 0 -121.5 39t-45.5 104z" />
<glyph unicode="v" horiz-adv-x="500" d="M10 524h94l140 -425l148 425h94l-201 -524h-91z" />
<glyph unicode="w" horiz-adv-x="722" d="M6 524h92l107 -408l100 408h102l103 -408l104 408h94l-154 -524h-95l-106 411l-101 -411h-94z" />
<glyph unicode="x" horiz-adv-x="500" d="M17 0l185 267l-175 257h95l126 -190l126 190h94l-176 -253l181 -271h-97l-131 201l-133 -201h-95z" />
<glyph unicode="y" horiz-adv-x="500" d="M20 524h89l134 -408l145 408h90l-233 -634q-40 -108 -135 -108q-31 0 -56 13v75q27 -6 44 -6q27 0 41.5 11.5t25.5 39.5l32 83z" />
<glyph unicode="z" horiz-adv-x="500" d="M31 0v75l313 376h-292v73h391v-74l-311 -377h325v-73h-426z" />
<glyph unicode="{" horiz-adv-x="334" d="M43 224v69q44 9 61 38.5t17 99.5v167q0 62 28.5 96.5t80.5 34.5h46v-65h-15q-37 0 -50 -14t-13 -53v-181q0 -69 -18 -104t-64 -53q82 -38 82 -158v-181q0 -39 13 -53t50 -14h15v-65h-46q-52 0 -80.5 34.5t-28.5 96.5v167q0 69 -17 99t-61 39z" />
<glyph unicode="|" horiz-adv-x="260" d="M96 -212v941h68v-941h-68z" />
<glyph unicode="}" horiz-adv-x="334" d="M29 -147h16q37 0 50.5 14t13.5 53v181q0 120 82 157q-82 38 -82 158v181q0 39 -13.5 53t-50.5 14h-16v65h47q52 0 81 -34.5t29 -96.5v-167q0 -69 16.5 -99t59.5 -39v-69q-43 -9 -59.5 -39t-16.5 -99v-167q0 -62 -29 -96.5t-81 -34.5h-47v65z" />
<glyph unicode="~" horiz-adv-x="584" d="M75 293q4 70 31.5 107.5t76.5 37.5q27 0 54 -16l117 -69q28 -17 50 -17q28 0 39.5 17.5t11.5 57.5h53v-16q0 -58 -28.5 -92.5t-76.5 -34.5q-40 0 -81 26l-98 63q-23 14 -43 14q-46 0 -53 -78h-53z" />
<glyph unicode="&#xa1;" horiz-adv-x="278" d="M97 133l22 223h39l22 -223v-338h-83v338zM97 420v104h84v-104h-84z" />
<glyph unicode="&#xa2;" d="M52 253q0 122 58.5 198t159.5 87v90h42v-89q88 -6 137.5 -55.5t54.5 -135.5h-84q-5 50 -33.5 80t-74.5 34v-409q96 11 114 127h84q-5 -90 -58 -144.5t-140 -58.5v-97h-42v98q-101 9 -159.5 82.5t-58.5 192.5zM139 253q0 -85 34.5 -136.5t96.5 -61.5v406 q-131 -24 -131 -208z" />
<glyph unicode="&#xa3;" d="M26 321v55h81q-34 57 -43.5 81.5t-9.5 57.5q0 91 68.5 152.5t169.5 61.5q103 0 160.5 -58t59.5 -174h-88q-4 154 -136 154q-64 0 -102.5 -35t-38.5 -93q0 -18 3.5 -31.5t7 -22t19.5 -38.5t29 -55h160v-55h-136q15 -44 15 -71q0 -39 -25.5 -80t-92.5 -109q59 39 122 39 q21 0 86.5 -15.5t74.5 -15.5q39 0 83 30l42 -66q-57 -56 -131 -56q-46 0 -146 35q-33 11 -66 11q-53 0 -109 -37l-48 66q69 59 97 102t28 89q0 38 -24 78h-110z" />
<glyph unicode="&#xa4;" d="M28 555l48 48l57 -56q59 51 145 51t145 -51l57 56l48 -48l-55 -54q50 -57 50 -150q0 -89 -50 -151l54 -56l-45 -45l-55 58q-59 -55 -149 -55t-149 55l-55 -58l-45 45l54 56q-50 62 -50 151q0 93 50 150zM106 351q0 -73 50.5 -126t121.5 -53t121.5 53t50.5 126 q0 71 -50.5 124t-121.5 53t-121.5 -53t-50.5 -124z" />
<glyph unicode="&#xa5;" d="M11 709h85l185 -322l179 322h85l-201 -355h151v-51h-170v-77h170v-51h-170v-175h-88v175h-172v51h172v77h-172v51h151z" />
<glyph unicode="&#xa6;" horiz-adv-x="260" d="M96 164h68v-376h-68v376zM96 353v376h68v-376h-68z" />
<glyph unicode="&#xa7;" d="M43 312q0 50 25 85.5t80 64.5q-44 51 -44 102q0 69 53.5 117t131.5 48t126.5 -49t48.5 -128v-28h-84v26q0 47 -26.5 74.5t-70.5 27.5q-38 0 -63.5 -24t-25.5 -61q0 -22 13 -39.5t44 -37.5l146 -94q61 -39 85 -76t24 -91q0 -115 -109 -156q30 -34 41.5 -60t11.5 -58 q0 -72 -53.5 -120t-133.5 -48q-89 0 -137.5 52t-48.5 147h85q0 -63 28 -92.5t74 -29.5q43 0 69.5 24t26.5 62q0 50 -55 88l-170 117q-49 34 -70.5 71t-21.5 86zM122 328q0 -30 13 -50t53 -49l166 -123q73 39 73 102q0 61 -73 112l-161 109q-39 -26 -55 -48.5t-16 -52.5z" />
<glyph unicode="&#xa8;" horiz-adv-x="333" d="M40 604v102h91v-102h-91zM202 604v102h91v-102h-91z" />
<glyph unicode="&#xa9;" horiz-adv-x="737" d="M21 334q0 144 102 246.5t246 102.5t246.5 -102.5t102.5 -246.5t-102.5 -246t-246.5 -102t-246 102t-102 246zM64 334q0 -127 89 -216t216 -89t216.5 89t89.5 216t-89.5 216.5t-216.5 89.5t-216 -89.5t-89 -216.5zM180 329q0 92 52 153t148 61q146 0 170 -139h-64 q-17 87 -113 87q-60 0 -95.5 -43.5t-35.5 -117.5q0 -71 36.5 -112t99.5 -41q53 0 80 26t37 82h64q-19 -160 -181 -160q-94 0 -146 57t-52 147z" />
<glyph unicode="&#xaa;" horiz-adv-x="370" d="M37 495q0 51 34.5 74.5t122.5 30.5q28 2 38.5 9t10.5 24v13q0 44 -67 44q-34 0 -48.5 -12t-19.5 -44h-59q3 108 129 108q122 0 122 -94v-179q0 -23 23 -23q4 0 10 3v-44q-16 -6 -32 -6q-47 0 -55 43q-49 -43 -105 -43q-48 0 -76 26t-28 70zM43 303v51h277v-51h-277z M95 498q0 -47 57 -47q37 0 64 20t27 46v51q-18 -8 -76 -16q-39 -6 -55.5 -18t-16.5 -36z" />
<glyph unicode="&#xab;" d="M98 227v89l152 122v-83l-106 -83l106 -83v-83zM303 227v89l152 122v-83l-106 -83l106 -83v-83z" />
<glyph unicode="&#xac;" horiz-adv-x="584" d="M68 307v68h448v-216h-68v148h-380z" />
<glyph unicode="&#xad;" horiz-adv-x="333" d="M46 240v72h238v-72h-238z" />
<glyph unicode="&#xae;" horiz-adv-x="737" d="M21 334q0 144 102 246.5t246 102.5t246.5 -102.5t102.5 -246.5t-102.5 -246t-246.5 -102t-246 102t-102 246zM64 334q0 -127 89 -216t216 -89t216.5 89t89.5 216t-89.5 216.5t-216.5 89.5t-216 -89.5t-89 -216.5zM192 135v398h202q65 0 99.5 -28t34.5 -80q0 -64 -62 -93 q31 -13 41.5 -33.5t11.5 -68.5q1 -39 5.5 -53t20.5 -24v-18h-73q-14 30 -14 68l1 34q0 66 -67 66h-137v-168h-63zM255 355h128q42 0 61.5 15t19.5 48q0 63 -81 63h-128v-126z" />
<glyph unicode="&#xaf;" horiz-adv-x="333" d="M28 620v70h274v-70h-274z" />
<glyph unicode="&#xb0;" horiz-adv-x="400" d="M54 557q0 62 42 104t104 42t104 -42t42 -104t-42 -104t-104 -42t-104 42t-42 104zM102 557q0 -40 29.5 -71.5t68.5 -31.5t68.5 31.5t29.5 71.5t-29.5 71.5t-68.5 31.5t-68.5 -31.5t-29.5 -71.5z" />
<glyph unicode="&#xb1;" horiz-adv-x="584" d="M68 0v68h448v-68h-448zM68 284v68h190v190h68v-190h190v-68h-190v-155h-68v155h-190z" />
<glyph unicode="&#xb2;" horiz-adv-x="333" d="M29 335q3 64 25.5 97.5t85.5 66.5l52 28q51 27 51 69q0 28 -21 47t-53 19q-36 0 -55 -20t-22 -67h-54q3 134 132 134q57 0 93 -31t36 -80q0 -70 -85 -113l-55 -29q-29 -14 -42.5 -29.5t-21.5 -40.5h201v-51h-267z" />
<glyph unicode="&#xb3;" horiz-adv-x="333" d="M34 448h55q1 -41 20.5 -60t59.5 -19q37 0 58 19t21 53q0 38 -25 50.5t-84 12.5v45q56 0 76.5 11t20.5 42q0 28 -18 44t-49 16q-37 0 -54.5 -18t-17.5 -60h-55q3 125 127 125q56 0 89 -28.5t33 -77.5q0 -52 -50 -74q62 -22 62 -88q0 -54 -37 -86t-99 -32q-64 0 -98.5 32.5 t-34.5 92.5z" />
<glyph unicode="&#xb4;" horiz-adv-x="333" d="M137 581l96 148h113l-149 -148h-60z" />
<glyph unicode="&#xb5;" d="M65 -220v744h83v-371q0 -47 29 -75t78 -28q65 0 104 48.5t39 128.5v297h83v-436q0 -41 45 -41q8 0 18 2v-63q-33 -9 -57 -9q-83 0 -86 83q-59 -83 -163 -83q-54 0 -90 26v-223h-83z" />
<glyph unicode="&#xb6;" horiz-adv-x="537" d="M48 489q0 101 65 170.5t159 69.5h250v-64h-57v-842h-64v842h-82v-842h-64v436q-97 5 -152 70.5t-55 159.5z" />
<glyph unicode="&#xb7;" horiz-adv-x="278" d="M87 250q0 22 15 37t37 15t37 -15t15 -37t-15 -37t-37 -15t-37 15t-15 37z" />
<glyph unicode="&#xb8;" horiz-adv-x="333" d="M39 -196l21 40l9 -4q58 -29 89 -29q23 0 38.5 13t15.5 32q0 18 -12.5 31t-33.5 13q-14 0 -31 -4l-17 12l42 97h48l-23 -59h23q36 0 57.5 -24.5t21.5 -58.5q0 -43 -33 -68t-90 -25q-47 0 -125 34z" />
<glyph unicode="&#xb9;" horiz-adv-x="333" d="M70 595v41l13 1q46 3 63 16.5t28 55.5h37v-374h-54v260h-87z" />
<glyph unicode="&#xba;" horiz-adv-x="365" d="M40 571q0 81 37.5 126t104.5 45q68 0 105 -45t37 -129q0 -79 -37.5 -124t-104.5 -45t-104.5 45t-37.5 127zM51 303v51h263v-51h-263zM98 571q0 -56 22.5 -88t61.5 -32t61.5 31.5t22.5 86.5q0 57 -22 89t-62 32q-39 0 -61.5 -32t-22.5 -87z" />
<glyph unicode="&#xbb;" d="M98 106v83l108 83l-108 83v83l154 -121v-89zM297 106v83l108 83l-108 83v83l154 -121v-89z" />
<glyph unicode="&#xbc;" horiz-adv-x="834" d="M81 595v41l13 1q46 3 63 16.5t28 55.5h37v-374h-54v260h-87zM171 -25l452 734h58l-452 -734h-58zM488 88v52l180 234h40v-239h59v-47h-59v-88h-54v88h-166zM540 135h114v149z" />
<glyph unicode="&#xbd;" horiz-adv-x="834" d="M81 595v41l13 1q46 3 63 16.5t28 55.5h37v-374h-54v260h-87zM127 -25l452 734h58l-452 -734h-58zM493 0q3 64 25.5 97.5t85.5 67.5l51 27q52 27 52 69q0 28 -21.5 47t-53.5 19q-36 0 -54.5 -20t-21.5 -67h-55q4 134 133 134q57 0 93 -31t36 -80q0 -70 -85 -113l-55 -29 q-29 -14 -42.5 -29.5t-21.5 -40.5h201v-51h-267z" />
<glyph unicode="&#xbe;" horiz-adv-x="834" d="M64 448h55q1 -41 20.5 -60t59.5 -19q37 0 58 19t21 53q0 38 -25 50.5t-84 12.5v45q56 0 76.5 11t20.5 42q0 28 -18 44t-49 16q-37 0 -54.5 -18t-17.5 -60h-55q3 125 127 125q56 0 89 -28.5t33 -77.5q0 -52 -50 -74q62 -22 62 -88q0 -54 -37 -86t-99 -32q-64 0 -98.5 32.5 t-34.5 92.5zM191 -25l452 734h58l-452 -734h-58zM478 88v52l180 234h40v-239h59v-47h-59v-88h-54v88h-166zM530 135h114v149z" />
<glyph unicode="&#xbf;" d="M54 -25q0 50 22 89t78 90q51 47 65 69.5t14 54.5v47h90v-55q0 -50 -28 -87q-13 -17 -22.5 -26.5t-53.5 -49.5q-75 -67 -75 -132q0 -51 35 -82.5t93 -31.5q67 0 98 37.5t31 118.5h85q0 -115 -55.5 -174.5t-163.5 -59.5q-97 0 -155 52t-58 140zM233 420v104h90v-104h-90z " />
<glyph unicode="&#xc0;" horiz-adv-x="667" d="M17 0l260 729h120l256 -729h-104l-75 219h-281l-77 -219h-99zM122 916h136l115 -133h-72zM216 297h232l-112 332z" />
<glyph unicode="&#xc1;" horiz-adv-x="667" d="M17 0l260 729h120l256 -729h-104l-75 219h-281l-77 -219h-99zM216 297h232l-112 332zM301 783l115 133h136l-179 -133h-72z" />
<glyph unicode="&#xc2;" horiz-adv-x="667" d="M17 0l260 729h120l256 -729h-104l-75 219h-281l-77 -219h-99zM165 783l115 135h114l115 -135h-75l-97 86l-95 -86h-77zM216 297h232l-112 332z" />
<glyph unicode="&#xc3;" horiz-adv-x="667" d="M17 0l260 729h120l256 -729h-104l-75 219h-281l-77 -219h-99zM176 799q8 49 30.5 76t55.5 27q23 0 70 -19q41 -18 63 -18q25 0 37 37h58q-15 -104 -89 -104q-21 0 -85 25q-35 13 -49 13q-23 0 -33 -37h-58zM216 297h232l-112 332z" />
<glyph unicode="&#xc4;" horiz-adv-x="667" d="M17 0l260 729h120l256 -729h-104l-75 219h-281l-77 -219h-99zM211 799v102h91v-102h-91zM216 297h232l-112 332zM373 799v102h91v-102h-91z" />
<glyph unicode="&#xc5;" horiz-adv-x="667" d="M17 0l260 729h120l256 -729h-104l-75 219h-281l-77 -219h-99zM216 297h232l-112 332zM241 866q0 38 28.5 66.5t68.5 28.5t68 -28.5t28 -68.5q0 -39 -28.5 -67t-67.5 -28q-40 0 -68.5 28.5t-28.5 68.5zM289 866q0 -20 14.5 -34.5t34.5 -14.5q19 0 33.5 14t14.5 33 q0 21 -14 35t-34 14t-34.5 -14t-14.5 -33z" />
<glyph unicode="&#xc6;" horiz-adv-x="1000" d="M11 0l299 729h622v-82h-371v-233h352v-82h-352v-250h389v-82h-482v214h-269l-85 -214h-103zM230 296h238v351h-100z" />
<glyph unicode="&#xc7;" horiz-adv-x="722" d="M48 356q0 168 87 279.5t246 111.5q237 0 281 -244h-95q-17 84 -64.5 123t-132.5 39q-105 0 -167 -83.5t-62 -224.5q0 -136 64 -214.5t173 -78.5q91 0 138.5 48.5t64.5 153.5h96q-31 -272 -278 -283l-14 -37h23q36 0 57.5 -24.5t21.5 -58.5q0 -43 -33 -68t-90 -25 q-47 0 -125 34l21 40l9 -4q58 -29 89 -29q23 0 38.5 13t15.5 32q0 18 -12.5 31t-33.5 13q-14 0 -31 -4l-17 12l32 75q-144 9 -223 112t-79 261z" />
<glyph unicode="&#xc8;" horiz-adv-x="667" d="M90 0v729h505v-82h-412v-233h397v-82h-397v-250h430v-82h-523zM128 916h136l115 -133h-72z" />
<glyph unicode="&#xc9;" horiz-adv-x="667" d="M90 0v729h505v-82h-412v-233h397v-82h-397v-250h430v-82h-523zM307 783l115 133h136l-179 -133h-72z" />
<glyph unicode="&#xca;" horiz-adv-x="667" d="M90 0v729h505v-82h-412v-233h397v-82h-397v-250h430v-82h-523zM171 783l115 135h114l115 -135h-75l-97 86l-95 -86h-77z" />
<glyph unicode="&#xcb;" horiz-adv-x="667" d="M90 0v729h505v-82h-412v-233h397v-82h-397v-250h430v-82h-523zM217 799v102h91v-102h-91zM379 799v102h91v-102h-91z" />
<glyph unicode="&#xcc;" horiz-adv-x="278" d="M-58 916h136l115 -133h-72zM100 0v729h93v-729h-93z" />
<glyph unicode="&#xcd;" horiz-adv-x="278" d="M100 0v729h93v-729h-93zM101 783l115 133h136l-179 -133h-72z" />
<glyph unicode="&#xce;" horiz-adv-x="278" d="M-25 783l115 135h114l115 -135h-75l-97 86l-95 -86h-77zM100 0v729h93v-729h-93z" />
<glyph unicode="&#xcf;" horiz-adv-x="278" d="M21 799v102h91v-102h-91zM100 0v729h93v-729h-93zM183 799v102h91v-102h-91z" />
<glyph unicode="&#xd0;" horiz-adv-x="722" d="M20 339v67h69v323h282q138 0 217 -97t79 -267t-79 -267.5t-217 -97.5h-282v339h-69zM182 82h173q107 0 163 72t56 211t-56 210.5t-163 71.5h-173v-241h171v-67h-171v-257z" />
<glyph unicode="&#xd1;" horiz-adv-x="722" d="M76 0v729h101l381 -596v596h88v-729h-105l-377 591v-591h-88zM200 799q8 49 30.5 76t55.5 27q23 0 70 -19q41 -18 63 -18q25 0 37 37h58q-15 -104 -89 -104q-21 0 -85 25q-35 13 -49 13q-23 0 -33 -37h-58z" />
<glyph unicode="&#xd2;" horiz-adv-x="778" d="M38 359q0 172 97.5 280t253.5 108q160 0 256.5 -108.5t96.5 -285.5q0 -163 -96.5 -267t-255.5 -104q-158 0 -255 103.5t-97 273.5zM131 359q0 -134 71 -214.5t188 -80.5q116 0 187.5 80t71.5 211q0 139 -71 224.5t-189 85.5q-115 0 -186.5 -85.5t-71.5 -220.5zM174 916 h136l115 -133h-72z" />
<glyph unicode="&#xd3;" horiz-adv-x="778" d="M38 359q0 172 97.5 280t253.5 108q160 0 256.5 -108.5t96.5 -285.5q0 -163 -96.5 -267t-255.5 -104q-158 0 -255 103.5t-97 273.5zM131 359q0 -134 71 -214.5t188 -80.5q116 0 187.5 80t71.5 211q0 139 -71 224.5t-189 85.5q-115 0 -186.5 -85.5t-71.5 -220.5zM353 783 l115 133h136l-179 -133h-72z" />
<glyph unicode="&#xd4;" horiz-adv-x="778" d="M38 359q0 172 97.5 280t253.5 108q160 0 256.5 -108.5t96.5 -285.5q0 -163 -96.5 -267t-255.5 -104q-158 0 -255 103.5t-97 273.5zM131 359q0 -134 71 -214.5t188 -80.5q116 0 187.5 80t71.5 211q0 139 -71 224.5t-189 85.5q-115 0 -186.5 -85.5t-71.5 -220.5zM217 783 l115 135h114l115 -135h-75l-97 86l-95 -86h-77z" />
<glyph unicode="&#xd5;" horiz-adv-x="778" d="M38 359q0 172 97.5 280t253.5 108q160 0 256.5 -108.5t96.5 -285.5q0 -163 -96.5 -267t-255.5 -104q-158 0 -255 103.5t-97 273.5zM131 359q0 -134 71 -214.5t188 -80.5q116 0 187.5 80t71.5 211q0 139 -71 224.5t-189 85.5q-115 0 -186.5 -85.5t-71.5 -220.5zM228 799 q8 49 30.5 76t55.5 27q23 0 70 -19q41 -18 63 -18q25 0 37 37h58q-15 -104 -89 -104q-21 0 -85 25q-35 13 -49 13q-23 0 -33 -37h-58z" />
<glyph unicode="&#xd6;" horiz-adv-x="778" d="M38 359q0 172 97.5 280t253.5 108q160 0 256.5 -108.5t96.5 -285.5q0 -163 -96.5 -267t-255.5 -104q-158 0 -255 103.5t-97 273.5zM131 359q0 -134 71 -214.5t188 -80.5q116 0 187.5 80t71.5 211q0 139 -71 224.5t-189 85.5q-115 0 -186.5 -85.5t-71.5 -220.5zM263 799 v102h91v-102h-91zM425 799v102h91v-102h-91z" />
<glyph unicode="&#xd7;" horiz-adv-x="584" d="M110 116l134 134l-134 134l48 48l134 -134l134 134l48 -48l-134 -134l134 -134l-48 -48l-134 134l-134 -134z" />
<glyph unicode="&#xd8;" horiz-adv-x="778" d="M38 21l79 86q-79 99 -79 252q0 172 97.5 280t253.5 108q142 0 235 -87l77 85l41 -37l-81 -88q81 -106 81 -267q0 -163 -96.5 -267t-255.5 -104q-143 0 -236 84l-75 -82zM131 359q0 -110 48 -184l385 420q-68 70 -175 70q-115 0 -186.5 -85.5t-71.5 -220.5zM214 132 q68 -68 176 -68q116 0 187.5 80t71.5 211q0 117 -51 196z" />
<glyph unicode="&#xd9;" horiz-adv-x="722" d="M85 222v507h93v-507q0 -77 50.5 -117.5t135.5 -40.5q88 0 138 42t50 116v507h93v-507q0 -110 -76.5 -175t-204.5 -65q-130 0 -204.5 64.5t-74.5 175.5zM146 916h136l115 -133h-72z" />
<glyph unicode="&#xda;" horiz-adv-x="722" d="M85 222v507h93v-507q0 -77 50.5 -117.5t135.5 -40.5q88 0 138 42t50 116v507h93v-507q0 -110 -76.5 -175t-204.5 -65q-130 0 -204.5 64.5t-74.5 175.5zM325 783l115 133h136l-179 -133h-72z" />
<glyph unicode="&#xdb;" horiz-adv-x="722" d="M85 222v507h93v-507q0 -77 50.5 -117.5t135.5 -40.5q88 0 138 42t50 116v507h93v-507q0 -110 -76.5 -175t-204.5 -65q-130 0 -204.5 64.5t-74.5 175.5zM189 783l115 135h114l115 -135h-75l-97 86l-95 -86h-77z" />
<glyph unicode="&#xdc;" horiz-adv-x="722" d="M85 222v507h93v-507q0 -77 50.5 -117.5t135.5 -40.5q88 0 138 42t50 116v507h93v-507q0 -110 -76.5 -175t-204.5 -65q-130 0 -204.5 64.5t-74.5 175.5zM235 799v102h91v-102h-91zM397 799v102h91v-102h-91z" />
<glyph unicode="&#xdd;" horiz-adv-x="667" d="M13 729h115l214 -355l208 355h111l-274 -443v-286h-93v286zM305 783l115 133h136l-179 -133h-72z" />
<glyph unicode="&#xde;" horiz-adv-x="667" d="M91 0v729h93v-120h208q104 0 164 -56.5t60 -155.5q0 -91 -57 -149.5t-146 -58.5h-229v-189h-93zM184 271h194q65 0 101.5 34t36.5 94t-36.5 94t-101.5 34h-194v-256z" />
<glyph unicode="&#xdf;" horiz-adv-x="611" d="M70 0v538q0 82 65.5 136.5t155.5 54.5q95 0 164.5 -51.5t69.5 -132.5q0 -48 -27 -87.5t-72 -56.5q62 -16 101 -67t39 -115q0 -110 -60.5 -174.5t-163.5 -64.5q-47 0 -84 4v83q42 -5 76 -5q64 0 104.5 42t40.5 109q0 77 -46 106.5t-141 29.5v82q59 0 102.5 30.5t43.5 80.5 q0 49 -43.5 79t-101.5 30q-57 0 -98.5 -32t-41.5 -81v-538h-83z" />
<glyph unicode="&#xe0;" d="M42 136q0 98 92 136q25 10 53 15.5t115 16.5q49 6 68 19t19 39v22q0 38 -30.5 58t-86.5 20q-58 0 -88 -22.5t-35 -70.5h-84q7 170 210 170q97 0 147 -36.5t50 -106.5v-292q0 -41 45 -41q9 0 18 2v-63q-35 -9 -57 -9q-31 0 -55 19.5t-31 49.5q-72 -77 -178 -77 q-80 0 -126 40t-46 111zM96 729h113l96 -148h-60zM129 138q0 -80 103 -80q63 0 110 34.5t47 88.5v78q-33 -15 -134 -29q-68 -10 -97 -30.5t-29 -61.5z" />
<glyph unicode="&#xe1;" d="M42 136q0 98 92 136q25 10 53 15.5t115 16.5q49 6 68 19t19 39v22q0 38 -30.5 58t-86.5 20q-58 0 -88 -22.5t-35 -70.5h-84q7 170 210 170q97 0 147 -36.5t50 -106.5v-292q0 -41 45 -41q9 0 18 2v-63q-35 -9 -57 -9q-31 0 -55 19.5t-31 49.5q-72 -77 -178 -77 q-80 0 -126 40t-46 111zM129 138q0 -80 103 -80q63 0 110 34.5t47 88.5v78q-33 -15 -134 -29q-68 -10 -97 -30.5t-29 -61.5zM245 581l96 148h113l-149 -148h-60z" />
<glyph unicode="&#xe2;" d="M42 136q0 98 92 136q25 10 53 15.5t115 16.5q49 6 68 19t19 39v22q0 38 -30.5 58t-86.5 20q-58 0 -88 -22.5t-35 -70.5h-84q7 170 210 170q97 0 147 -36.5t50 -106.5v-292q0 -41 45 -41q9 0 18 2v-63q-35 -9 -57 -9q-31 0 -55 19.5t-31 49.5q-72 -77 -178 -77 q-80 0 -126 40t-46 111zM129 138q0 -80 103 -80q63 0 110 34.5t47 88.5v78q-33 -15 -134 -29q-68 -10 -97 -30.5t-29 -61.5zM131 580l96 150h95l96 -150h-63l-81 96l-79 -96h-64z" />
<glyph unicode="&#xe3;" d="M42 136q0 98 92 136q25 10 53 15.5t115 16.5q49 6 68 19t19 39v22q0 38 -30.5 58t-86.5 20q-58 0 -88 -22.5t-35 -70.5h-84q7 170 210 170q97 0 147 -36.5t50 -106.5v-292q0 -41 45 -41q9 0 18 2v-63q-35 -9 -57 -9q-31 0 -55 19.5t-31 49.5q-72 -77 -178 -77 q-80 0 -126 40t-46 111zM113 604q8 49 30.5 76t55.5 27q23 0 70 -19q41 -18 63 -18q25 0 37 37h58q-15 -104 -89 -104q-21 0 -85 25q-35 13 -49 13q-23 0 -33 -37h-58zM129 138q0 -80 103 -80q63 0 110 34.5t47 88.5v78q-33 -15 -134 -29q-68 -10 -97 -30.5t-29 -61.5z" />
<glyph unicode="&#xe4;" d="M42 136q0 98 92 136q25 10 53 15.5t115 16.5q49 6 68 19t19 39v22q0 38 -30.5 58t-86.5 20q-58 0 -88 -22.5t-35 -70.5h-84q7 170 210 170q97 0 147 -36.5t50 -106.5v-292q0 -41 45 -41q9 0 18 2v-63q-35 -9 -57 -9q-31 0 -55 19.5t-31 49.5q-72 -77 -178 -77 q-80 0 -126 40t-46 111zM129 138q0 -80 103 -80q63 0 110 34.5t47 88.5v78q-33 -15 -134 -29q-68 -10 -97 -30.5t-29 -61.5zM148 604v102h91v-102h-91zM310 604v102h91v-102h-91z" />
<glyph unicode="&#xe5;" d="M42 136q0 98 92 136q25 10 53 15.5t115 16.5q49 6 68 19t19 39v22q0 38 -30.5 58t-86.5 20q-58 0 -88 -22.5t-35 -70.5h-84q7 170 210 170q97 0 147 -36.5t50 -106.5v-292q0 -41 45 -41q9 0 18 2v-63q-35 -9 -57 -9q-31 0 -55 19.5t-31 49.5q-72 -77 -178 -77 q-80 0 -126 40t-46 111zM129 138q0 -80 103 -80q63 0 110 34.5t47 88.5v78q-33 -15 -134 -29q-68 -10 -97 -30.5t-29 -61.5zM178 656q0 38 28.5 66.5t68.5 28.5t68 -28.5t28 -68.5q0 -39 -28.5 -67t-67.5 -28q-40 0 -68.5 28.5t-28.5 68.5zM226 656q0 -20 14.5 -34.5 t34.5 -14.5q19 0 33.5 14t14.5 33q0 21 -14 35t-34 14t-34.5 -14t-14.5 -33z" />
<glyph unicode="&#xe6;" horiz-adv-x="889" d="M34 136q0 82 54.5 118t205.5 49q51 4 69 17t18 42v22q0 78 -118 78q-112 0 -122 -93h-84q7 170 208 170q128 0 175 -82q27 38 73 60t100 22q73 0 129 -37t82 -101q21 -55 21 -167h-386q1 -82 44 -127t110 -45q100 0 138 97h84q-16 -80 -75.5 -127t-147.5 -47 q-58 0 -105 22t-73 61l-16 27q-56 -58 -106.5 -84t-109.5 -26q-77 0 -122.5 40.5t-45.5 110.5zM121 138q0 -39 26.5 -59.5t73.5 -20.5q55 0 107.5 36.5t52.5 70.5v93q-33 -14 -134 -29q-69 -10 -97.5 -30t-28.5 -61zM461 302h294q0 71 -40 115.5t-104 44.5q-63 0 -104 -43.5 t-46 -116.5z" />
<glyph unicode="&#xe7;" horiz-adv-x="500" d="M31 257q0 130 63.5 206t169.5 76q90 0 145 -48.5t62 -142.5h-84q-8 55 -40 84.5t-84 29.5q-69 0 -107 -53.5t-38 -151.5q0 -93 39 -144t108 -51q54 0 86 28t42 90h84q-7 -83 -55.5 -134.5t-130.5 -59.5l-16 -40h23q36 0 57.5 -24.5t21.5 -58.5q0 -43 -33 -68t-90 -25 q-47 0 -125 34l21 40l9 -4q58 -29 89 -29q23 0 38.5 13t15.5 32q0 18 -12.5 31t-33.5 13q-14 0 -31 -4l-17 12l34 78q-98 8 -154.5 80t-56.5 191z" />
<glyph unicode="&#xe8;" d="M40 259q0 129 65 204.5t175 75.5q74 0 130.5 -37t81.5 -101q21 -55 21 -163h-386q1 -87 43.5 -131.5t110.5 -44.5q105 0 137 97h84q-16 -80 -75.5 -127t-148.5 -47q-111 0 -174.5 72.5t-63.5 201.5zM101 729h113l96 -148h-60zM129 306h294l1 6q0 62 -42 106t-103 44 q-63 0 -104 -43t-46 -113z" />
<glyph unicode="&#xe9;" d="M40 259q0 129 65 204.5t175 75.5q74 0 130.5 -37t81.5 -101q21 -55 21 -163h-386q1 -87 43.5 -131.5t110.5 -44.5q105 0 137 97h84q-16 -80 -75.5 -127t-148.5 -47q-111 0 -174.5 72.5t-63.5 201.5zM129 306h294l1 6q0 62 -42 106t-103 44q-63 0 -104 -43t-46 -113z M250 581l96 148h113l-149 -148h-60z" />
<glyph unicode="&#xea;" d="M40 259q0 129 65 204.5t175 75.5q74 0 130.5 -37t81.5 -101q21 -55 21 -163h-386q1 -87 43.5 -131.5t110.5 -44.5q105 0 137 97h84q-16 -80 -75.5 -127t-148.5 -47q-111 0 -174.5 72.5t-63.5 201.5zM129 306h294l1 6q0 62 -42 106t-103 44q-63 0 -104 -43t-46 -113z M136 580l96 150h95l96 -150h-63l-81 96l-79 -96h-64z" />
<glyph unicode="&#xeb;" d="M40 259q0 129 65 204.5t175 75.5q74 0 130.5 -37t81.5 -101q21 -55 21 -163h-386q1 -87 43.5 -131.5t110.5 -44.5q105 0 137 97h84q-16 -80 -75.5 -127t-148.5 -47q-111 0 -174.5 72.5t-63.5 201.5zM129 306h294l1 6q0 62 -42 106t-103 44q-63 0 -104 -43t-46 -113z M153 604v102h91v-102h-91zM315 604v102h91v-102h-91z" />
<glyph unicode="&#xec;" horiz-adv-x="278" d="M-28 729h113l96 -148h-60zM98 0v524h83v-524h-83z" />
<glyph unicode="&#xed;" horiz-adv-x="278" d="M98 0v524h83v-524h-83zM99 581l96 148h113l-149 -148h-60z" />
<glyph unicode="&#xee;" horiz-adv-x="278" d="M-4 580l96 150h95l96 -150h-63l-81 96l-79 -96h-64zM98 0v524h83v-524h-83z" />
<glyph unicode="&#xef;" horiz-adv-x="278" d="M13 604v102h91v-102h-91zM98 0v524h83v-524h-83zM175 604v102h91v-102h-91z" />
<glyph unicode="&#xf0;" d="M36 262q0 128 59 201.5t159 73.5q24 0 63 -13q-39 40 -98 89l-97 -45l-36 39l85 40q-30 23 -82 52l44 44q37 -16 111 -63l97 45l40 -37l-90 -41q117 -89 168 -181t51 -203q0 -134 -61.5 -206t-175.5 -72t-175.5 71.5t-61.5 205.5zM123 262q0 -94 40 -147t110 -53 q69 0 109.5 52.5t40.5 144.5q0 97 -39.5 150t-110.5 53q-70 0 -110 -53t-40 -147z" />
<glyph unicode="&#xf1;" d="M70 0v524h77v-88q35 55 75.5 79t98.5 24q76 0 121 -39t45 -104v-396h-83v363q0 47 -29 75t-79 28q-64 0 -103.5 -48.5t-39.5 -128.5v-289h-83zM116 604q8 49 30.5 76t55.5 27q23 0 70 -19q41 -18 63 -18q25 0 37 37h58q-15 -104 -89 -104q-21 0 -85 25q-35 13 -49 13 q-23 0 -33 -37h-58z" />
<glyph unicode="&#xf2;" d="M36 262q0 131 62.5 204t173.5 73q114 0 176 -73t62 -208q0 -129 -63 -201t-174 -72q-112 0 -174.5 72.5t-62.5 204.5zM99 729h113l96 -148h-60zM123 262q0 -95 40 -147.5t110 -52.5q69 0 109.5 52.5t40.5 144.5q0 97 -39.5 150t-110.5 53q-70 0 -110 -53t-40 -147z" />
<glyph unicode="&#xf3;" d="M36 262q0 131 62.5 204t173.5 73q114 0 176 -73t62 -208q0 -129 -63 -201t-174 -72q-112 0 -174.5 72.5t-62.5 204.5zM123 262q0 -95 40 -147.5t110 -52.5q69 0 109.5 52.5t40.5 144.5q0 97 -39.5 150t-110.5 53q-70 0 -110 -53t-40 -147zM248 581l96 148h113l-149 -148 h-60z" />
<glyph unicode="&#xf4;" d="M36 262q0 131 62.5 204t173.5 73q114 0 176 -73t62 -208q0 -129 -63 -201t-174 -72q-112 0 -174.5 72.5t-62.5 204.5zM123 262q0 -95 40 -147.5t110 -52.5q69 0 109.5 52.5t40.5 144.5q0 97 -39.5 150t-110.5 53q-70 0 -110 -53t-40 -147zM134 580l96 150h95l96 -150h-63 l-81 96l-79 -96h-64z" />
<glyph unicode="&#xf5;" d="M36 262q0 131 62.5 204t173.5 73q114 0 176 -73t62 -208q0 -129 -63 -201t-174 -72q-112 0 -174.5 72.5t-62.5 204.5zM116 604q8 49 30.5 76t55.5 27q23 0 70 -19q41 -18 63 -18q25 0 37 37h58q-15 -104 -89 -104q-21 0 -85 25q-35 13 -49 13q-23 0 -33 -37h-58zM123 262 q0 -95 40 -147.5t110 -52.5q69 0 109.5 52.5t40.5 144.5q0 97 -39.5 150t-110.5 53q-70 0 -110 -53t-40 -147z" />
<glyph unicode="&#xf6;" d="M36 262q0 131 62.5 204t173.5 73q114 0 176 -73t62 -208q0 -129 -63 -201t-174 -72q-112 0 -174.5 72.5t-62.5 204.5zM123 262q0 -95 40 -147.5t110 -52.5q69 0 109.5 52.5t40.5 144.5q0 97 -39.5 150t-110.5 53q-70 0 -110 -53t-40 -147zM151 604v102h91v-102h-91z M313 604v102h91v-102h-91z" />
<glyph unicode="&#xf7;" horiz-adv-x="584" d="M68 216v68h448v-68h-448zM240 68q0 21 15 36.5t37 15.5t37 -15.5t15 -36.5q0 -22 -15 -37t-37 -15t-37 15t-15 37zM240 432q0 22 15 37t37 15t37 -15t15 -37q0 -21 -15 -36.5t-37 -15.5t-37 15.5t-15 36.5z" />
<glyph unicode="&#xf8;" d="M36 262q0 131 62.5 204t173.5 73q98 0 157 -54l42 49l37 -31l-46 -55q48 -73 48 -190q0 -129 -63 -201t-174 -72q-96 0 -156 54l-42 -49l-37 31l46 55q-48 73 -48 186zM123 262q0 -68 21 -115l230 273q-37 42 -101 42q-70 0 -110 -53t-40 -147zM172 104q39 -42 101 -42 q69 0 109.5 52.5t40.5 144.5q0 70 -21 118z" />
<glyph unicode="&#xf9;" d="M65 128v396h83v-363q0 -47 29 -75t79 -28q65 0 104 48.5t39 128.5v289h83v-524h-75v81q-37 -52 -77 -74t-98 -22q-76 0 -121.5 39t-45.5 104zM99 729h113l96 -148h-60z" />
<glyph unicode="&#xfa;" d="M65 128v396h83v-363q0 -47 29 -75t79 -28q65 0 104 48.5t39 128.5v289h83v-524h-75v81q-37 -52 -77 -74t-98 -22q-76 0 -121.5 39t-45.5 104zM248 581l96 148h113l-149 -148h-60z" />
<glyph unicode="&#xfb;" d="M65 128v396h83v-363q0 -47 29 -75t79 -28q65 0 104 48.5t39 128.5v289h83v-524h-75v81q-37 -52 -77 -74t-98 -22q-76 0 -121.5 39t-45.5 104zM134 580l96 150h95l96 -150h-63l-81 96l-79 -96h-64z" />
<glyph unicode="&#xfc;" d="M65 128v396h83v-363q0 -47 29 -75t79 -28q65 0 104 48.5t39 128.5v289h83v-524h-75v81q-37 -52 -77 -74t-98 -22q-76 0 -121.5 39t-45.5 104zM151 604v102h91v-102h-91zM313 604v102h91v-102h-91z" />
<glyph unicode="&#xfd;" horiz-adv-x="500" d="M20 524h89l134 -408l145 408h90l-233 -634q-40 -108 -135 -108q-31 0 -56 13v75q27 -6 44 -6q27 0 41.5 11.5t25.5 39.5l32 83zM220 581l96 148h113l-149 -148h-60z" />
<glyph unicode="&#xfe;" d="M54 -218v932h83v-255q56 80 161 80q102 0 163 -78t61 -208q0 -120 -61.5 -194t-162.5 -74q-97 0 -161 78v-281h-83zM137 258q0 -87 40 -141t106 -54q68 0 110 54t42 138q0 94 -41.5 150t-110.5 56q-66 0 -106 -55.5t-40 -147.5z" />
<glyph unicode="&#xff;" horiz-adv-x="500" d="M20 524h89l134 -408l145 408h90l-233 -634q-40 -108 -135 -108q-31 0 -56 13v75q27 -6 44 -6q27 0 41.5 11.5t25.5 39.5l32 83zM123 604v102h91v-102h-91zM285 604v102h91v-102h-91z" />
<glyph unicode="&#x152;" horiz-adv-x="1000" d="M43 356q0 178 80.5 281.5t218.5 103.5q121 0 183 -88v76h429v-82h-336v-238h328v-82h-328v-245h341v-82h-434v79q-67 -94 -184 -94q-139 0 -218.5 98.5t-79.5 272.5zM136 360q0 -144 52 -218.5t153 -74.5q125 0 184 120v352q-59 120 -183 120q-102 0 -154 -76t-52 -223z " />
<glyph unicode="&#x153;" horiz-adv-x="944" d="M40 259q0 134 62 207t175 73q135 0 196 -106q31 50 81.5 78t111.5 28q74 0 130.5 -37t81.5 -101q21 -55 21 -167h-386q1 -82 44 -127t110 -45q100 0 137 97h84q-16 -80 -75 -127t-148 -47q-132 0 -194 103q-63 -103 -194 -103q-113 0 -175 72.5t-62 201.5zM127 259 q0 -90 40.5 -143.5t109.5 -53.5t109.5 53t40.5 141q0 97 -40 151.5t-110 54.5t-110 -54.5t-40 -148.5zM515 302h294q0 71 -40 115.5t-104 44.5q-63 0 -104 -43.5t-46 -116.5z" />
<glyph unicode="&#x178;" horiz-adv-x="667" d="M13 729h115l214 -355l208 355h111l-274 -443v-286h-93v286zM215 799v102h91v-102h-91zM377 799v102h91v-102h-91z" />
<glyph unicode="&#x2c6;" horiz-adv-x="333" d="M23 580l96 150h95l96 -150h-63l-81 96l-79 -96h-64z" />
<glyph unicode="&#x2dc;" horiz-adv-x="333" d="M5 604q8 49 30.5 76t55.5 27q23 0 70 -19q41 -18 63 -18q25 0 37 37h58q-15 -104 -89 -104q-21 0 -85 25q-35 13 -49 13q-23 0 -33 -37h-58z" />
<glyph unicode="&#x2000;" horiz-adv-x="480" />
<glyph unicode="&#x2001;" horiz-adv-x="961" />
<glyph unicode="&#x2002;" horiz-adv-x="480" />
<glyph unicode="&#x2003;" horiz-adv-x="961" />
<glyph unicode="&#x2004;" horiz-adv-x="320" />
<glyph unicode="&#x2005;" horiz-adv-x="240" />
<glyph unicode="&#x2006;" horiz-adv-x="160" />
<glyph unicode="&#x2007;" horiz-adv-x="160" />
<glyph unicode="&#x2008;" horiz-adv-x="120" />
<glyph unicode="&#x2009;" horiz-adv-x="192" />
<glyph unicode="&#x200a;" horiz-adv-x="53" />
<glyph unicode="&#x2010;" horiz-adv-x="333" d="M46 240v72h238v-72h-238z" />
<glyph unicode="&#x2011;" horiz-adv-x="333" d="M46 240v72h238v-72h-238z" />
<glyph unicode="&#x2012;" horiz-adv-x="333" d="M46 240v72h238v-72h-238z" />
<glyph unicode="&#x2013;" d="M0 240v72h555v-72h-555z" />
<glyph unicode="&#x2014;" horiz-adv-x="1000" d="M0 240v72h1000v-72h-1000z" />
<glyph unicode="&#x2018;" horiz-adv-x="222" d="M65 477v101q0 59 24 93t69 38v-38q-26 -4 -37 -25.5t-11 -64.5h48v-104h-93z" />
<glyph unicode="&#x2019;" horiz-adv-x="222" d="M64 497v38q27 4 37.5 25t10.5 65h-48v104h93v-101q0 -123 -93 -131z" />
<glyph unicode="&#x201a;" horiz-adv-x="222" d="M64 -90q49 7 49 80v10h-48v104h93v-101q0 -123 -94 -131v38z" />
<glyph unicode="&#x201c;" horiz-adv-x="333" d="M48 477v101q0 59 24 93t69 38v-38q-26 -4 -37 -25.5t-11 -64.5h48v-104h-93zM206 477v101q0 59 24 93t69 38v-38q-26 -4 -37 -25.5t-11 -64.5h48v-104h-93z" />
<glyph unicode="&#x201d;" horiz-adv-x="333" d="M49 477v38q27 4 37.5 25t10.5 65h-48v104h93v-101q0 -123 -93 -131zM209 477v38q27 4 37.5 25t10.5 65h-48v104h93v-101q0 -123 -93 -131z" />
<glyph unicode="&#x201e;" horiz-adv-x="333" d="M47 0v104h93v-101q0 -123 -93 -131v38q27 4 37.5 25t10.5 65h-48zM207 0v104h93v-101q0 -123 -93 -131v38q27 4 37.5 25t10.5 65h-48z" />
<glyph unicode="&#x2022;" horiz-adv-x="350" d="M50 345q0 52 36.5 88.5t88.5 36.5t88.5 -37t36.5 -90q0 -50 -37 -86.5t-88 -36.5q-52 0 -88.5 36.5t-36.5 88.5z" />
<glyph unicode="&#x2026;" horiz-adv-x="1000" d="M115 0v104h104v-104h-104zM448 0v104h104v-104h-104zM781 0v104h104v-104h-104z" />
<glyph unicode="&#x202f;" horiz-adv-x="192" />
<glyph unicode="&#x2039;" horiz-adv-x="333" d="M91 227v89l152 122v-83l-106 -83l106 -83v-83z" />
<glyph unicode="&#x203a;" horiz-adv-x="333" d="M85 106v83l108 83l-108 83v83l154 -121v-89z" />
<glyph unicode="&#x205f;" horiz-adv-x="240" />
<glyph unicode="&#x20ac;" d="M2 254l22 59h55v25q0 22 2 41h-79l22 59h63q19 122 88 196.5t176 74.5q98 0 192 -67l-32 -80q-54 40 -90.5 55.5t-76.5 15.5q-64 0 -104.5 -47.5t-61.5 -147.5h284l-23 -59h-270q-2 -16 -2 -36q0 -15 1 -30h246l-24 -59h-214q36 -191 169 -191q36 0 70.5 13t95.5 49v-93 q-77 -47 -166 -47q-213 0 -260 269h-83z" />
<glyph unicode="&#x2122;" horiz-adv-x="1000" d="M68 678v51h362v-51h-148v-347h-65v347h-149zM499 331v398h87l131 -333l128 333h87v-398h-62v310l-121 -310h-66l-121 310v-310h-63z" />
<glyph unicode="&#xe000;" horiz-adv-x="525" d="M0 0v525h525v-525h-525z" />
</font>
</defs>
</svg>
