<?xml version="1.0" standalone="no"?>
<!DOCTYPE svg PUBLIC "-//W3C//DTD SVG 1.1//EN" "http://www.w3.org/Graphics/SVG/1.1/DTD/svg11.dtd" >
<svg xmlns="http://www.w3.org/2000/svg" xmlns:xlink="http://www.w3.org/1999/xlink" version="1.1">
<metadata></metadata>
<defs>
<font id="aleoitalic" horiz-adv-x="1511" >
<font-face units-per-em="2048" ascent="1649" descent="-399" />
<missing-glyph horiz-adv-x="425" />
<glyph unicode="&#xfb01;" horiz-adv-x="1239" d="M1155 1411q36 -28 42 -70.5t-11.5 -78.5t-50.5 -62t-68 -26q-74 0 -110 52.5t-7 119.5q-95 30 -186.5 14t-149.5 -64q-92 -77 -110 -227l-6 -53h626l-106 -866l112 -25q30 -6 27 -37l-10 -88h-330l109 885h-441q-19 -161 -57.5 -481.5t-58.5 -481.5q-18 -137 -99 -216 t-223 -79q-71 0 -123 21l21 98q6 21 35 21h38q82 0 120.5 38t47.5 119l117 957l-113 14q-46 11 -43 47l9 74l163 2v-2l9 57q25 203 161.5 316.5t362.5 117.5q190 0 303 -96zM498 1016z" />
<glyph unicode="&#xfb02;" horiz-adv-x="1335" d="M1241 123q31 0 31 -21l-4 -98q-56 -20 -127 -20q-134 0 -200.5 79t-49.5 218l133 1077h-209q-136 0 -216 -77t-95 -210l-6 -55h299l-17 -131h-295q-19 -161 -57.5 -481.5t-58.5 -481.5q-18 -137 -99 -216t-223 -79q-71 0 -123 21l21 98q6 21 35 21h38q82 0 120.5 38 t47.5 119l117 957l-113 14q-46 11 -43 47l9 74l163 2l7 53q24 188 153 306t326 118l313 -12h103l-148 -1204q-9 -83 20 -119.5t107 -36.5h41z" />
<glyph horiz-adv-x="0" />
<glyph unicode="&#xd;" horiz-adv-x="364" />
<glyph horiz-adv-x="364" />
<glyph horiz-adv-x="364" />
<glyph unicode=" "  horiz-adv-x="425" />
<glyph unicode="&#x09;" horiz-adv-x="425" />
<glyph unicode="&#xa0;" horiz-adv-x="425" />
<glyph unicode="!" horiz-adv-x="460" d="M408 1466l-72 -585q-6 -47 -12 -90q-3 -21 -17 -89q-9 -44 -18 -90q-4 -18 -13 -56.5t-10 -43.5h-125q0 18 1 51.5t1 48.5q0 32 4 90q1 14 3.5 44t3.5 45q2 27 10 90l72 585h172zM25 113q3 24 16 51q8 16 31 39q18 18 45 28q29 11 51 11q23 0 49 -11q21 -9 37 -28 q18 -21 22 -39q7 -30 5 -51q-3 -23 -17 -52q-8 -16 -33 -41q-15 -15 -45 -26q-27 -10 -51 -10q-26 0 -49 10q-24 10 -37 26q-14 17 -20 41q-7 27 -4 52z" />
<glyph unicode="&#x22;" horiz-adv-x="716" d="M319 1466l-34 -295l-37 -159q-5 -27 -25 -51q-16 -19 -47 -19q-26 0 -39 19q-11 17 -14 51l2 159l37 295h157zM662 1466l-37 -295l-35 -159q-5 -27 -25 -51q-16 -19 -49 -19q-26 0 -39 19q-11 16 -14 51l4 159l35 295h160z" />
<glyph unicode="#" horiz-adv-x="1163" d="M764 434l-139 -434h-82q-26 0 -39 16t-10 45q0 1 1 4.5t1 4.5q0 4 2 8l116 354h-254l-116 -362q-12 -37 -39 -54q-26 -16 -53 -16h-82l141 432h-150q-24 0 -36 12t-9 41q0 2 1 5.5t1 5.5t5 12l14 59h209l108 334h-237l22 76q9 28 29 43q20 14 59 14h162l119 367 q9 29 35 49q21 16 55 16h82l-139 -430h252l139 430h82q27 0 41 -14q13 -13 10 -39q0 -10 -2 -14l-119 -363h217l-22 -78q-9 -31 -31 -43q-24 -14 -59 -14h-142l-106 -334h182q25 0 37 -12q11 -11 8 -41q0 -2 -1 -5t-1 -5q0 -8 -2 -12l-16 -58h-244zM397 567h252l109 334 h-254z" />
<glyph unicode="$" horiz-adv-x="1056" d="M344 -12q-124 12 -217 61q-98 51 -160 125l64 84q10 13 22 18q22 9 29 9q16 0 41 -21q29 -25 55 -43q43 -30 80 -49q46 -24 115 -33l106 545q-70 22 -135 49q-71 30 -117 70q-49 43 -73 110q-25 69 -13 164q9 77 47 148q37 69 101 127q55 50 147 90q82 36 195 39l28 147 q3 19 19 35t39 16h67l-41 -204q111 -13 181 -54q69 -41 127 -102l-54 -68q-24 -30 -51 -30q-15 0 -33 12q-44 29 -47 31q-4 3 -65 32q-41 20 -86 25l-94 -496q65 -19 139 -49q78 -31 121 -67q52 -43 80 -107q28 -63 16 -156q-12 -94 -53 -174q-41 -81 -107 -141 q-70 -64 -155 -100q-92 -39 -201 -45l-35 -181q-3 -17 -20 -34q-15 -15 -37 -15h-68zM799 418q6 55 -6 86q-15 38 -45 65q-31 28 -72 45l-27 12t-33 14.5t-30 10.5l-97 -512q62 6 121 31t95 59q42 39 63 82q25 52 31 107zM315 1096q-5 -45 7 -84q12 -38 40 -66 q27 -27 66 -47q51 -26 84 -37l88 461q-66 -6 -119 -27q-51 -20 -86 -51q-34 -30 -55 -67q-18 -32 -25 -82z" />
<glyph unicode="%" horiz-adv-x="1529" d="M735 1114q-8 -81 -47 -156q-34 -68 -84 -114q-48 -45 -112 -70q-62 -24 -127 -24q-69 0 -125 24q-59 26 -95 70q-41 51 -55 114q-15 68 -6 156q13 92 45 156q36 71 82 114q54 51 113 74q64 25 131 25q64 0 125 -25q51 -21 94 -74q41 -51 55 -114q17 -76 6 -156zM592 1114 q9 67 0 113q-9 47 -31 78t-51 43q-35 14 -70 14q-33 0 -73 -14q-37 -13 -64 -43q-31 -34 -47 -76q-21 -54 -29 -115q-9 -68 0 -115q9 -46 29 -75q19 -28 53 -41q38 -15 70 -15q31 0 74 15q38 13 63 41q26 29 47 75q19 43 29 115zM1286 1430q14 16 33 28q13 8 39 8h131 l-1247 -1437q-9 -9 -29 -21q-13 -8 -33 -8h-135zM1452 346q-9 -82 -45 -153q-34 -66 -86 -115q-47 -44 -113 -70q-62 -24 -127 -24q-69 0 -125 24q-58 25 -94 70q-38 47 -53 115q-15 67 -6 153q14 101 43 158q34 68 84 114q53 50 110 72q64 25 131 25t125 -25q60 -26 97 -72 q38 -47 53 -114q17 -77 6 -158zM1311 346q9 66 0 115q-8 46 -31 78q-21 30 -53 43q-30 12 -70 12q-37 0 -72 -12t-63 -43q-35 -38 -49 -78q-18 -51 -27 -115q-9 -67 0 -113t29 -75q19 -27 53 -41q38 -15 70 -15q28 0 71 15q39 14 64 41q30 34 49 75q20 44 29 113z" />
<glyph unicode="&#x26;" horiz-adv-x="1343" d="M745 1483q79 0 146 -25q59 -22 106 -69q41 -41 64 -101q21 -56 18 -119l-116 -22h-11q-10 0 -22 6q-11 6 -15 27q-3 25 -16 55q-10 22 -35 51q-21 24 -55 39q-37 16 -80 16q-48 0 -94 -16q-33 -11 -76 -45q-30 -26 -53 -70q-21 -41 -27 -86q-4 -46 0 -67q4 -23 19 -66 q12 -35 34 -69q9 -14 60 -74l369 -430q34 50 79 145q29 63 50 150q3 17 16 30t31 13h112q-14 -110 -67 -232q-50 -114 -129 -213l268 -311h-176q-29 0 -47 6q-15 5 -37 31l-129 147q-108 -92 -240 -147q-126 -53 -282 -53q-84 0 -158 26q-71 25 -131 82q-59 56 -84 127 q-29 81 -17 172q8 65 41 135q28 61 80 119q44 50 113 96q68 46 137 74q-53 80 -74 154q-20 69 -10 155q9 72 45 140q35 66 92 114q62 53 134 78q76 27 167 27zM207 406q-9 -65 10 -117q20 -56 53 -86q39 -36 86 -53q52 -19 103 -19q118 0 211 43q107 49 174 111l-379 438 q-116 -58 -182 -139q-63 -78 -76 -178z" />
<glyph unicode="'" horiz-adv-x="376" d="M319 1466l-34 -295l-37 -159q-5 -27 -25 -51q-16 -19 -47 -19q-26 0 -39 19q-11 17 -14 51l2 159l37 295h157z" />
<glyph unicode="(" horiz-adv-x="530" d="M219 643q-27 -214 4 -424q29 -200 115 -395q6 -12 6 -19v-16q-3 -15 -10 -22q-13 -13 -21 -17l-88 -49q-57 108 -100 233q-42 121 -59 232q-19 124 -19 235q0 124 14 242q15 125 45 244q30 118 76 235q37 94 117 232q60 103 160 235l73 -51q11 -8 17 -16q7 -10 4 -23 q-5 -23 -14 -37q-135 -196 -211 -393q-83 -214 -109 -426z" />
<glyph unicode=")" horiz-adv-x="534" d="M293 643q27 215 -4 426q-30 207 -115 393q-10 19 -6 37q3 16 10 23q11 11 21 16l88 51q57 -112 100 -235q42 -121 59 -232q21 -136 21 -235q0 -111 -16 -242q-15 -128 -45 -244q-32 -123 -76 -235q-46 -109 -117 -232q-62 -108 -160 -233l-73 49q-10 7 -17 17 q-6 10 -4 22q0 4 4 16q1 3 5 9.5t5 9.5q126 183 211 395q82 203 109 424z" />
<glyph unicode="*" horiz-adv-x="759" d="M313 885l25 200q0 1 2 15.5t4 21.5q7 22 14 33q-27 -27 -59 -45l-188 -102l-37 77l190 103q40 21 78 24q-21 3 -39 9t-33 16l-166 104l56 76l164 -102q37 -23 53 -53q-8 24 -8 38v39l24 203h90l-24 -203q-6 -45 -23 -73q11 13 29 28q6 5 17.5 11.5t15.5 9.5l188 102 l37 -78l-188 -102q-11 -7 -37 -16q-17 -6 -37 -9q26 -4 35 -8q24 -10 32 -16l164 -103l-55 -77l-164 102q-24 16 -31 23q-16 16 -22 26q13 -38 8 -74l-25 -200h-90z" />
<glyph unicode="+" horiz-adv-x="1038" d="M659 1194l-55 -436h418l-18 -140h-416l-53 -440h-150l53 440h-413l16 140h414l55 436h149z" />
<glyph unicode="," horiz-adv-x="468" d="M104 127q3 21 15 43q15 26 28 37q22 18 43 26q24 9 50 9q34 0 53 -11q25 -14 37 -32q11 -16 18 -45q6 -22 2 -58q-5 -38 -26 -96q-14 -39 -50 -98q-29 -48 -73 -95q-51 -54 -92 -86l-27 31q-13 13 -10 29q3 11 18 26q4 4 13 14.5t16 16.5q27 27 39 43q17 23 37 56 q17 28 26 63h-12q-28 0 -47 8q-24 10 -35 27q-12 19 -18 41q-7 30 -5 51z" />
<glyph unicode="-" horiz-adv-x="737" d="M127 692h506l-19 -155h-508z" />
<glyph unicode="." horiz-adv-x="456" d="M84 113q3 30 14 51q6 12 33 39q19 19 43 28q29 11 51 11q23 0 49 -11q24 -10 39 -28q16 -19 21 -39q7 -27 4 -51q-3 -26 -16 -52q-10 -20 -31 -41q-15 -15 -45 -26q-27 -10 -51 -10q-27 0 -50 10q-22 10 -36 26q-18 22 -23 41q-5 22 -2 52z" />
<glyph unicode="/" horiz-adv-x="946" d="M162 -20q-17 -35 -49 -54q-30 -18 -60 -18h-78l803 1534q15 29 45 49q24 16 60 16h78z" />
<glyph unicode="0" horiz-adv-x="1222" d="M1141 733q-24 -195 -82 -334q-56 -136 -144 -233q-82 -91 -186 -137q-102 -45 -215 -45q-114 0 -203 45t-151 137q-59 88 -84 233q-24 141 0 334q24 195 82 334q59 142 141 233q83 92 184 138q99 45 215 45t205 -45q90 -46 152 -138t86 -233t0 -334zM950 733 q21 169 6 283q-15 116 -53 182q-41 72 -96 100q-60 31 -127 31q-63 0 -133 -31q-68 -30 -123 -100t-98 -182q-40 -105 -62 -283q-21 -169 -6 -282q16 -122 51 -183q40 -70 99 -100q60 -31 127 -31q63 0 133 31q68 30 123 100q55 69 98 183q39 101 61 282z" />
<glyph unicode="1" horiz-adv-x="858" d="M774 119q28 -6 25 -37l-11 -82h-786l8 61l2 21q3 31 33 37l289 20l123 1000q8 59 14 92l-289 -223q-24 -17 -39 -17q-34 0 -47 23l-47 80l483 376h148l-164 -1331q251 -19 258 -20z" />
<glyph unicode="2" horiz-adv-x="1118" d="M262 150q90 22 166 22h403q5 22 11 52.5t9.5 46.5t4.5 20q4 15 18 25t29 10h98q-4 -34 -12 -99.5t-12 -99.5l-14 -127h-979l8 63q6 47 43 76l528 473q78 71 114 105t88.5 100t80.5 131q23 52 31.5 111.5t-5.5 124.5q-45 143 -225 143q-87 0 -154 -36t-110 -95 q-34 -46 -47 -88q-24 -57 -74 -57q-14 0 -22 2l-95 16q39 144 129 244.5t224 142.5q86 27 178 27q147 0 244.5 -61.5t132.5 -174.5q23 -84 13 -169t-44 -154q-21 -45 -52 -90.5t-56.5 -76.5t-72.5 -77.5t-68.5 -66.5t-76.5 -70z" />
<glyph unicode="3" horiz-adv-x="1097" d="M651 1483q94 0 170 -27q74 -26 127 -76q50 -47 74 -118q22 -63 12 -154q-9 -69 -33 -125q-20 -46 -63 -96q-36 -42 -88 -70q-55 -30 -113 -47q139 -38 201 -127q60 -87 45 -223q-12 -104 -61 -182q-55 -88 -121 -138q-74 -56 -166 -86q-91 -30 -195 -30q-122 0 -196 28 q-79 30 -129 80q-53 53 -80 123q-29 76 -43 152l80 32q21 9 45 9q20 0 35 -9q14 -9 20 -26q4 -4 4 -8q0 -2 1 -5.5t1 -5.5q3 -9 7 -19.5t10 -24.5t10 -23q12 -30 47 -70q29 -33 80 -55q54 -23 125 -23q75 0 139 25q59 23 104 65q44 41 68 90q26 53 31 97q6 62 -2 108 q-9 48 -47 86q-34 34 -107 56q-67 20 -186 20l16 133q83 0 162 21q68 18 115 53q48 36 71 80q25 49 31 104q9 65 -6 111q-16 49 -45 78t-78 45q-50 16 -100 16q-52 0 -105 -16q-38 -11 -88 -45q-40 -30 -70 -70q-31 -42 -49 -88q-13 -33 -28 -43q-18 -12 -43 -12h-13h-12 l-92 16q27 102 76 178q49 77 120 129q73 54 154 80q86 27 178 27z" />
<glyph unicode="4" horiz-adv-x="1132" d="M891 528h223l-14 -102q-4 -20 -13 -29q-12 -12 -32 -12h-183l-47 -385h-159l47 385h-652q-20 0 -32 12q-15 15 -17 29l-6 94l830 946h170zM805 1135q4 38 8 57q8 40 14 63l-622 -727h526z" />
<glyph unicode="5" horiz-adv-x="1069" d="M1028 1389q-6 -42 -33 -66q-28 -25 -86 -25h-460l-115 -385q122 25 215 25q120 0 199 -33q81 -34 135 -94q49 -54 71 -139q21 -80 9 -176q-15 -120 -66 -211q-52 -93 -133 -162q-76 -65 -180 -103q-98 -36 -211 -36q-65 0 -123 12q-47 10 -107 35q-45 19 -90 49 q-30 20 -69 59l65 78q21 27 51 27q18 0 45 -17q36 -23 58 -34q56 -29 82 -37q56 -17 116 -17q75 0 142 25q62 23 114 72q53 50 80 108q33 71 41 143q9 65 -4 123q-12 55 -49 95q-38 41 -94 61t-139 20q-60 0 -115 -8q-63 -9 -127 -30l-111 34l203 684h696z" />
<glyph unicode="6" horiz-adv-x="1071" d="M641 899q93 0 164 -29q74 -30 127 -86q54 -57 78 -137q24 -79 12 -184q-12 -98 -61 -189q-47 -86 -121 -151q-76 -67 -172 -103q-95 -36 -209 -36q-119 0 -197 34q-84 37 -139 101q-60 70 -80 157q-22 98 -8 207q13 99 67 205q52 101 166 234l432 501q15 17 45 31 q27 12 60 12h162l-588 -643q55 37 123 56q72 20 139 20zM207 453q-9 -67 4 -129q11 -53 49 -101q33 -41 88 -65q53 -23 127 -23q71 0 135 25q67 26 111 65q50 44 78 99q27 54 37 125q9 68 -7 129q-15 59 -51 98q-41 45 -90 63q-56 21 -123 21q-73 0 -137 -25t-109 -67 q-49 -46 -75 -99q-32 -66 -37 -116z" />
<glyph unicode="7" horiz-adv-x="1107" d="M109 1466h997l-8 -82q-5 -42 -37 -94l-758 -1224q-41 -66 -106 -66h-131l765 1210q42 62 68 88h-655q-27 -141 -33 -153q-12 -35 -45 -35h-100z" />
<glyph unicode="8" horiz-adv-x="1126" d="M475 -16q-116 0 -199 28q-90 31 -145 84q-60 57 -86 131q-27 75 -14 174q18 145 102 234q81 87 227 129q-106 42 -157 129q-50 86 -35 205q9 77 51 151q41 71 105 123t149 82q83 29 186 29t177 -29q81 -32 131 -82t75 -123q23 -66 13 -151q-15 -122 -84 -205 q-68 -82 -191 -127q135 -41 195 -131q63 -94 45 -234q-13 -101 -57 -174q-45 -75 -117 -131q-65 -51 -168 -84q-88 -28 -203 -28zM492 129q63 0 131 21q63 19 104 55q42 36 70 88t34 110q9 79 -8 132q-16 48 -57 86q-39 36 -92 51q-49 14 -113 14t-119 -14q-51 -13 -102 -51 q-56 -42 -80 -86q-33 -60 -41 -132q-6 -63 8 -110q16 -52 49 -88t91 -55q65 -21 125 -21zM580 834q70 0 125 22t90 57q31 31 55 84q21 46 27 97q5 48 -7 96q-12 45 -39 80q-26 33 -77 53q-46 18 -113 18q-65 0 -117 -18t-90 -53q-39 -36 -59 -80q-24 -53 -29 -96 q-6 -53 2 -97q9 -45 37 -84q27 -37 74 -57q52 -22 121 -22z" />
<glyph unicode="9" horiz-adv-x="1064" d="M430 602q-78 0 -154 29q-74 28 -120 80q-48 54 -72 133t-12 180q13 102 57 180q47 83 119 146q65 57 166 98q90 37 200 37q103 0 187 -35q75 -31 135 -98q57 -63 78 -150q20 -83 8 -192q-9 -66 -27 -121q-17 -56 -47 -111q-24 -44 -67 -108q-24 -35 -84 -111l-422 -516 q-15 -18 -41 -31q-24 -12 -58 -12h-167l518 586q46 51 49 55q7 9 21.5 26.5t21.5 26.5q-53 -40 -135 -67q-77 -25 -154 -25zM850 1032q9 68 -6 123q-15 56 -49 96q-33 39 -86 60q-50 20 -115 20q-66 0 -127 -22t-102 -60q-48 -45 -72 -94q-29 -59 -37 -119q-9 -67 4 -125 q12 -53 47 -92q38 -41 84 -57q55 -19 117 -19q77 0 133 23q61 25 104 65q46 43 72 93q27 52 33 108z" />
<glyph unicode=":" horiz-adv-x="489" d="M61 113q2 22 17 51q8 16 31 39q18 18 45 28q29 11 51 11q23 0 49 -11q21 -9 37 -28q17 -21 22 -39q7 -27 4 -51q-3 -26 -16 -52q-8 -16 -33 -41q-15 -15 -45 -26q-27 -10 -51 -10q-26 0 -49 10q-24 10 -37 26q-14 17 -20 41q-7 30 -5 52zM156 881q3 24 16 51q10 20 31 41 q15 15 45 26q29 11 51 11q23 0 49 -11q24 -10 37 -26q18 -22 23 -41q7 -27 4 -51q-3 -23 -17 -52q-5 -10 -33 -38q-19 -19 -45 -29q-21 -8 -51 -8t-49 8q-20 9 -37 29q-15 18 -20 38q-7 27 -4 52z" />
<glyph unicode=";" horiz-adv-x="495" d="M80 127q3 24 14 43q14 24 29 37q23 19 41 26q24 9 51 9q34 0 53 -11q22 -13 35 -32q12 -19 19 -45q6 -22 2 -58q-5 -42 -25 -96q-13 -35 -51 -98q-31 -51 -72 -95q-51 -54 -92 -86l-29 31q-11 11 -8 29q3 13 16 26l31 31q19 19 37 43q17 23 37 56q22 37 29 63h-15 q-28 0 -47 8q-21 9 -33 27q-16 23 -20 41q-5 21 -2 51zM166 881q3 24 16 51q10 20 31 41q15 15 45 26q29 11 51 11q23 0 49 -11q24 -10 37 -26q18 -22 23 -41q7 -27 4 -51q-3 -26 -16 -52q-5 -10 -33 -38q-19 -19 -45 -29q-21 -8 -52 -8q-30 0 -49 8q-20 9 -37 29 q-15 18 -20 38q-7 27 -4 52z" />
<glyph unicode="&#x3c;" horiz-adv-x="937" d="M53 727l844 412l-16 -131q-3 -18 -13 -31q-11 -15 -30 -23l-490 -233q-24 -14 -45 -19q-6 -2 -23.5 -7t-27.5 -7q46 -11 47 -12q8 -4 23.5 -12t17.5 -9l432 -231q18 -9 25 -23q9 -17 6 -30l-17 -131l-741 411z" />
<glyph unicode="=" horiz-adv-x="1134" d="M117 588h880l-18 -137h-879zM160 930h878l-16 -137h-879z" />
<glyph unicode="&#x3e;" horiz-adv-x="931" d="M45 240l14 131q3 17 13 30q10 14 32 23l488 233q7 3 22.5 9.5t22.5 9.5q5 2 49 12q-9 2 -26 7.5t-21 6.5q-18 5 -39 19l-432 233q-18 9 -25 23t-4 31l15 131l741 -412l-8 -76z" />
<glyph unicode="?" horiz-adv-x="794" d="M49 1335q53 43 78 58q45 28 90 47q53 22 102 33q55 12 115 12q78 0 148 -25q65 -23 110 -65q47 -44 68 -105q20 -57 10 -139q-9 -78 -39 -133q-33 -62 -69 -100q-39 -42 -89 -74q-17 -11 -45 -31t-39 -27q-30 -20 -69 -55q-30 -27 -39 -61l-37 -158h-125l8 170l2 12 q6 41 33 76q28 36 66 61q40 30 84 60q55 38 82 63q46 43 69 82q30 51 35 107q6 41 -6 78q-11 34 -41 61q-33 29 -66 39q-47 14 -84 14q-58 0 -108 -16q-44 -14 -80 -33q-15 -8 -53 -35q-20 -14 -35 -14q-25 0 -37 23zM100 113q2 22 17 51q11 22 30 41q14 14 46 26 q29 11 51 11q23 0 49 -11q24 -10 37 -26q17 -20 22 -41q7 -27 4 -51q-3 -26 -16 -52q-5 -10 -33 -38q-21 -21 -43 -29q-21 -8 -53 -8q-28 0 -47 8q-23 10 -39 29q-16 20 -21 38q-7 27 -4 52z" />
<glyph unicode="@" horiz-adv-x="1636" d="M1108 190q-77 0 -125 39q-46 37 -49 119q-70 -82 -143 -119q-71 -36 -154 -36q-64 0 -105 20q-42 20 -67 59q-27 43 -35 88q-8 49 -2 111q9 82 55 176q43 87 119 160q74 71 178 117q102 45 232 45q64 0 118 -13q66 -16 95 -30l-142 -369q-28 -80 -34 -127q-3 -40 2 -61 q7 -29 20 -39q18 -14 35 -19q14 -4 43 -4q45 0 98 29q49 27 90 80q46 60 70 125q27 72 39 164q19 145 -14 247q-34 107 -103 176q-73 73 -176 107q-104 37 -227 37q-137 0 -264 -53q-122 -51 -226 -144q-98 -88 -168 -219q-65 -122 -84 -274q-22 -180 17 -306 q41 -133 123 -221q80 -86 204 -133q119 -45 269 -45q162 0 280 33q127 36 215 86q17 10 29 10q23 0 29 -24l18 -68q-120 -74 -264 -117q-136 -41 -322 -41q-178 0 -323 56t-244 161q-97 103 -145 260q-46 150 -21 349q11 101 55 215q38 98 103 192q62 89 143 164 q82 76 174 127q102 56 201 82q108 31 215 31q94 0 182 -21q85 -20 162 -61q74 -39 137 -99q55 -53 99 -135q39 -74 55 -170q14 -88 2 -202q-12 -116 -55 -205q-49 -104 -107 -164q-65 -69 -141 -107q-77 -39 -166 -39zM686 313q24 0 66 11q24 6 67 36q30 21 64 70 q36 52 57 111l115 301q-45 10 -86 10q-72 0 -146 -33q-67 -30 -121 -84q-49 -49 -86 -121q-34 -67 -43 -137q-9 -74 19 -119t94 -45z" />
<glyph unicode="A" horiz-adv-x="1566" d="M1440 115q25 -6 22 -33l-8 -82h-422l10 82q3 27 31 33l88 24l-78 295h-632l-152 -295l80 -24q27 -6 24 -33l-10 -82h-422l11 82q3 27 30 33l86 24l695 1327h200l369 -1327zM522 578h522l-147 565q-15 57 -27 137q-44 -105 -61 -139z" />
<glyph unicode="B" horiz-adv-x="1282" d="M932 754q316 -64 282 -336q-24 -188 -172 -303q-150 -115 -395 -115h-665l10 88q3 32 37 39l118 23l144 1169q-25 5 -53.5 10.5t-42.5 8t-19 3.5q-27 5 -24 39l10 86h614q393 0 461 -221q21 -71 12 -143q-11 -83 -30 -123q-24 -49 -64 -92q-84 -90 -223 -133zM489 1311 l-61 -500h262q244 0 324 147q28 54 33 103q15 126 -56 188t-233 62h-269zM664 158q244 0 323 157q28 58 33 107q15 112 -59 180q-72 66 -234 66h-317l-64 -510h318z" />
<glyph unicode="C" horiz-adv-x="1271" d="M877 1483q175 0 442 -105l-14 -114l-29 -228h-98q-36 0 -39 35q-1 5 2 92q1 22 2 45l1.5 34.5t0.5 14.5q-442 144 -703 -102q-167 -154 -202 -422q-34 -265 96 -426q118 -151 342 -151q129 0 196 24q110 39 195 107q19 16 37 16q15 0 27 -12l67 -86q-218 -221 -555 -221 q-314 0 -481 209q-167 207 -127 540q41 332 272 541q232 209 568 209z" />
<glyph unicode="D" d="M1473 733q-20 -156 -91 -299q-72 -144 -174 -233q-223 -201 -549 -201h-675l10 88q3 33 35 39l118 23l146 1169q-25 5 -53.5 10.5t-42.5 8t-19 3.5q-29 6 -26 39l10 86h678q324 0 497 -200q177 -204 136 -533zM1268 733q16 143 -6 242q-24 107 -82 180q-122 152 -361 152 h-330l-139 -1147h330q238 0 395 151q158 152 193 422z" />
<glyph unicode="E" horiz-adv-x="1175" d="M162 1466h1052l-43 -352h-98q-36 0 -39 35q0 60 4 158h-549l-59 -488h541l-19 -155h-540l-62 -502h549q26 130 31 145q12 35 49 35h98l-43 -342h-1050l10 88q3 33 35 39l118 23l146 1169q-25 5 -53.5 10.5t-42.5 8t-19 3.5q-29 6 -26 39z" />
<glyph unicode="F" horiz-adv-x="1193" d="M309 1466h940l-43 -352h-100q-34 0 -37 35q0 60 4 158h-584l-61 -514h557l-20 -162h-557l-60 -481q7 -2 22 -5t42 -8t51 -10q27 -5 24 -39l-10 -88h-493l10 88q3 33 35 39l118 23l146 1169q-25 5 -53.5 10.5t-42.5 8t-19 3.5q-29 6 -26 39l10 86h147z" />
<glyph unicode="G" horiz-adv-x="1388" d="M705 143q200 0 374 86l39 324h-227q-20 0 -29 12q-11 14 -8 27l14 113h451l-70 -564q-237 -157 -577 -157q-322 0 -498 206q-178 208 -137 543q44 339 270 543q229 207 574 207q236 0 503 -105l-41 -342h-98q-36 0 -39 35q0 4 1 25.5t3 66.5t4 94q-16 5 -41 12.5 t-34 10.5q-115 31 -260 31q-155 0 -256 -39q-100 -39 -185 -117q-163 -153 -198 -422q-35 -274 98 -434q129 -156 367 -156z" />
<glyph unicode="H" horiz-adv-x="1593" d="M1599 1341l-118 -22l-144 -1169q77 -14 121 -25q24 -6 21 -37l-13 -88h-495l12 88q3 33 35 39l119 23l65 518h-790l-66 -518q144 -30 141 -62l-12 -88h-493l10 88q3 32 37 39l118 23l144 1169q-105 20 -121 24q-21 5 -18 37l10 86h493l-10 -86q-1 -15 -8.5 -25t-18.5 -12 q-6 -2 -21.5 -4.5t-45.5 -8t-59 -11.5l-64 -506h791l63 506q-105 20 -121 24q-23 6 -20 37l10 86h496l-11 -86q-3 -33 -37 -39z" />
<glyph unicode="I" horiz-adv-x="602" d="M608 1341l-119 -22l-143 -1169q77 -14 121 -25q23 -6 20 -37l-12 -88h-493l10 88q3 32 37 39l118 23l144 1169q-105 20 -121 24q-21 5 -18 37l10 86h493l-10 -86q-3 -33 -37 -39z" />
<glyph unicode="J" horiz-adv-x="911" d="M180 150q282 0 326 354l100 815q-13 2 -133 22q-30 6 -27 39l13 86h512l-13 -86q-3 -33 -34 -39l-119 -22l-100 -811q-46 -376 -324 -488q-85 -36 -197 -36q-100 0 -209 28q25 133 39 144q15 12 35 12q22 0 49 -8q33 -10 82 -10z" />
<glyph unicode="K" horiz-adv-x="1396" d="M1298 121q30 -6 27 -39l-10 -82h-481l10 82q3 31 33 37q3 1 14.5 2.5t34.5 5.5t47 8l-365 490q-30 40 -57 43q-36 4 -51 4h-90l-66 -522q11 -2 49 -10t66 -13q29 -6 26 -39l-10 -88h-493l10 88q3 32 37 39l118 23l144 1169q-25 5 -53.5 10.5t-42.5 8t-19 3.5 q-27 5 -24 39l10 86h493l-10 -86q-3 -33 -37 -39q-109 -21 -119 -22l-61 -496h74q65 0 110 45l469 463q-20 4 -40.5 8.5t-32 7t-15.5 3.5q-25 6 -22 34l8 82h463l-6 -77q-3 -31 -35 -37q-5 -1 -18 -4.5t-35 -9.5t-45 -11l-498 -491q-57 -53 -88 -66q42 -14 86 -74l395 -553 q22 -5 46 -10.5t36.5 -8z" />
<glyph unicode="L" horiz-adv-x="1118" d="M1049 319l-41 -319h-45h-19h-815h-149q10 70 12 88q2 14 12 25t23 14l120 23l144 1169q-97 18 -115 22q-29 7 -26 37l10 88h149h197h2h147q-10 -70 -12 -88q-1 -13 -11 -23.5t-24 -13.5q-99 -22 -119 -22l-141 -1151h529q23 113 24 117q4 15 18 24.5t29 9.5h101z" />
<glyph unicode="M" horiz-adv-x="1931" d="M442 1178q0 -54 -6 -101l-114 -927q90 -15 135 -25q27 -6 24 -37l-10 -88h-489l10 88q3 32 37 39l118 23l144 1169q-25 5 -53.5 10.5t-42.5 8t-19 3.5q-27 5 -24 39l10 86h293q33 0 41 -4q17 -8 24 -28l395 -904q15 -30 33 -106q11 24 62 108l606 902q12 20 33 28 q10 4 41 4h295l-11 -86q-3 -33 -37 -39l-118 -22l-146 -1169q29 -5 55 -10.5t41 -8.5t19 -4q30 -6 27 -39l-11 -88h-489l10 88q3 33 35 39q12 2 139 23l115 927q3 23 16 99l-616 -918q-30 -47 -76 -47h-29q-49 0 -67 47z" />
<glyph unicode="N" horiz-adv-x="1591" d="M1192 328q0 44 6 100l111 889q-32 6 -65.5 11.5t-49.5 8.5t-20 4q-28 6 -25 39l10 86h166h174h150l-11 -86q-3 -33 -36 -39l-119 -22l-164 -1319h-98q-44 0 -68 37l-713 1104q-4 -67 -8 -97l-110 -894q80 -14 135 -25q27 -5 24 -37l-10 -88h-487l10 88q3 31 35 37l118 25 l146 1167q-27 5 -53.5 10.5t-42 9t-19.5 4.5q-29 6 -26 39l10 86h250q27 0 39 -6t26 -26z" />
<glyph unicode="O" horiz-adv-x="1521" d="M1485 733q-21 -168 -90 -303q-73 -142 -176 -237q-108 -99 -248 -154t-303 -55q-162 0 -287 55q-131 58 -211 154q-85 102 -119 237q-35 139 -14 303q21 168 90 303q74 144 176 238q112 102 248 156q135 53 301 53q169 0 289 -53q125 -55 209 -156q85 -105 118 -238 q37 -147 17 -303zM1280 733q16 143 -6 242q-24 110 -82 182q-59 74 -152 115q-88 39 -209 39t-219 -39q-99 -39 -178 -115q-78 -75 -127 -182q-53 -116 -67 -242q-15 -137 8 -241q25 -111 82 -183q57 -71 149 -112q93 -41 211 -41q116 0 219 41q105 42 178 112 q77 74 127 183q52 113 66 241z" />
<glyph unicode="P" horiz-adv-x="1196" d="M954 1436q293 -95 252 -424q-24 -206 -180 -332q-166 -131 -424 -131h-207l-49 -399q4 -1 19.5 -4.5t42 -9.5t53.5 -11t24 -37l-10 -88h-491l10 88q3 31 35 37l118 25l146 1167q-27 5 -53.5 10.5t-42 9t-19.5 4.5q-29 6 -26 39l10 86h553q140 0 239 -30zM1008 1014 q18 138 -60 219q-75 78 -252 78h-207l-75 -604h209q162 0 266 84q101 82 119 223z" />
<glyph unicode="Q" horiz-adv-x="1521" d="M1483 733q-13 -110 -45 -196q-41 -110 -82 -175q-50 -80 -115 -145q-64 -64 -143 -115l325 -405h-163q-34 0 -64 10q-23 8 -47 35l-223 281q-75 -22 -125 -29q-72 -10 -133 -10q-164 0 -289 55q-127 56 -209 154q-85 102 -119 237q-35 139 -14 303q22 174 88 303 q74 144 176 238q112 102 248 156q135 53 303 53q169 0 289 -53q125 -55 209 -156q85 -105 118 -238q35 -141 15 -303zM1280 733q15 137 -8 242q-24 110 -82 182q-60 75 -150 115q-88 39 -211 39q-121 0 -219 -39q-99 -39 -178 -115q-78 -75 -127 -182q-50 -110 -65 -242 q-16 -143 6 -241q25 -111 82 -183q55 -70 151 -112q93 -41 209 -41t219 41q105 42 178 112q77 74 127 183q54 119 68 241z" />
<glyph unicode="R" horiz-adv-x="1300" d="M1214 127q13 -3 21 -14t6 -25l-12 -88h-37h-111h-65q-53 0 -74 43l-317 524q-14 22 -33 35q-20 10 -60 10h-131l-57 -462q97 -19 115 -23q13 -3 20.5 -14t5.5 -25l-12 -88h-147h-197h-149q10 70 12 88q2 14 12 25t23 14l120 23l144 1169q-97 18 -115 22q-29 7 -26 37 l10 88h149h393q143 0 238 -26q96 -26 158 -82q61 -54 82 -129q23 -82 12 -168q-9 -80 -43 -146q-32 -63 -86 -120q-57 -57 -125 -93q-73 -39 -160 -57q34 -21 58 -61l266 -434q60 -10 112 -23zM606 758q92 0 156 20q68 21 119 60q51 42 77 92q28 55 37 117q15 133 -61 198 q-78 66 -250 66h-197l-67 -553h186z" />
<glyph unicode="S" horiz-adv-x="1054" d="M795 776q209 -102 182 -330q-24 -201 -168 -327q-153 -135 -381 -135q-82 0 -199 20q-88 15 -159 37l-58 20l47 369h99q34 0 37 -35q0 -41 -2 -100l-5 -90q150 -58 242 -58q86 0 154 21q56 17 100 55q87 72 102 195q15 116 -86 180q-54 31 -106 49q-188 62 -248 88 q-53 23 -102 72q-97 97 -76 274q21 164 151 279q141 123 343 123q203 0 401 -82l-43 -338h-98q-34 0 -37 35q0 65 4 182q-127 39 -236 39q-130 0 -211 -66q-78 -63 -90 -163q-12 -106 90 -170q65 -38 107 -52q173 -60 246 -92z" />
<glyph unicode="T" horiz-adv-x="1206" d="M1233 1466h27l-39 -323h-99q-39 0 -39 20v137h-346l-141 -1150q11 -3 27 -7q21 -4 43.5 -8t35.5 -6t19 -4q19 -5 16 -37l-10 -88h-496l13 88q3 33 39 39q10 2 48 10t66 13l142 1150h-346q-17 -75 -35 -137q-6 -20 -41 -20h-101l41 323h1104h72z" />
<glyph unicode="U" horiz-adv-x="1492" d="M1401 1466h149l-10 -86q-3 -33 -37 -39l-119 -22l-92 -744q-30 -255 -207 -423q-180 -168 -450 -168q-266 0 -406 168q-134 165 -104 423l90 744q-25 5 -53.5 10.5t-42.5 8t-19 3.5q-27 5 -24 39l10 86h512l-10 -86q-3 -33 -37 -39q-4 -1 -20 -3.5t-48.5 -7.5t-68.5 -11 l-92 -741q-22 -192 65 -304q91 -116 270 -116q180 0 299 116t140 301l90 744q-34 6 -65 11t-48 7.5t-20 3.5q-30 6 -27 39l10 86h168h197z" />
<glyph unicode="V" horiz-adv-x="1497" d="M1065 1466h487l-10 -88q-3 -31 -35 -37l-104 -24l-701 -1317h-178l-374 1317q-23 5 -47 11t-37.5 9t-18.5 4q-27 5 -24 37l10 88h487l-10 -88q-3 -30 -45 -39q-51 -11 -111 -22l260 -932q14 -49 29 -160q40 112 66 160l485 934q-25 5 -53.5 10.5t-42.5 8t-19 3.5 q-27 5 -24 39z" />
<glyph unicode="W" horiz-adv-x="2207" d="M2179 1466h86l-10 -86q-3 -33 -35 -39l-104 -22l-574 -1319h-178l-236 1118q-7 37 -10 74q-2 -6 -8 -18.5t-8 -18.5q-1 -3 -5.5 -17t-6.5 -20l-512 -1118h-179l-247 1319q-94 20 -103 22q-27 5 -24 39l10 86h497l-10 -86q-3 -32 -37 -39q-31 -6 -59.5 -11t-42 -7.5 t-16.5 -3.5l159 -918q12 -90 13 -127q25 77 47 127l469 1020q7 13 28 31q17 14 45 14h58q52 0 61 -45l219 -1020q10 -44 17 -122q3 13 10.5 34.5t9.5 28.5q11 36 21 59l385 918q-3 1 -16.5 3.5l-40.5 7.5t-56 11q-30 6 -27 39l11 86h399z" />
<glyph unicode="X" horiz-adv-x="1505" d="M1382 127q30 -6 27 -39l-12 -88h-539l10 88q3 32 37 39q2 0 22.5 3.5t41.5 8.5l55 11l-260 503q-8 -18 -23 -41l-366 -462q1 0 114 -23q28 -6 25 -39l-10 -88h-529l13 88q3 33 35 39q3 1 139 23l479 604l-313 565q-13 2 -133 22q-30 6 -27 39l10 86h522l-10 -86 q-3 -33 -37 -39q-9 -2 -43 -9t-59 -11l250 -469q12 29 26 47l334 420q-11 3 -27.5 6t-41.5 7.5t-45 8.5q-30 6 -27 39l10 86h526l-10 -86q-3 -31 -30 -37t-144 -24l-450 -557l327 -612q35 -5 64.5 -10.5t48 -9t20.5 -3.5z" />
<glyph unicode="Y" horiz-adv-x="1333" d="M897 1466h494l-11 -86q-3 -31 -30 -37l-111 -24l-539 -735l-53 -434l17 -4q17 -3 42.5 -8t55.5 -11q27 -5 24 -39l-10 -88h-147h-197h-147l10 88q3 33 35 39l121 23l53 434l-357 735q-22 5 -42.5 9.5t-37.5 8t-22 4.5q-28 6 -25 39l13 86h493l-12 -86q-3 -33 -37 -39 q-31 -6 -59.5 -11t-41.5 -7.5t-16 -3.5l218 -467q27 -66 43 -131q45 92 73 131l332 467q-3 1 -17 3.5t-41.5 7.5t-56.5 11q-27 5 -24 39z" />
<glyph unicode="Z" horiz-adv-x="1228" d="M1239 1327l-973 -1165h682q31 152 33 160q12 34 47 34h98l-22 -194l-21 -162h-1097l10 78q3 26 27 57l974 1170h-657q-32 -159 -33 -160q-12 -35 -47 -35h-98l22 197l21 159h1073l-8 -73q-3 -31 -31 -66z" />
<glyph unicode="[" horiz-adv-x="593" d="M16 -295l230 1864h377l-9 -70q-4 -26 -18 -37q-15 -12 -39 -12h-172l-201 -1626h174q23 0 35 -12q11 -11 8 -37l-8 -70h-377z" />
<glyph unicode="\" horiz-adv-x="657" d="M45 1507h78q38 0 57 -16q23 -20 31 -49l428 -1534h-76q-30 0 -57 18q-26 17 -35 54z" />
<glyph unicode="]" horiz-adv-x="606" d="M-27 -225q3 21 19 37q12 12 39 12h172l200 1626h-174q-20 0 -34 14q-12 15 -9 35l9 70h376l-229 -1864h-377z" />
<glyph unicode="^" horiz-adv-x="931" d="M489 1466h119l285 -659h-131q-18 0 -29 8q-11 9 -18 25l-156 360q-1 3 -8.5 21t-9.5 26q-10 34 -11 43q-11 -29 -49 -90l-243 -360q-8 -14 -23 -25q-11 -8 -35 -8h-139z" />
<glyph unicode="_" horiz-adv-x="1130" d="M965 -168l-15 -123h-807l15 123h807z" />
<glyph unicode="`" horiz-adv-x="542" d="M279 1483q37 0 49 -10q14 -11 26 -35l121 -246h-104q-21 0 -33 6q-11 6 -25 23l-207 262h173z" />
<glyph unicode="a" horiz-adv-x="1058" d="M707 2q-62 0 -62 64l19 206q-114 -205 -269 -264q-50 -20 -108 -20q-94 0 -156.5 50.5t-88.5 130t-26 183.5q0 281 189 490q191 211 467 211q149 0 254 -47l-107 -854q3 -1 56 -11t61 -12q13 -3 22 -14t9 -25v-88h-166h-94zM690 549l45 352q-20 17 -45 17h-43 q-184 0 -317 -160q-133 -162 -133 -373q0 -246 157 -246q100 0 191 117q88 113 145 293z" />
<glyph unicode="b" horiz-adv-x="1114" d="M1065 526v-4v-2q-14 -122 -64 -227q-49 -103 -116 -168q-66 -63 -158 -102q-87 -37 -184 -37q-82 0 -195 14t-186 28l-72 15l4 16l17 150l141 1151q-114 18 -127 22q-30 7 -27 37l11 90h161h6h179l-76 -620q71 71 162 119q89 47 196 47q92 0 160 -35q69 -35 111 -100 q44 -69 59 -166q14 -92 -2 -228zM760 229q46 49 76 123q26 67 38 158q0 3 1.5 8t1.5 8q12 105 4 174q-9 70 -37 119q-27 47 -74 68q-49 22 -111 22q-88 0 -159 -41q-73 -42 -138 -116l-30 -242l-33 -260l-10 -88q126 -28 200 -33q6 0 19.5 -1t19.5 -1h13q61 3 114 27 q61 28 105 75z" />
<glyph unicode="c" horiz-adv-x="905" d="M815 145q-150 -159 -403 -159q-200 0 -308 141q-114 144 -84 393q30 240 173 383q152 152 380 152q122 0 299 -76l-34 -270h-82q-28 0 -31 28q-1 5 2 78q2 43 2 68q-47 15 -72 18q-52 8 -114 8q-54 0 -117 -26q-58 -24 -104 -76q-95 -109 -115 -287q-21 -185 47 -291 q68 -102 207 -102q127 0 239 86q22 16 41 16q23 0 31 -16z" />
<glyph unicode="d" horiz-adv-x="1114" d="M532 1057q174 0 269 -123l53 426q-94 14 -135 22q-30 6 -27 39l13 88h350l-168 -1359q27 -5 53.5 -10.5t41 -8.5t19.5 -4q28 -6 25 -39l-10 -88h-256q-39 0 -45 37v127q-169 -178 -371 -178q-182 0 -268 135q-90 140 -60 395q26 231 168 385q141 156 348 156zM424 133 q157 0 297 158l63 500q-73 122 -225 122q-154 0 -240 -102q-90 -107 -114 -295q-37 -292 108 -360q51 -23 111 -23z" />
<glyph unicode="e" horiz-adv-x="892" d="M829 193q-45 -47 -84.5 -80t-92.5 -64t-118 -47t-141 -16q-139 0 -227 65.5t-127 179.5q-27 77 -27 175q0 250 146 444q151 201 393 201q105 0 179.5 -41.5t105.5 -114.5q18 -43 18 -80q0 -83 -32 -135.5t-97 -91.5q-70 -45 -203 -80q-113 -30 -332 -53v-23v-22 q0 -281 240 -281q120 0 209 68q73 54 78 57q17 10 33 10q21 0 34 -16zM690 807q0 54 -42.5 83.5t-106.5 29.5q-190 0 -287 -209q-33 -68 -47 -136q134 15 254 46q83 21 145 53q43 25 63.5 54.5t20.5 78.5z" />
<glyph unicode="f" horiz-adv-x="815" d="M733 1489q71 0 127 -21l-14 -90q-3 -20 -18.5 -25t-49.5 -5h-33q-210 0 -237 -236l-10 -96h299l-17 -131h-295q-19 -161 -57.5 -481.5t-58.5 -481.5q-18 -137 -99 -216t-223 -79q-71 0 -123 21l21 98q6 21 35 21h38q82 0 120.5 38t47.5 119l117 957l-113 14 q-46 11 -43 47l9 74h163l13 102q21 168 125 269.5t276 101.5z" />
<glyph unicode="g" horiz-adv-x="997" d="M858 748q0 -52 -12 -93q-13 -45 -29 -75q-21 -40 -39 -66q-3 -4 -37 -61q-7 -12 -28 -64q-13 -32 -13 -70q0 -43 21 -77q8 -13 24.5 -38t22.5 -34q22 -34 45 -82q21 -44 21 -102q0 -76 -33 -138q-35 -64 -96 -114q-67 -54 -152 -80q-95 -29 -203 -29q-84 0 -162 19 q-76 19 -125 51q-53 35 -79 82q-29 50 -29 104q0 81 43 139q45 60 111 97q67 37 155 55t178 18q24 0 74 -4q44 -4 72 -8q-8 15 -15 41q-6 21 -6 45t11 66q6 21 32 76q-39 -26 -88 -41q-50 -15 -108 -15q-50 0 -111 21q-45 15 -90 57q-41 38 -61 94q-23 64 -23 133 q0 73 27 144q29 77 77 127q53 56 129 90q78 35 179 35q109 0 194 -54h283l-8 -61q-2 -13 -13 -31q-9 -15 -28 -18l-129 -23q8 -22 14 -55q4 -18 4 -61zM668 -29q0 33 -4 49q-9 33 -15 46q-57 9 -102 12q-66 4 -92 4q-89 0 -146 -14q-61 -15 -102 -39q-43 -26 -60 -58 q-18 -30 -18 -67q0 -73 61 -113q59 -39 177 -39q63 0 122 19q60 19 97 47q41 30 61 69q21 41 21 84zM463 465q55 0 98 24q46 26 72 64q30 45 43 88q16 53 16 98q0 93 -45 138t-127 45q-48 0 -96 -23q-45 -22 -72 -59q-29 -41 -43 -86q-14 -46 -14 -101q0 -90 45 -141 q44 -47 123 -47z" />
<glyph unicode="h" horiz-adv-x="1189" d="M1085 125q30 -6 27 -37l-10 -88h-330l80 659q30 248 -188 248q-151 0 -297 -143l-52 -406l-43 -358h-182l25 201l141 1157q-34 5 -64 10.5t-48.5 9.5t-20.5 4q-30 6 -27 39l10 86h351l-74 -610q167 156 352 156q170 0 246 -107q74 -102 53 -287l-63 -509q27 -5 53 -11 t41.5 -9.5t19.5 -4.5z" />
<glyph unicode="i" horiz-adv-x="509" d="M395 127q13 -3 21 -14t6 -25l-10 -88h-332l18 150l92 739q-96 18 -114 22q-30 7 -27 37l10 88h332l-110 -886q96 -19 114 -23zM467 1413q7 -20 4 -51q-2 -22 -16 -49q-10 -19 -35 -41t-45 -29q-27 -10 -51 -10q-25 0 -48 10q-22 9 -38 29q-17 21 -23 41q-7 24 -4 49 q3 24 16 51q13 26 33 43q21 18 45 27q27 10 51 10q27 0 50 -10q21 -9 36 -27q16 -19 25 -43z" />
<glyph unicode="j" horiz-adv-x="579" d="M582 1413q7 -20 4 -51q-2 -19 -17 -49q-10 -21 -34 -41q-24 -21 -46 -29q-27 -10 -51 -10q-26 0 -49 10q-20 9 -37 29t-22 41q-7 26 -4 49q3 24 16 51q13 26 33 43q21 18 45 27q32 12 51 12q21 0 49 -12q23 -10 37 -27q16 -19 25 -43zM176 -350q-64 -23 -129 -23 q-71 0 -123 21l21 98q6 21 35 21h38q83 0 119 36q40 40 49 121l117 963q-36 7 -113 24q-29 6 -26 37l10 88h148h182l-135 -1114q-24 -203 -193 -272z" />
<glyph unicode="k" horiz-adv-x="1075" d="M1061 1038h12l-10 -88q-3 -31 -31 -37q-37 -8 -129 -24l-274 -258q-40 -40 -66 -53q32 -22 53 -66l244 -362l51 -11q9 -2 28.5 -4.5t27 -5t18 -7t13.5 -13t1 -21.5l-10 -88h-194q-42 0 -64 35l-289 426q-12 22 -25.5 28.5t-45.5 6.5h-52q-10 -83 -30.5 -248t-30.5 -248 h-184q28 227 84.5 680.5t83.5 679.5q-25 5 -53.5 10.5t-42.5 8t-19 3.5q-28 6 -25 39l11 88h329l-108 -888h47q37 0 68 28l264 252q-7 1 -23 3.5t-24.5 5t-18.5 7t-14 13t-2 20.5l10 88h420z" />
<glyph unicode="l" horiz-adv-x="505" d="M389 125q30 -6 27 -37l-10 -88h-332l168 1358q-27 5 -53.5 10.5t-42 9t-19.5 4.5q-28 6 -25 39l11 86h329l-168 -1357q29 -5 55 -11t41 -9.5t19 -4.5z" />
<glyph unicode="m" horiz-adv-x="1726" d="M909 838q46 92 138 154.5t206 62.5q179 0 257.5 -102t54.5 -291l-64 -512q29 -5 55 -10.5t41 -8.5t19 -4q29 -6 26 -39l-10 -88h-332l82 662q14 119 -29.5 183t-148.5 64t-173.5 -70t-80.5 -177l-80 -662h-182l80 662q30 247 -166 247q-128 0 -248 -135l-94 -774h-182 l108 889q-26 5 -53.5 10.5t-41.5 8t-19 3.5q-28 6 -25 39l10 88h256q39 0 45 -39v-106q153 162 314 162q104 0 162.5 -58t74.5 -159z" />
<glyph unicode="n" horiz-adv-x="1183" d="M1073 125q30 -6 27 -37l-10 -88h-332l82 659q30 250 -189 250q-149 0 -297 -145l-94 -764h-182l108 889q-26 5 -53.5 10.5t-41.5 8t-19 3.5q-28 6 -25 39l10 88h256q39 0 45 -39v-112q174 168 365 168q166 0 243.5 -105.5t55.5 -287.5l-64 -512q29 -5 55 -11t41 -9.5 t19 -4.5z" />
<glyph unicode="o" horiz-adv-x="1056" d="M578 1053q116 0 200 -37q91 -40 144 -107q56 -71 77 -170q21 -101 7 -219q-15 -120 -62 -221q-46 -98 -119 -168q-73 -71 -168 -108q-93 -37 -211 -37q-116 0 -200 37q-87 38 -142 108q-59 75 -79 168q-23 108 -9 221q14 112 64 219q48 102 119 170q70 67 170 107 q93 37 209 37zM465 129q156 0 242 102q89 106 110 287q22 190 -39 289q-64 104 -217 104q-80 0 -139 -26q-54 -24 -105 -78q-42 -45 -71 -123q-30 -81 -41 -166q-11 -80 0 -166q9 -75 41 -121q34 -49 88 -75q55 -27 131 -27z" />
<glyph unicode="p" horiz-adv-x="1150" d="M399 877q171 180 371 180q182 0 268 -135q90 -143 60 -398q-27 -232 -166 -383q-140 -155 -334 -155q-193 0 -285 120l-39 -307q1 0 7 -1.5t20 -4.5t29 -6q47 -8 59 -12q30 -6 27 -37l-10 -90h-480l13 90q3 31 34 37l119 24l135 1090q-26 5 -53.5 10.5t-41.5 8t-19 3.5 q-30 6 -27 39l12 86h148h108q37 0 43 -37zM332 250q76 -123 223 -123q152 0 240 104q90 107 114 295q46 383 -217 383q-160 0 -299 -157z" />
<glyph unicode="q" horiz-adv-x="1062" d="M713 154q-163 -166 -361 -166q-184 0 -270 135q-87 136 -57 393v4q30 251 180 398q145 139 344 139q157 0 379 -45l71 -13l-147 -1200q90 -14 129 -22q28 -6 25 -37l-11 -88h-512l11 88q3 31 30 37q8 2 26.5 4.5t53.5 7.5t66 10zM430 133q159 0 299 158l72 590 q-130 34 -240 34h-12q-207 -9 -295 -225q-30 -74 -35 -119l-6 -55q-46 -383 217 -383z" />
<glyph unicode="r" horiz-adv-x="802" d="M309 1036q29 0 39 -10.5t10 -38.5l-6 -162q140 230 344 230q83 0 138 -35l-41 -137q-10 -27 -29 -27t-49 10q-33 11 -82 11q-177 0 -293 -218l-80 -659h-182l108 887q-27 5 -53 10.5t-41.5 9t-19.5 4.5q-28 6 -25 37l10 88h252z" />
<glyph unicode="s" horiz-adv-x="849" d="M535 1053q112 0 264 -54l-8 -71l-25 -195h-80q-30 0 -33 29q0 49 4 135q-89 21 -155 21h-2q-89 0 -148 -44t-65 -94q-6 -54 14 -80q32 -46 109 -71q21 -7 62.5 -21.5t59.5 -19.5q67 -24 95 -37q44 -20 80 -51q76 -67 61 -183q-18 -150 -131 -237q-116 -94 -285 -94 q-178 0 -327 55l32 270h72q26 0 29 -24q0 -49 -4 -131q84 -41 204 -41q103 0 166 51q60 48 66 104q6 59 -12 86q-23 34 -56 50q-48 23 -82 34q-143 48 -182 66q-52 24 -88 55q-75 69 -59 193q15 129 120 209q112 90 304 90z" />
<glyph unicode="t" horiz-adv-x="661" d="M326 -16q-121 0 -181 69q-58 67 -43 197l78 635h-125q-16 0 -26 10q-9 9 -6 31l8 71l172 23l82 319q3 15 16 25t31 10h92l-45 -358h297l-17 -131h-297l-75 -623q-9 -66 20 -98q28 -31 78 -31q21 0 49 8q20 6 39 17q15 9 29 16q16 8 20 8q14 0 23 -18l43 -86 q-58 -48 -123 -70q-71 -24 -139 -24z" />
<glyph unicode="u" horiz-adv-x="1177" d="M477 129q156 0 299 143l76 617q-5 1 -19 3.5t-42.5 8t-53.5 10.5q-29 6 -26 39l10 86h147h183l-109 -886q29 -5 55 -10.5t41 -8.5t19 -4q29 -6 26 -39l-10 -88h-258q-37 0 -43 37l-2 113q-169 -166 -364 -166q-168 0 -246 106q-76 101 -54 287l64 512q-25 5 -53.5 10.5 t-42.5 8t-19 3.5q-27 5 -24 39l10 86h330l-82 -659q-15 -117 33 -184q46 -64 155 -64z" />
<glyph unicode="v" horiz-adv-x="1146" d="M1108 1036h70l-11 -86q-3 -33 -34 -39q-3 -1 -15 -3t-37.5 -7t-50.5 -10l-473 -891h-164l-254 891q-3 1 -21 5.5t-34 6.5q-36 8 -43 8q-30 6 -27 39l11 86h464l-10 -86q-3 -33 -35 -39q-4 -1 -19 -4t-42 -8t-55 -10l151 -557q12 -47 21 -148q36 104 59 148l289 557 q-6 2 -20.5 4.5t-42.5 7.5t-52 10q-27 5 -24 39l10 86h389z" />
<glyph unicode="w" horiz-adv-x="1708" d="M1276 1036h463l-10 -86q-3 -32 -37 -39q-3 -1 -20.5 -4t-33.5 -6q-12 -2 -24 -4.5t-18 -3.5t-9 -2l-397 -891h-143q-27 0 -33 35l-144 702q-3 13 -8 51q-1 8 -2 24t-2 22q-12 -36 -16 -50q-4 -18 -19 -47l-319 -702q-15 -35 -45 -35h-137l-181 891q-8 0 -32 6l-68 14 q-28 6 -25 39l11 86h462l-10 -86q-3 -33 -37 -39q-5 -1 -19 -3.5t-41.5 -8t-53.5 -10.5l96 -557q10 -102 10 -139q17 45 58 139l301 672q14 36 55 36h80q38 0 47 -36l131 -672q1 -4 18 -139q10 39 50 139l237 557q-3 1 -18.5 3.5t-42.5 7.5t-58 11q-29 6 -26 39z" />
<glyph unicode="x" horiz-adv-x="1132" d="M909 145q53 -12 90 -18q34 -5 31 -39l-10 -88h-408l11 88q3 33 36 39q2 1 9.5 1.5t20 2t24.5 4.5l-162 309q-12 -31 -29 -53l-203 -252q10 -3 23 -6q30 -6 37 -6q30 -6 27 -39l-13 -88h-405l10 88q3 33 35 39q4 1 11 2t18.5 2.5t21.5 3.5q5 1 51 10l309 387l-202 357 q-23 5 -48 10.5t-37.5 8l-17.5 3.5q-29 6 -26 39l10 86h407l-12 -86q-3 -33 -35 -39q-1 0 -6 -1t-17 -4t-22 -5l150 -280q15 34 33 57l178 223q-10 3 -31 6l-10 2t-7 1.5t-3 0.5q-30 6 -27 39l10 86h408l-13 -86q-3 -33 -36 -39q-12 -2 -48.5 -9.5t-60.5 -12.5l-289 -348z " />
<glyph unicode="y" horiz-adv-x="1144" d="M1102 1036h74l-11 -86q-3 -33 -35 -39q-3 -1 -9.5 -2t-19.5 -3.5t-26 -4.5t-26 -5.5t-19.5 -5t-9.5 -1.5l-662 -1196q-23 -45 -71 -45h-135l239 413l-262 832l-90 18q-30 6 -27 39l11 86h464l-10 -86q-3 -33 -35 -39q-70 -14 -114 -22l164 -543q8 -28 16 -92q21 55 41 94 l291 541q-66 13 -109 22q-27 6 -24 39l10 86h385z" />
<glyph unicode="z" horiz-adv-x="937" d="M260 1036h668l-10 -78q-3 -32 -35 -69l-652 -746h461q16 84 29 136q9 24 35 24h71l-36 -303h-793l10 76q3 31 33 65l657 752h-444q-20 -95 -27 -123q-10 -27 -32 -27h-74l37 293h102z" />
<glyph unicode="{" horiz-adv-x="606" d="M158 434q9 61 -23 107q-28 41 -98 41l12 110q70 0 111 41q37 37 47 107q7 58 4 102q-1 17 -2 49t-2 49q-2 33 -6 103q-3 46 4 104q9 68 37 129q27 59 77 103q49 43 113 67q62 23 150 23h55l-10 -80q-3 -21 -19 -31q-13 -8 -26 -8h-21q-80 0 -131 -51t-63 -139 q-7 -68 -7 -111q0 -23 5 -105q4 -66 4 -100q0 -41 -7 -102q-6 -39 -20 -72q-15 -35 -39 -59q-23 -26 -55 -45q-35 -21 -66 -29q33 -9 60 -29q26 -20 43 -45q19 -28 24 -59q8 -46 4 -70q-4 -37 -20 -102q-6 -27 -29 -101q-17 -57 -28 -104q-17 -76 -21 -111q-12 -88 27 -139 q41 -53 118 -53h21q16 0 27 -8q13 -10 10 -29l-10 -82h-56q-84 0 -143 23q-58 22 -96 67q-41 47 -52 103q-14 68 -6 131q6 53 21 102q5 16 15 51t15 51q5 17 15.5 51t15.5 50q15 51 21 100z" />
<glyph unicode="|" horiz-adv-x="421" d="M139 1569h142v-1921h-142v1921z" />
<glyph unicode="}" horiz-adv-x="620" d="M393 434q-7 -58 -4 -100q1 -16 3 -50l3 -51q1 -16 3 -51t3 -51q2 -32 -6 -102q-9 -70 -37 -131q-27 -58 -75 -103q-44 -41 -113 -67q-62 -23 -150 -23h-55l10 82q3 19 19 29q17 10 26 10h21q80 0 131 51q52 52 64 139q6 58 6 111q0 38 -4 104q-5 83 -5 101q0 41 7 102 q7 45 18 70t41 59q25 28 53 45q35 21 66 29q-30 8 -58 29q-21 16 -43 45q-21 32 -26 59q-7 39 -2 72q4 33 20 100q8 32 29 102q22 73 29 103q16 69 20 110q12 89 -29 142q-39 51 -116 51h-21q-15 0 -26 8q-14 10 -11 31l11 80h53q86 0 145 -23q58 -22 96 -67q36 -42 52 -103 q15 -58 6 -129q-4 -39 -23 -104q-10 -35 -30 -101q-5 -17 -14.5 -50.5t-14.5 -49.5q-15 -50 -21 -102q-9 -64 23 -107q30 -41 98 -41l-12 -110q-73 0 -111 -41q-40 -43 -49 -107z" />
<glyph unicode="~" horiz-adv-x="1169" d="M770 627q64 0 109 45q44 44 53 114h147q-8 -62 -35 -127q-23 -56 -65 -98q-40 -40 -96 -61q-66 -25 -121 -25q-47 0 -103 17q-14 4 -96 36q-18 7 -49 20.5t-39 16.5q-41 17 -80 17q-67 0 -108 -41q-45 -45 -54 -117h-147q8 59 35 125q23 56 65 98q47 47 97 66 q51 22 120 22q59 0 103 -16q7 -3 96 -37q18 -7 49 -20.5t39 -16.5q44 -18 80 -18z" />
<glyph unicode="&#xa1;" horiz-adv-x="473" d="M41 -352l68 555q6 47 12 90q4 32 16 88l9 40.5t10 49.5q7 38 22 102h125q0 -18 -1 -52.5t-1 -49.5q0 -32 -4 -90q-1 -14 -3 -44t-3 -44q-4 -60 -8 -90l-70 -555h-172zM154 926q3 30 14 51q8 16 33 41q16 16 43 26q24 9 53 9q26 0 47 -9q27 -12 39 -26q17 -21 23 -41 q7 -27 4 -51q-2 -19 -17 -49q-8 -16 -33 -41q-19 -19 -45 -29q-27 -10 -51 -10q-26 0 -49 10q-20 9 -37 29t-22 41t-2 49z" />
<glyph unicode="&#xa2;" horiz-adv-x="921" d="M791 211l43 -66q-144 -153 -392 -159l-32 -176q-3 -17 -21 -35q-15 -15 -37 -15h-67l45 236q-131 27 -207 129q-114 144 -84 393q30 239 174 383q127 130 319 148l35 184q6 22 21 37q16 16 37 16h67l-45 -237q108 -15 244 -74l-33 -266h-82q-28 0 -31 28q-1 5 5 144 q-57 18 -72 20q-11 2 -22 3.5t-20.5 2.5t-14.5 2l-3 -2l-147 -778v-2h41q37 0 80 14q38 12 76 35q12 7 31 22t20 15q22 16 43 16q20 0 29 -18zM227 518q-21 -188 45 -291q33 -48 86 -75q14 56 146 749q-164 -37 -238 -219q-27 -72 -39 -164z" />
<glyph unicode="&#xa3;" horiz-adv-x="1187" d="M68 688q3 28 20 45q19 19 49 19h137l33 266q13 99 49 182q38 86 103 148q63 60 153 98q87 37 201 37q71 0 139 -21q61 -22 103 -55q44 -35 73 -80q34 -52 50 -100l-80 -47q-13 -6 -23 -9q-8 -2 -20 -2q-13 0 -27 7t-22 20q-6 8 -17.5 24.5t-17.5 24.5q-15 20 -43 41 q-24 18 -56 29q-34 12 -77 12q-62 0 -117 -22q-52 -21 -90 -62q-38 -42 -62 -96q-20 -46 -30 -125l-33 -270h450l-8 -74q-3 -19 -20 -33q-19 -16 -39 -16h-400l-30 -248q-9 -80 -45 -133q-44 -65 -92 -103q31 6 59 9q40 4 59 4h693l-9 -78q-3 -15 -10 -29q-6 -12 -18 -24 q-14 -14 -27 -19q-20 -8 -35 -8h-987l16 119q37 9 70 26t62 43q30 27 47 62q18 38 24 82l37 297h-201z" />
<glyph unicode="&#xa4;" horiz-adv-x="1083" d="M176 688q6 56 31 111q23 50 57 96l-137 158l104 90l136 -156q54 33 104 49q59 19 115 19q61 0 108 -17q56 -20 92 -47l175 156l79 -94l-172 -156q25 -43 37 -96q9 -41 2 -113q-6 -63 -28 -110q-23 -50 -60 -97l137 -153l-104 -95l-137 156q-53 -32 -105 -49 q-49 -16 -114 -16q-63 0 -107 16q-61 22 -92 45l-176 -156l-80 95l174 155q-23 45 -35 96q-11 47 -4 113zM311 688q-6 -45 6 -88q11 -41 41 -74q28 -31 68 -49t88 -18q46 0 92 18q43 16 80 49q35 30 59 74q23 42 29 88q5 42 -8 90q-11 41 -41 74q-28 31 -68 49 q-43 19 -88 19q-46 0 -92 -19q-35 -14 -78 -49q-33 -26 -59 -74q-23 -42 -29 -90z" />
<glyph unicode="&#xa5;" horiz-adv-x="1163" d="M88 639h313l-315 827h152q26 0 41 -12q12 -10 22 -33l211 -579q1 -5 7.5 -29.5t8.5 -36.5q10 -51 11 -59q4 10 12 29.5t12 29.5q11 28 31 66l352 579q6 12 31 33q14 12 43 12h154l-521 -827h316l-15 -102h-348l-12 -109h348l-12 -104h-348l-41 -324h-183l39 324h-348 l12 104h349l14 109h-348z" />
<glyph unicode="&#xa6;" horiz-adv-x="423" d="M248 1569h141l-100 -811h-142zM113 463h141l-100 -815h-142z" />
<glyph unicode="&#xa7;" horiz-adv-x="958" d="M870 1294q-16 -22 -41 -22q-14 0 -32 12q-23 15 -45 25q-44 20 -64 26q-34 11 -90 11q-46 0 -90 -13q-38 -11 -72 -35q-27 -19 -47 -49q-19 -28 -22 -61q-5 -35 18 -68q21 -30 57 -53t88 -45q19 -8 54.5 -25t46.5 -22q40 -18 100 -51q44 -24 84 -64q37 -37 55 -84 q19 -49 13 -108q-9 -84 -60 -150q-49 -64 -139 -104q50 -40 72 -86q25 -52 16 -123q-10 -75 -41 -131q-38 -68 -88 -107q-59 -47 -131 -69q-86 -27 -172 -27q-109 0 -190 37q-92 42 -140 90l51 70q10 14 23 20q12 6 29 6q23 0 37 -12q10 -8 47 -33q29 -19 69 -33 q41 -14 107 -14q49 0 92 12q42 12 74 37q27 22 47 55q18 30 24 70q6 44 -16 80q-23 38 -59 59q-68 40 -91 50q-58 24 -104 43q-17 7 -104 49q-49 24 -86 61q-43 43 -58 84q-20 55 -12 113q9 79 61 143q50 61 152 100q-51 44 -72 93q-25 57 -16 131q5 52 39 114q30 55 84 97 q54 41 123 65q73 25 159 25q97 0 181 -33q73 -29 129 -88zM246 743q-6 -51 24 -88q25 -31 84 -65t117 -58q43 -18 123 -59q56 26 88 66q29 36 35 86q3 44 -6 65q-13 29 -37 53q-27 27 -58 43q-70 37 -71 37q-66 31 -78 37q-61 27 -80 37q-75 -32 -104 -68q-31 -39 -37 -86z " />
<glyph unicode="&#xa8;" horiz-adv-x="796" d="M352 1319q-3 -24 -14 -43q-12 -21 -29 -35q-16 -13 -41 -24q-26 -11 -45 -11q-21 0 -43 11q-18 9 -33 24q-14 14 -20 35q-7 23 -4 43q3 26 14 45q14 25 31 39q18 15 39 24q26 11 43 11q23 0 45 -11q18 -9 33 -24t22 -39q5 -19 2 -45zM721 1319q-3 -24 -14 -43 q-10 -17 -31 -35q-18 -15 -39 -24q-26 -11 -45 -11q-23 0 -45 11q-23 11 -33 24q-16 19 -20 35q-7 25 -5 43q2 20 17 45q16 28 29 39q19 16 38 24q26 11 45 11q24 0 46 -11q16 -8 32 -24q14 -14 21 -39q7 -23 4 -45z" />
<glyph unicode="&#xa9;" horiz-adv-x="1617" d="M1014 475q6 4 14 8t12 4q11 0 15 -4q1 -1 4.5 -3.5t5.5 -4.5l53 -65q-72 -72 -155 -107q-87 -37 -209 -37q-101 0 -179 35q-74 33 -129 98q-51 60 -73 148q-20 83 -8 188q12 104 59 191q48 89 115 147q71 61 159 96q90 35 191 35q109 0 184 -35q68 -32 125 -92l-55 -65 q-9 -9 -15 -13q-9 -6 -22 -6q-15 0 -29 11q-25 20 -37 26q-18 11 -61 25q-38 12 -98 12q-74 0 -133 -23q-64 -25 -107 -65q-40 -38 -74 -107q-33 -67 -41 -137q-9 -79 6 -141q15 -60 48 -102q37 -46 86 -66q50 -20 114 -20q61 0 84 4q32 6 60 16q9 4 47 25zM59 733 q11 95 52 199q38 95 98 180q62 88 135 152q72 63 166 116q86 48 188 76q99 27 201 27q105 0 197 -27q97 -29 170 -76q76 -49 137 -116q58 -63 98 -152q38 -83 53 -180q14 -91 2 -199q-12 -99 -51 -198t-96 -179t-137 -151q-75 -66 -166 -117q-86 -48 -188 -76 q-95 -26 -201 -26q-109 0 -197 26q-93 27 -168 76q-74 48 -137 117q-52 57 -98 151q-41 83 -56 179q-14 90 -2 198zM162 733q-11 -85 2 -176q13 -87 45 -156q39 -83 84 -133q57 -63 117 -102q63 -41 147 -66q73 -22 170 -22q138 0 260 51q126 53 223 139q99 89 164 209 q68 126 82 256q11 84 -2 176q-12 89 -45 158q-36 77 -84 133q-54 63 -119 105q-60 39 -147 65q-76 23 -170 23q-138 0 -260 -52q-121 -52 -221 -141q-99 -89 -164 -209q-68 -126 -82 -258z" />
<glyph unicode="&#xaa;" horiz-adv-x="706" d="M584 860h-62q-17 0 -26 6t-15 25l-6 49q-25 -20 -53 -37q-30 -19 -53 -29q-28 -12 -56 -18q-20 -4 -65 -4q-43 0 -70 8q-31 9 -55 33q-22 22 -31 51q-11 36 -6 72q3 31 29 69t71 62q50 27 125 45q72 17 187 20l4 37q9 64 -17 97q-24 30 -86 30q-41 0 -65 -8 q-29 -10 -47 -20l-35 -21q-13 -8 -33 -8q-12 0 -24 8q-10 7 -13 16l-16 46q57 49 123 73q62 23 139 23q53 0 96 -19q47 -21 68 -47q30 -37 37 -73q8 -41 2 -97zM301 946q49 0 92 19t82 55l12 106q-85 -4 -122 -10q-41 -7 -84 -22q-35 -15 -48 -31q-15 -18 -18 -39 q-6 -41 21 -61q23 -17 65 -17z" />
<glyph unicode="&#xab;" horiz-adv-x="806" d="M53 530l4 25l303 397l58 -28q11 -6 18 -19t4 -24q-3 -20 -14 -33l-197 -268q-21 -28 -32 -37q18 -22 24 -37l129 -268q0 -1 3 -7t3 -10v-18q-4 -32 -32 -43l-64 -29zM356 530l4 25l304 397l57 -28q11 -6 18 -19t4 -24q-3 -20 -14 -33l-197 -268q-21 -28 -32 -37 q18 -22 24 -37l129 -268q0 -1 3 -7t3 -10v-18q-3 -30 -32 -41l-64 -29z" />
<glyph unicode="&#xac;" horiz-adv-x="1097" d="M111 758h880l-53 -434h-156l37 294h-725z" />
<glyph unicode="&#xad;" horiz-adv-x="737" d="M127 692h506l-19 -155h-508z" />
<glyph unicode="&#xae;" horiz-adv-x="1617" d="M59 733q11 95 52 199q38 95 98 180q62 88 135 152q72 63 166 116q86 48 188 76q99 27 201 27q105 0 197 -27q97 -29 170 -76q76 -49 137 -116q58 -63 98 -152q38 -83 53 -180q14 -91 2 -199q-12 -99 -51 -198t-96 -179t-137 -151q-75 -66 -166 -117q-86 -48 -188 -76 q-95 -26 -201 -26q-109 0 -197 26q-93 27 -168 76q-74 48 -137 117q-52 57 -98 151q-41 83 -56 179q-14 90 -2 198zM162 733q-11 -85 2 -176q13 -87 45 -156q39 -83 84 -133q57 -63 117 -102q63 -41 147 -66q73 -22 170 -22q138 0 260 51q126 53 223 139q99 89 164 209 q68 126 82 256q11 84 -2 176q-12 89 -45 158q-36 77 -84 133q-54 63 -119 105q-60 39 -147 65q-76 23 -170 23q-138 0 -260 -52q-121 -52 -221 -141q-99 -89 -164 -209q-68 -126 -82 -258zM649 641l-45 -362h-160l113 913h295q178 0 254 -64t61 -190q-13 -99 -75 -164 q-65 -69 -174 -92q8 -5 26 -27q14 -17 21 -34l190 -342h-151q-36 0 -48 24l-168 311q-8 16 -18 21q-12 6 -39 6h-82zM664 758h118q63 0 97 10q40 12 67 33t41 49q13 25 19 68q6 39 0 67q-6 26 -27 47q-20 20 -55 29q-31 8 -88 8h-136z" />
<glyph unicode="&#xaf;" horiz-adv-x="819" d="M145 1380h588l-14 -118h-588z" />
<glyph unicode="&#xb0;" horiz-adv-x="823" d="M96 1155q10 73 41 129q35 62 84 105q52 45 115 69q73 27 135 27q61 0 127 -27q55 -22 98 -69q40 -43 58 -105q19 -64 10 -129q-9 -71 -41 -127q-33 -60 -84 -104q-58 -51 -115 -72q-67 -25 -135 -25t-129 25q-47 19 -96 72q-40 43 -58 104q-19 63 -10 127zM225 1153 q-6 -43 6 -80q13 -40 35 -65q26 -29 60 -43q43 -17 77 -17q36 0 82 17q38 14 70 43q35 31 51 65q22 47 27 80q5 36 -6 82q-8 35 -35 65q-29 32 -60 46q-32 14 -77 14q-44 0 -82 -14q-32 -12 -70 -46q-29 -26 -51 -65q-21 -37 -27 -82z" />
<glyph unicode="&#xb1;" horiz-adv-x="1112" d="M715 1231l-47 -385h417l-18 -139h-416l-47 -377h-149l47 377h-416l18 139h414l47 385h150zM27 221h981l-17 -139h-981z" />
<glyph unicode="&#xb2;" horiz-adv-x="679" d="M256 1028q62 16 94 16h160q8 49 12 56q6 20 27 20h55l-22 -198h-525l6 45q3 30 29 53l254 225q138 123 150 213q6 55 -21 82q-29 29 -74 29q-86 0 -131 -94q-20 -29 -49 -29l-9 -1q-9 -1 -9 1l-72 12q26 106 107 164q73 53 182 53q107 0 164 -57q58 -58 45 -156 q-12 -99 -121 -205q-12 -12 -66 -59z" />
<glyph unicode="&#xb3;" horiz-adv-x="647" d="M399 1675q55 0 93 -14q36 -13 67 -41q28 -28 39 -59q14 -39 8 -78q-15 -130 -143 -176q62 -17 94 -60t23 -104q-6 -55 -33 -99q-25 -41 -66 -71q-42 -31 -88 -45q-49 -15 -96 -15q-56 0 -100 13q-39 12 -70 39q-27 24 -45 61q-22 46 -29 84l60 25q15 6 30 6q30 0 39 -23 q1 -5 6.5 -16.5t6.5 -14.5q4 -10 20 -30q10 -12 35 -23q23 -10 53 -10t57 10q19 7 43 27q22 18 29 35q12 28 14 43q3 34 -2 53q-6 22 -24 37q-17 14 -51 20q-46 8 -80 8l10 89q89 0 129 30q41 30 47 86q6 52 -20 78q-25 25 -76 25t-80 -23q-34 -27 -51 -65q-12 -21 -19 -25 q-9 -6 -24 -6h-10h-9l-67 12q16 58 41 96q29 44 63 68q43 31 82 41q47 12 94 12z" />
<glyph unicode="&#xb4;" horiz-adv-x="587" d="M541 1483l-271 -262q-18 -18 -30 -23q-15 -6 -37 -6h-109l182 246q21 28 35 35q15 10 51 10h179z" />
<glyph unicode="&#xb5;" horiz-adv-x="1150" d="M389 1036l-84 -671q-13 -116 35 -175q49 -61 156 -61q73 0 153 39q78 38 144 104l94 764h182l-127 -1036h-108q-40 0 -46 37v113q-78 -75 -153 -109q-78 -35 -166 -35q-69 0 -131 27q-50 22 -88 73q3 -44 0 -88q-4 -56 -8 -84l-35 -286h-90q-41 0 -58 20t-14 58l162 1310 h182z" />
<glyph unicode="&#xb6;" horiz-adv-x="1384" d="M1393 1466l-21 -155h-223l-186 -1518h-162l186 1518h-282l-187 -1518h-162l109 883q-104 0 -186 31q-85 32 -136 86q-55 58 -77 125q-22 69 -13 155q12 92 51 162q37 67 109 123q70 54 154 80q92 28 196 28h830z" />
<glyph unicode="&#xb7;" horiz-adv-x="516" d="M106 606q3 34 19 62q16 29 39 49q22 19 53 33q27 12 59 12q33 0 60 -12t45 -33q17 -20 27 -49q9 -28 6 -62q-2 -23 -21 -57q-16 -29 -39 -49q-25 -22 -53 -33q-30 -12 -61 -12t-58 12t-45 33q-16 18 -26 49q-8 25 -5 57z" />
<glyph unicode="&#xb8;" horiz-adv-x="565" d="M119 -254q8 0 14 -2q14 -5 19 -8q6 -4 26 -8t37 -4q47 0 68 16q23 17 26 43q3 20 -6 33q-10 14 -31 24q-17 9 -49 15q-11 2 -34.5 5.5t-32.5 4.5l61 145h115l-35 -82q94 -22 127 -55q37 -37 31 -90q-3 -29 -25 -59q-21 -28 -51 -46q-32 -19 -74 -28q-48 -10 -90 -10 q-38 0 -80 10q-40 10 -65 22l22 58q8 16 27 16z" />
<glyph unicode="&#xb9;" horiz-adv-x="555" d="M98 1008h152l55 450l8 45l-120 -90q-11 -8 -27 -8q-26 0 -31 12l-33 58l250 196h111l-80 -663h133l-12 -86h-416z" />
<glyph unicode="&#xba;" horiz-adv-x="794" d="M457 1483q71 0 127 -21q52 -20 92 -63q35 -37 51 -101q15 -58 6 -131q-9 -75 -39 -133q-28 -56 -76 -100q-47 -44 -106 -64q-64 -22 -133 -22q-71 0 -129 22q-55 21 -92 64q-38 44 -52 100q-15 59 -6 133q9 72 39 131q32 63 76 101q49 42 109 63q62 21 133 21zM393 956 q85 0 133 54q52 59 64 157q12 104 -25 156q-38 53 -121 53q-89 0 -139 -53q-49 -52 -61 -156q-12 -106 22 -157q36 -54 127 -54z" />
<glyph unicode="&#xbb;" horiz-adv-x="802" d="M131 131l-55 31q-26 12 -23 41q3 17 15 35l194 268q13 21 33 37q-12 12 -23 37l-131 268q-9 17 -6 33q3 30 35 43l63 28l205 -399l-2 -23zM741 555l-2 -25l-305 -397l-55 29q-26 12 -23 41q3 17 15 35l194 268q13 21 33 37q-12 12 -23 37l-131 268q-9 18 -6 35 q3 28 35 41l64 28z" />
<glyph unicode="&#xbc;" horiz-adv-x="1339" d="M1174 274h110l-8 -67q0 -14 -8 -19q-12 -8 -23 -8h-84l-22 -180h-111l23 180h-314q-20 0 -28 8q-11 11 -11 21l-4 57l410 479h127zM72 807h149l55 450l11 46l-121 -91q-13 -10 -29 -10q-25 0 -31 15l-32 57l252 194h110l-82 -661h133l-10 -86h-416zM1092 520q1 6 6 41 q2 16 10 47l-289 -334h242zM264 53q-23 -29 -47 -41t-53 -12h-78l1010 1405q19 28 47 45q26 16 59 16h78z" />
<glyph unicode="&#xbd;" horiz-adv-x="1347" d="M897 106q66 17 96 17h158q8 47 12 55q6 21 27 21h57l-24 -199h-523l5 45q3 31 28 53l254 226q138 123 150 213q6 54 -21 81q-29 29 -74 29q-86 0 -131 -94q-20 -29 -49 -29l-9 -1q-9 -1 -9 1l-70 13q27 106 105 163q74 54 184 54q106 0 164 -58q57 -57 45 -155 q-12 -99 -121 -205q-20 -20 -66 -60zM74 807h151l56 450l10 46l-121 -91q-13 -10 -33 -10t-26 15l-33 57l252 194h110l-82 -661h134l-11 -86h-418zM223 53q-39 -53 -100 -53h-78l1010 1405q46 61 104 61h80z" />
<glyph unicode="&#xbe;" horiz-adv-x="1386" d="M1219 274h110l-8 -67q0 -14 -8 -19q-12 -8 -23 -8h-84l-22 -180h-111l23 180h-314q-20 0 -28 8q-11 11 -11 21l-2 57l408 479h127zM385 1475q51 0 92 -15q37 -14 68 -41q27 -27 39 -61q12 -35 6 -76q-15 -129 -144 -176q67 -19 97 -59q31 -42 22 -105q-6 -54 -33 -98 q-28 -45 -67 -74t-86 -43q-46 -14 -98 -14q-61 0 -101 12q-41 12 -69 37q-26 23 -45 63q-19 39 -27 84l59 25q15 6 31 6q29 0 37 -22q1 -3 12 -31q4 -9 21 -31q13 -16 34 -25q19 -8 54 -8q28 0 57 11q26 10 43 24q24 20 31 37q9 21 12 43q3 33 -2 51q-6 21 -25 37 q-22 18 -49 23q-35 6 -82 6l13 90q87 0 129 31q39 29 45 84q6 52 -19 77q-27 27 -75 27q-51 0 -82 -25q-34 -27 -50 -63q-12 -19 -20 -25q-12 -8 -25 -8h-8q-1 0 -4.5 1t-5.5 1l-68 12q14 51 43 95q27 40 64 67q43 31 82 41q58 15 94 15zM1137 520q1 7 3 23t3 20q2 12 10 45 l-289 -334h242zM313 55q-26 -33 -47 -43q-24 -12 -53 -12h-78l1010 1405q22 31 47 47q26 16 59 16h78z" />
<glyph unicode="&#xbf;" horiz-adv-x="780" d="M735 -217q-55 -44 -76 -57q-26 -16 -90 -45q-47 -21 -102 -33q-60 -13 -117 -13q-73 0 -147 23q-61 19 -111 66q-45 42 -65 100q-22 64 -13 139t39 131q28 52 70 94q38 38 86 66q17 10 44.5 28t39.5 25q30 18 69 49q28 22 37 58l39 159h125l-10 -172v-12q-6 -48 -33 -78 q-36 -40 -65 -57q-5 -3 -35 -21.5t-47 -27.5q-49 -27 -84 -53q-33 -24 -66 -74q-32 -48 -37 -101q-5 -36 9 -79q13 -39 38 -62q29 -26 66 -37q47 -14 86 -14q66 0 109 14q31 10 79 35q19 10 54 35q20 14 35 14q13 0 22 -6q6 -4 12 -16zM420 926q3 27 14 49q8 16 33 41 q19 19 43 28t51 9q28 0 49 -9q24 -10 39 -28t21 -41q7 -26 4 -49t-17 -52q-10 -20 -30 -40q-16 -16 -45 -27q-27 -10 -52 -10q-26 0 -49 10t-37 27q-17 21 -22 40q-5 22 -2 52z" />
<glyph unicode="&#xc0;" d="M1440 115q25 -6 22 -33l-8 -82h-422l10 82q3 27 31 33l88 24l-78 295h-632l-152 -295l80 -24q27 -6 24 -33l-10 -82h-422l11 82q3 27 30 33l86 24l695 1327h200l369 -1327zM522 578h522l-147 565q-15 57 -27 137q-44 -105 -61 -139zM772 1825q34 0 49 -6q12 -5 33 -29 l190 -207h-143q-17 0 -33 4q-11 3 -26 15l-277 223h207z" />
<glyph unicode="&#xc1;" d="M1440 115q25 -6 22 -33l-8 -82h-422l10 82q3 27 31 33l88 24l-78 295h-632l-152 -295l80 -24q27 -6 24 -33l-10 -82h-422l11 82q3 27 30 33l86 24l695 1327h200l369 -1327zM522 578h522l-147 565q-15 57 -27 137q-44 -105 -61 -139zM1284 1825l-328 -221q-22 -14 -32 -17 q-16 -4 -35 -4h-141l241 207q2 2 10 8t11 8q2 1 8.5 6.5t9.5 6.5q12 4 23 4q3 0 12 1t16 1h205z" />
<glyph unicode="&#xc2;" d="M1440 115q25 -6 22 -33l-8 -82h-422l10 82q3 27 31 33l88 24l-78 295h-632l-152 -295l80 -24q27 -6 24 -33l-10 -82h-422l11 82q3 27 30 33l86 24l695 1327h200l369 -1327zM522 578h522l-147 565q-15 57 -27 137q-44 -105 -61 -139zM1239 1583h-137q-7 0 -27 4 q-10 2 -22 10l-121 97q-3 1 -10 8q-3 -2 -8.5 -4.5t-6.5 -3.5l-145 -97q-11 -7 -25 -10q-20 -4 -26 -4h-140l271 215h180z" />
<glyph unicode="&#xc3;" d="M1440 115q25 -6 22 -33l-8 -82h-422l10 82q3 27 31 33l88 24l-78 295h-632l-152 -295l80 -24q27 -6 24 -33l-10 -82h-422l11 82q3 27 30 33l86 24l695 1327h200l369 -1327zM522 578h522l-147 565q-15 57 -27 137q-44 -105 -61 -139zM1044 1704q38 0 58 20t26 60h101 q-6 -45 -21 -82q-13 -32 -41 -64q-26 -30 -57 -43q-32 -14 -76 -14q-35 0 -65 12q-15 6 -60 31t-53 29q-28 14 -51 14q-33 0 -55 -22q-21 -21 -27 -60h-102q7 49 20 82q11 28 43 64q25 28 59 43q32 14 74 14q31 0 66 -14q24 -10 59 -29q45 -25 53 -29q24 -12 49 -12z" />
<glyph unicode="&#xc4;" d="M1440 115q25 -6 22 -33l-8 -82h-422l10 82q3 27 31 33l88 24l-78 295h-632l-152 -295l80 -24q27 -6 24 -33l-10 -82h-422l11 82q3 27 30 33l86 24l695 1327h200l369 -1327zM522 578h522l-147 565q-15 57 -27 137q-44 -105 -61 -139zM817 1706q-4 -28 -14 -43 q-16 -24 -29 -35q-16 -13 -41 -24q-21 -9 -45 -9q-23 0 -41 9q-20 10 -31 24q-14 18 -20 35q-7 21 -4 43q3 26 14 45q12 21 29 35q18 15 39 24q26 11 43 11q21 0 43 -11q23 -12 33 -24q16 -19 20 -35q7 -23 4 -45zM1253 1706q-4 -28 -14 -43q-16 -24 -29 -35 q-18 -15 -39 -24t-45 -9q-25 0 -43 9q-21 11 -32 24q-16 20 -21 35q-6 17 -2 43q3 26 14 45q12 21 29 35q18 15 39 24q26 11 45 11t41 -11q23 -12 33 -24q16 -19 20 -35q7 -23 4 -45z" />
<glyph unicode="&#xc5;" d="M1440 115q25 -6 22 -33l-8 -82h-422l10 82q3 27 31 33l88 24l-78 295h-632l-152 -295l80 -24q27 -6 24 -33l-10 -82h-422l11 82q3 27 30 33l86 24l695 1327h200l369 -1327zM522 578h522l-147 565q-15 57 -27 137q-44 -105 -61 -139zM725 1700q6 41 25 72q20 34 49 59 q28 25 65 37q38 12 76 12q40 0 74 -12q31 -11 57 -37q22 -22 35 -59q12 -34 6 -74q-6 -42 -22 -72q-12 -23 -52 -55q-34 -27 -65 -37q-44 -14 -78 -14q-32 0 -72 14q-31 11 -57 37q-24 24 -35 55q-12 34 -6 74zM815 1698q-6 -44 19 -72q25 -31 73 -31q47 0 78 31t37 72 q6 49 -18 76q-25 28 -72 28q-49 0 -80 -28t-37 -76z" />
<glyph unicode="&#xc6;" horiz-adv-x="1970" d="M-18 82q3 27 30 33l86 24l776 1192q-16 4 -26 6q-4 1 -8.5 2t-7 1.5t-3.5 0.5q-27 5 -24 39l10 86h1192l-43 -352h-98q-36 0 -39 35q0 11 6 158h-612l2 -488h542l-20 -155h-522l2 -502h469q28 137 30 145q12 35 48 35h98l-43 -342h-938l12 88q3 33 35 39q4 1 49 8 q27 4 51 10v256h-569l-168 -262l80 -24q27 -6 24 -33l-10 -82h-231h-2h-78h-111zM559 545h477l-2 770q-33 -77 -73 -144z" />
<glyph unicode="&#xc7;" horiz-adv-x="1269" d="M877 1483q173 0 440 -105l-14 -114l-27 -228h-100q-34 0 -37 35q-1 5 2 92q1 22 2 45l1.5 34.5t0.5 14.5q-444 144 -705 -102q-165 -155 -200 -422q-35 -268 94 -426q118 -151 344 -151q129 0 196 24q110 39 195 107q19 16 35 16q17 0 29 -12l67 -86q-209 -212 -518 -221 l-23 -56q94 -22 127 -55q39 -39 33 -80q-6 -42 -26 -69t-52 -46q-65 -38 -163 -38q-74 0 -146 32l25 58q8 16 24 16q9 0 15 -2l8 -4t10 -4q27 -12 68 -12q42 0 63 16q24 18 27 41t-6 35q-12 16 -31 24q-24 12 -117 25l51 123q-264 24 -407 205q-165 207 -125 540 q41 334 270 541q232 209 570 209z" />
<glyph unicode="&#xc8;" horiz-adv-x="1171" d="M160 1466h1052l-43 -352h-98q-36 0 -39 35q0 60 4 158h-549l-59 -488h541l-19 -155h-540l-62 -502h549q26 130 31 145q12 35 49 35h98l-43 -342h-1052l12 88q3 33 35 39l118 23l146 1169q-25 5 -53.5 10.5t-42.5 8t-19 3.5q-29 6 -26 39zM653 1825q34 0 49 -6 q12 -5 33 -29l191 -207h-144q-16 0 -32 4q-12 3 -27 15l-277 223h207z" />
<glyph unicode="&#xc9;" horiz-adv-x="1171" d="M160 1466h1052l-43 -352h-98q-36 0 -39 35q0 60 4 158h-549l-59 -488h541l-19 -155h-540l-62 -502h549q26 130 31 145q12 35 49 35h98l-43 -342h-1052l12 88q3 33 35 39l118 23l146 1169q-25 5 -53.5 10.5t-42.5 8t-19 3.5q-29 6 -26 39zM1165 1825l-327 -221 q-21 -14 -33 -17q-16 -4 -35 -4h-141l241 207q2 2 10 8t11 8q1 1 8 6.5t10 6.5q12 4 23 4q4 0 13 1t16 1h204z" />
<glyph unicode="&#xca;" horiz-adv-x="1173" d="M160 1466h1052l-43 -352h-98q-36 0 -39 35q0 60 4 158h-549l-59 -488h541l-19 -155h-540l-62 -502h549q26 130 31 145q12 35 49 35h98l-43 -342h-1052l12 88q3 33 35 39l118 23l146 1169q-25 5 -53.5 10.5t-42.5 8t-19 3.5q-29 6 -26 39zM1120 1583h-137q-7 0 -27 4 q-14 3 -22 8l-121 99q-3 1 -10 8q-3 -2 -8.5 -4.5t-6.5 -3.5l-145 -97q-11 -7 -25 -10q-20 -4 -26 -4h-139l270 215h180z" />
<glyph unicode="&#xcb;" horiz-adv-x="1173" d="M160 1466h1052l-43 -352h-98q-36 0 -39 35q0 60 4 158h-549l-59 -488h541l-19 -155h-540l-62 -502h549q26 130 31 145q12 35 49 35h98l-43 -342h-1052l12 88q3 33 35 39l118 23l146 1169q-25 5 -53.5 10.5t-42.5 8t-19 3.5q-29 6 -26 39zM698 1706q-4 -28 -14 -43 q-16 -24 -29 -35q-16 -13 -41 -24q-21 -9 -45 -9q-23 0 -41 9t-30 24q-16 20 -21 35q-7 21 -4 43q3 26 14 45q12 21 29 35q18 15 39 24q26 11 43 11q21 0 43 -11q23 -12 33 -24q16 -19 20 -35q7 -23 4 -45zM1135 1706q-4 -26 -15 -43q-18 -26 -28 -35q-18 -15 -39 -24 t-45 -9q-25 0 -43 9q-23 12 -33 24q-16 20 -21 35q-6 17 -2 43q3 24 15 45q13 22 28 35q18 15 39 24q26 11 45 11t41 -11q23 -12 33 -24q16 -19 20 -35q7 -26 5 -45z" />
<glyph unicode="&#xcc;" horiz-adv-x="600" d="M608 1341l-119 -22l-145 -1169q77 -14 121 -25q23 -6 20 -37l-10 -88h-495l12 88q3 33 35 39l118 23l146 1169q-105 20 -121 24q-23 6 -20 37l10 86h495l-10 -86q-3 -33 -37 -39zM289 1825q34 0 49 -6q12 -5 33 -29l190 -207h-141q-17 0 -33 4q-15 4 -29 15l-274 223h205 z" />
<glyph unicode="&#xcd;" horiz-adv-x="722" d="M608 1341l-119 -22l-145 -1169q77 -14 121 -25q23 -6 20 -37l-10 -88h-495l12 88q3 33 35 39l118 23l146 1169q-105 20 -121 24q-23 6 -20 37l10 86h495l-10 -86q-3 -33 -37 -39zM803 1825l-328 -221q-21 -14 -33 -17q-16 -4 -36 -4h-142l242 207q16 12 22 16q2 1 6 4.5 t7 5.5t6 3q12 4 20 4q3 0 13 1t16 1h207z" />
<glyph unicode="&#xce;" horiz-adv-x="677" d="M608 1341l-119 -22l-145 -1169q77 -14 121 -25q23 -6 20 -37l-10 -88h-495l12 88q3 33 35 39l118 23l146 1169q-105 20 -121 24q-23 6 -20 37l10 86h495l-10 -86q-3 -33 -37 -39zM758 1583h-140q-4 0 -24 4q-11 2 -23 10l-120 97q-7 2 -13 8q-2 -1 -5 -3l-4.5 -3t-2.5 -2 l-145 -97q-11 -7 -25 -10q-20 -4 -29 -4h-137l270 215h181z" />
<glyph unicode="&#xcf;" horiz-adv-x="690" d="M608 1341l-119 -22l-145 -1169q77 -14 121 -25q23 -6 20 -37l-10 -88h-495l12 88q3 33 35 39l118 23l146 1169q-105 20 -121 24q-23 6 -20 37l10 86h495l-10 -86q-3 -33 -37 -39zM334 1706q-4 -26 -15 -43q-17 -26 -28 -35q-16 -13 -41 -24q-21 -9 -45 -9q-23 0 -41 9 q-20 10 -31 24q-14 18 -20 35q-7 21 -4 43q3 26 14 45q12 21 29 35q19 16 38 24q26 11 43 11q21 0 43 -11q23 -12 33 -24q17 -21 21 -35q7 -23 4 -45zM770 1706q-4 -28 -14 -43q-16 -24 -29 -35q-18 -15 -39 -24t-45 -9q-25 0 -43 9q-23 12 -33 24q-14 18 -20 35t-2 43 q3 26 14 45q12 21 29 35q18 15 39 24q26 11 45 11t41 -11q21 -11 32 -24q17 -21 21 -35q7 -23 4 -45z" />
<glyph unicode="&#xd0;" d="M1458 1034q36 -131 15 -301q-20 -162 -89 -299q-68 -137 -176 -231q-113 -99 -247 -150q-139 -53 -302 -53h-528h-147q8 70 10 88q2 14 12 25t23 14l121 23l65 532h-203l15 117h202l64 520q-97 18 -115 22q-29 7 -26 37l10 88h149h529q166 0 288 -51q133 -55 211 -149 q80 -92 119 -232zM1202 492q54 119 68 241q15 137 -8 242q-24 107 -82 180q-57 72 -150 113q-88 39 -209 39h-332l-61 -508h389l-14 -117h-389l-64 -522h330q116 0 219 41q105 42 176 110q79 76 127 181z" />
<glyph unicode="&#xd1;" horiz-adv-x="1589" d="M1190 328q0 44 6 100l111 889q-33 6 -66 11.5t-49.5 8.5t-20.5 4q-27 5 -24 39l10 86h166h174h150l-11 -86q-3 -33 -37 -39l-118 -22l-162 -1319h-102q-42 0 -66 37l-713 1104q-4 -67 -8 -97l-111 -894q88 -15 136 -25q27 -5 24 -37l-10 -88h-489l12 88q3 31 35 37 l118 25l146 1167q-27 5 -53.5 10.5t-42 9t-19.5 4.5q-29 6 -26 39l10 86h250q27 0 39 -6t26 -26zM1081 1702q36 0 58 22q20 20 26 58h101q-6 -42 -21 -80q-13 -32 -41 -64q-26 -30 -57 -43q-32 -14 -76 -14q-35 0 -65 12q-15 6 -60 31t-53 29q-24 12 -51 12q-36 0 -56 -20 t-26 -60h-103q6 45 21 82q11 28 43 64q22 25 59 41t74 16q31 0 66 -14q24 -10 59 -29q45 -25 53 -29q28 -14 49 -14z" />
<glyph unicode="&#xd2;" horiz-adv-x="1519" d="M1483 733q-21 -168 -90 -303q-73 -142 -176 -237q-108 -99 -248 -154t-303 -55q-162 0 -287 55q-131 58 -211 154q-85 102 -119 237q-35 139 -14 303q21 168 90 303q74 144 176 238q112 102 248 156q135 53 301 53q169 0 289 -53q125 -55 209 -156q85 -105 118 -238 q37 -147 17 -303zM1278 733q16 143 -6 242q-24 110 -82 182q-59 74 -152 115q-88 39 -209 39t-219 -39q-99 -39 -178 -115q-78 -75 -127 -182q-53 -116 -67 -242q-15 -137 8 -241q25 -111 82 -183q57 -71 149 -112q93 -41 211 -41q116 0 219 41q105 42 178 112 q77 74 127 183q52 113 66 241zM731 1825q32 0 47 -6t35 -29l191 -207h-144q-17 0 -33 4q-13 3 -28 15l-275 223h207z" />
<glyph unicode="&#xd3;" horiz-adv-x="1519" d="M1483 733q-21 -168 -90 -303q-73 -142 -176 -237q-108 -99 -248 -154t-303 -55q-162 0 -287 55q-131 58 -211 154q-85 102 -119 237q-35 139 -14 303q21 168 90 303q74 144 176 238q112 102 248 156q135 53 301 53q169 0 289 -53q125 -55 209 -156q85 -105 118 -238 q37 -147 17 -303zM1278 733q16 143 -6 242q-24 110 -82 182q-59 74 -152 115q-88 39 -209 39t-219 -39q-99 -39 -178 -115q-78 -75 -127 -182q-53 -116 -67 -242q-15 -137 8 -241q25 -111 82 -183q57 -71 149 -112q93 -41 211 -41q116 0 219 41q105 42 178 112 q77 74 127 183q52 113 66 241zM1243 1825l-328 -221q-22 -14 -32 -17q-16 -4 -35 -4h-141l241 207q2 2 10 8t11 8q15 10 18 11q18 6 21 6q4 0 14 1t16 1h205z" />
<glyph unicode="&#xd4;" horiz-adv-x="1519" d="M1483 733q-21 -168 -90 -303q-73 -142 -176 -237q-108 -99 -248 -154t-303 -55q-162 0 -287 55q-131 58 -211 154q-85 102 -119 237q-35 139 -14 303q21 168 90 303q74 144 176 238q112 102 248 156q135 53 301 53q169 0 289 -53q125 -55 209 -156q85 -105 118 -238 q37 -147 17 -303zM1278 733q16 143 -6 242q-24 110 -82 182q-59 74 -152 115q-88 39 -209 39t-219 -39q-99 -39 -178 -115q-78 -75 -127 -182q-53 -116 -67 -242q-15 -137 8 -241q25 -111 82 -183q57 -71 149 -112q93 -41 211 -41q116 0 219 41q105 42 178 112 q77 74 127 183q52 113 66 241zM1198 1583h-137q-7 0 -27 4q-14 3 -22 8l-121 99q-6 2 -12 8q-2 -2 -5 -3.5l-5 -2.5t-3 -2l-145 -99q-6 -4 -25 -8q-20 -4 -26 -4h-140l271 215h180z" />
<glyph unicode="&#xd5;" horiz-adv-x="1519" d="M1483 733q-21 -168 -90 -303q-73 -142 -176 -237q-108 -99 -248 -154t-303 -55q-162 0 -287 55q-131 58 -211 154q-85 102 -119 237q-35 139 -14 303q21 168 90 303q74 144 176 238q112 102 248 156q135 53 301 53q169 0 289 -53q125 -55 209 -156q85 -105 118 -238 q37 -147 17 -303zM1278 733q16 143 -6 242q-24 110 -82 182q-59 74 -152 115q-88 39 -209 39t-219 -39q-99 -39 -178 -115q-78 -75 -127 -182q-53 -116 -67 -242q-15 -137 8 -241q25 -111 82 -183q57 -71 149 -112q93 -41 211 -41q116 0 219 41q105 42 178 112 q77 74 127 183q52 113 66 241zM1004 1702q35 0 57 22q20 20 26 58h101q-6 -42 -21 -80q-13 -32 -41 -64q-25 -28 -59 -43q-32 -14 -74 -14q-37 0 -67 12q-15 6 -60 31t-53 29q-28 14 -49 14q-35 0 -57 -22q-21 -21 -27 -60h-102q6 41 22 82q13 32 41 64q22 25 59 41t74 16 q33 0 68 -14q24 -10 59 -29q45 -25 53 -29q28 -14 50 -14z" />
<glyph unicode="&#xd6;" horiz-adv-x="1519" d="M1483 733q-21 -168 -90 -303q-73 -142 -176 -237q-108 -99 -248 -154t-303 -55q-162 0 -287 55q-131 58 -211 154q-85 102 -119 237q-35 139 -14 303q21 168 90 303q74 144 176 238q112 102 248 156q135 53 301 53q169 0 289 -53q125 -55 209 -156q85 -105 118 -238 q37 -147 17 -303zM1278 733q16 143 -6 242q-24 110 -82 182q-59 74 -152 115q-88 39 -209 39t-219 -39q-99 -39 -178 -115q-78 -75 -127 -182q-53 -116 -67 -242q-15 -137 8 -241q25 -111 82 -183q57 -71 149 -112q93 -41 211 -41q116 0 219 41q105 42 178 112 q77 74 127 183q52 113 66 241zM774 1706q-4 -28 -14 -43q-16 -24 -29 -35q-18 -15 -39 -24t-45 -9q-23 0 -41 9q-23 12 -33 24q-14 18 -20 35q-7 21 -4 43t16 45q12 21 29 35q20 17 37 24q26 11 43 11q21 0 43 -11q26 -13 35 -24q16 -19 20 -35q5 -19 2 -45zM1210 1706 q-4 -28 -14 -43q-16 -24 -29 -35q-18 -15 -39 -24t-43 -9q-25 0 -43 9q-21 11 -32 24q-16 20 -21 35q-7 21 -4 43q3 26 14 45q12 21 29 35q18 15 39 24q26 11 45 11q21 0 43 -11q23 -12 33 -24q16 -19 20 -35q5 -19 2 -45z" />
<glyph unicode="&#xd7;" horiz-adv-x="950" d="M967 1038l-396 -352l318 -362l-109 -99l-319 365l-410 -365l-84 99l408 364l-309 352l108 99l311 -355l396 353z" />
<glyph unicode="&#xd8;" horiz-adv-x="1540" d="M1495 733q-21 -168 -90 -303q-73 -142 -176 -237q-108 -99 -248 -154t-303 -55q-104 0 -203 26q-95 25 -168 74l-121 -139q-28 -32 -57 -43q-33 -13 -59 -13h-82l229 267q-102 102 -147 245q-45 141 -23 332q21 168 90 303q74 144 176 238q112 102 248 156q135 53 301 53 q121 0 217 -29q99 -30 176 -86l99 115q25 29 41 39q18 12 51 12h102l-205 -240q94 -105 134 -243t18 -318zM250 733q-17 -132 8 -246q25 -111 86 -184l789 922q-57 44 -129 65q-80 23 -162 23q-116 0 -219 -41q-101 -40 -179 -115q-80 -76 -127 -180q-53 -115 -67 -244z M1290 733q16 134 -4 232q-21 103 -74 178l-782 -914q115 -73 270 -73q117 0 220 41q105 42 178 112q77 74 127 183q50 110 65 241z" />
<glyph unicode="&#xd9;" horiz-adv-x="1490" d="M1401 1466h147l-10 -86q-3 -33 -37 -39l-119 -22l-90 -744q-29 -253 -209 -423q-180 -168 -448 -168t-408 168q-134 165 -104 423l92 744q-25 5 -53.5 10.5t-42.5 8t-19 3.5q-29 6 -26 39l10 86h514l-10 -86q-3 -33 -37 -39q-3 -1 -20.5 -3.5t-50 -7.5t-68.5 -11 l-90 -741q-22 -192 65 -304q91 -116 268 -116q180 0 299 116t140 301l92 744q-34 6 -65 11t-48 7.5t-20 3.5q-30 6 -27 39l10 86h166h199zM696 1825q34 0 49 -6q12 -5 33 -29l191 -207h-144q-16 0 -32 4q-12 3 -27 15l-277 223h207z" />
<glyph unicode="&#xda;" horiz-adv-x="1490" d="M1401 1466h147l-10 -86q-3 -33 -37 -39l-119 -22l-90 -744q-29 -253 -209 -423q-180 -168 -448 -168t-408 168q-134 165 -104 423l92 744q-25 5 -53.5 10.5t-42.5 8t-19 3.5q-29 6 -26 39l10 86h514l-10 -86q-3 -33 -37 -39q-3 -1 -20.5 -3.5t-50 -7.5t-68.5 -11 l-90 -741q-22 -192 65 -304q91 -116 268 -116q180 0 299 116t140 301l92 744q-34 6 -65 11t-48 7.5t-20 3.5q-30 6 -27 39l10 86h166h199zM1208 1825l-327 -221q-21 -14 -33 -17q-20 -4 -35 -4h-141l241 207q3 2 10.5 8t10.5 8q2 1 8.5 6.5t9.5 6.5q12 4 23 4q3 0 13 1t16 1 h204z" />
<glyph unicode="&#xdb;" horiz-adv-x="1490" d="M1401 1466h147l-10 -86q-3 -33 -37 -39l-119 -22l-90 -744q-29 -253 -209 -423q-180 -168 -448 -168t-408 168q-134 165 -104 423l92 744q-25 5 -53.5 10.5t-42.5 8t-19 3.5q-29 6 -26 39l10 86h514l-10 -86q-3 -33 -37 -39q-3 -1 -20.5 -3.5t-50 -7.5t-68.5 -11 l-90 -741q-22 -192 65 -304q91 -116 268 -116q180 0 299 116t140 301l92 744q-34 6 -65 11t-48 7.5t-20 3.5q-30 6 -27 39l10 86h166h199zM1163 1583h-137q-7 0 -27 4q-14 3 -22 8l-121 99q-3 1 -10 8q-3 -2 -8.5 -4.5t-6.5 -3.5l-145 -97q-11 -7 -24 -10q-20 -4 -27 -4 h-139l270 215h180z" />
<glyph unicode="&#xdc;" horiz-adv-x="1490" d="M1401 1466h147l-10 -86q-3 -33 -37 -39l-119 -22l-90 -744q-29 -253 -209 -423q-180 -168 -448 -168t-408 168q-134 165 -104 423l92 744q-25 5 -53.5 10.5t-42.5 8t-19 3.5q-29 6 -26 39l10 86h514l-10 -86q-3 -33 -37 -39q-3 -1 -20.5 -3.5t-50 -7.5t-68.5 -11 l-90 -741q-22 -192 65 -304q91 -116 268 -116q180 0 299 116t140 301l92 744q-34 6 -65 11t-48 7.5t-20 3.5q-30 6 -27 39l10 86h166h199zM741 1706q-4 -28 -14 -43q-16 -24 -29 -35q-16 -13 -41 -24q-21 -9 -45 -9q-23 0 -41 9t-30 24q-16 20 -21 35q-7 21 -4 43 q3 26 14 45q12 21 29 35q18 15 39 24q26 11 43 11q21 0 43 -11q23 -12 33 -24q16 -19 20 -35q7 -23 4 -45zM1178 1706q-4 -26 -15 -43q-17 -26 -28 -35q-18 -15 -39 -24t-45 -9q-25 0 -43 9q-23 12 -33 24q-13 16 -19 35q-7 21 -4 43q3 24 15 45q13 22 28 35q18 15 39 24 q26 11 45 11t41 -11q23 -12 33 -24q17 -21 21 -35q7 -23 4 -45z" />
<glyph unicode="&#xdd;" horiz-adv-x="1333" d="M897 1466h494l-13 -86q-3 -31 -30 -37l-111 -24l-537 -735l-53 -434q45 -9 113 -23q29 -6 26 -39l-10 -88h-147h-199h-147l10 88q3 32 37 39l119 23l53 434l-357 735q-22 5 -42.5 9.5t-37.5 8t-22 4.5q-26 6 -23 39l11 86h493l-10 -86q-3 -33 -37 -39q-31 -6 -59.5 -11 t-42.5 -7.5t-17 -3.5l217 -467q27 -66 43 -131q38 78 76 131l332 467q-3 1 -17 3.5t-41.5 7.5t-56.5 11t-26 39zM1102 1825l-328 -221q-21 -14 -33 -17q-16 -4 -34 -4h-142l242 207q4 3 10.5 8.5t9.5 7.5q18 12 21 13q12 4 20 4q4 0 13 1t16 1h205z" />
<glyph unicode="&#xde;" horiz-adv-x="1130" d="M266 279l-33 -279h-198l180 1466h197l-33 -270h235q138 0 240 -31q97 -34 158 -92q63 -60 84 -143q22 -86 10 -189q-12 -99 -59 -186q-45 -82 -123 -145q-80 -64 -183 -97q-106 -34 -239 -34h-236zM287 436h235q78 0 152 23q65 20 117 63q49 40 79 96q27 51 37 123 q18 142 -59 222q-74 77 -252 77h-236z" />
<glyph unicode="&#xdf;" horiz-adv-x="1107" d="M709 1489q104 0 180 -31t117 -78q43 -49 61 -104q17 -51 10 -109q-6 -56 -35 -104q-29 -47 -63 -78q-43 -40 -78 -59q-17 -9 -44 -28t-34 -24q-28 -18 -61 -51q-27 -30 -29 -57q-6 -40 19 -68q21 -23 61 -49q29 -19 84 -47q39 -20 80 -61q38 -38 57 -86q22 -55 13 -133 t-48 -142q-38 -62 -94 -106t-127 -68q-65 -22 -153 -22q-107 0 -176 34q-77 38 -132 93l52 69q12 16 22 21q12 6 29 6q22 0 39 -14q9 -8 43 -33q17 -12 63 -31q35 -14 90 -14q40 0 84 14q38 12 66 37q30 27 45 55q15 29 22 72q6 55 -18 92q-27 43 -63 64q-48 29 -89 47 q-44 20 -86 51q-40 30 -63 71q-23 42 -14 111q6 51 34 94q30 45 66 74q45 36 82 59q31 19 82 60q43 34 65 65q27 38 33 86q3 38 -4 66q-8 31 -35 61q-25 28 -69 43q-41 17 -107 17q-65 0 -129 -23q-63 -23 -106 -63q-45 -42 -76 -109q-30 -65 -39 -149l-125 -1010h-182 l123 1016q12 105 59 192q52 96 119 152q68 57 170 94q96 35 209 35z" />
<glyph unicode="&#xe0;" horiz-adv-x="1046" d="M700 2q-61 0 -61 64l18 206q-114 -204 -270 -264q-50 -20 -108 -20q-94 0 -156.5 50.5t-88.5 130t-26 183.5q0 279 191 490t465 211q149 0 254 -47l-105 -854q3 -1 56 -11t61 -12q13 -3 22 -14t9 -25v-88h-166h-95zM684 549l43 352q-20 17 -43 17h-45q-182 0 -315 -160 q-134 -163 -134 -373q0 -246 158 -246q98 0 189 117q92 117 147 293zM479 1483q37 0 49 -10q16 -13 27 -35l123 -246h-105q-22 0 -34 6q-11 6 -25 23l-207 262h172z" />
<glyph unicode="&#xe1;" horiz-adv-x="1046" d="M700 2q-61 0 -61 64l18 206q-114 -204 -270 -264q-50 -20 -108 -20q-94 0 -156.5 50.5t-88.5 130t-26 183.5q0 279 191 490t465 211q149 0 254 -47l-105 -854q3 -1 56 -11t61 -12q13 -3 22 -14t9 -25v-88h-166h-95zM684 549l43 352q-20 17 -43 17h-45q-182 0 -315 -160 q-134 -163 -134 -373q0 -246 158 -246q98 0 189 117q92 117 147 293zM879 1483l-273 -262q-18 -18 -31 -23q-15 -6 -34 -6h-109l182 246q21 28 35 35q15 10 51 10h179z" />
<glyph unicode="&#xe2;" horiz-adv-x="1048" d="M700 2q-61 0 -61 64l18 206q-114 -205 -268 -264q-50 -20 -108 -20q-138 0 -205.5 101.5t-67.5 262.5q0 279 191 490t467 211q149 0 254 -47l-107 -854q3 -1 56 -11t61 -12q13 -3 22 -14t9 -25v-88h-166h-95zM684 549l45 352q-20 17 -45 17h-43q-184 0 -317 -160 q-134 -163 -134 -373q0 -246 158 -246q100 0 191 117q88 113 145 293zM860 1196h-121q-22 0 -41 16l-114 127l-15 19l-18 -19l-150 -127q-2 -2 -18 -10q-12 -6 -23 -6h-127l263 270h170z" />
<glyph unicode="&#xe3;" horiz-adv-x="1052" d="M702 2q-61 0 -61 64l18 206q-114 -204 -270 -264q-50 -20 -108 -20q-94 0 -156.5 50.5t-88.5 130t-26 183.5q0 279 191 490t465 211q149 0 254 -47l-105 -854q3 -1 56 -11t61 -12q13 -3 22 -14t9 -25v-88h-166h-95zM686 549l43 352q-20 17 -43 17h-45q-184 0 -317 -160 q-131 -159 -131 -373q0 -246 157 -246q98 0 189 117q92 117 147 293zM684 1356q37 0 59 22q24 24 29 66h111q-5 -44 -25 -88q-20 -45 -45 -70q-29 -29 -61 -43q-37 -16 -78 -16q-38 0 -66 14q-27 13 -53 33q-9 7 -26 18t-23 15q-20 14 -47 14q-74 0 -86 -90h-113q6 53 23 90 q18 41 47 70q28 31 63 45t76 14q38 0 66 -14q41 -20 55 -31q9 -7 26 -18.5t21 -14.5q22 -16 47 -16z" />
<glyph unicode="&#xe4;" horiz-adv-x="1050" d="M700 2q-61 0 -61 64l18 206q-114 -205 -268 -264q-50 -20 -108 -20q-138 0 -205.5 101.5t-67.5 262.5q0 279 191 490t467 211q149 0 254 -47l-107 -854q3 -1 56 -11t61 -12q13 -3 22 -14t9 -25v-88h-166h-95zM684 549l45 352q-20 17 -45 17h-43q-184 0 -317 -160 q-134 -163 -134 -373q0 -246 158 -246q100 0 191 117q88 113 145 293zM496 1319q-3 -21 -15 -43q-11 -19 -30 -35q-16 -13 -41 -24q-26 -11 -45 -11t-41 11t-35 24q-15 15 -21 35q-7 23 -4 43q2 20 17 45q17 30 28 39q18 15 39 24q26 11 45 11q21 0 43 -11t35 -24 q14 -14 21 -39q7 -23 4 -45zM862 1319q-3 -24 -14 -43q-12 -21 -29 -35q-16 -13 -41 -24q-26 -11 -45 -11q-21 0 -43 11q-23 11 -33 24q-16 19 -20 35q-7 23 -4 43q3 26 14 45q16 28 29 39q16 13 41 24q26 11 45 11q21 0 43 -11t35 -24q12 -12 20 -39q5 -19 2 -45z" />
<glyph unicode="&#xe5;" horiz-adv-x="1044" d="M698 2q-61 0 -61 64l18 206q-114 -205 -268 -264q-50 -20 -108 -20q-94 0 -156.5 50.5t-88.5 130t-26 183.5q0 281 189 490q191 211 467 211q149 0 254 -47l-107 -854q3 -1 56 -11t61 -12q13 -3 21.5 -14t8.5 -25v-88h-165h-95zM682 549l45 352q-20 17 -45 17h-43 q-184 0 -317 -160q-134 -163 -134 -373q0 -246 158 -246q100 0 191 117q88 113 145 293zM358 1348q6 44 25 75q23 38 53 62q36 29 70 39q47 14 80 14q32 0 76 -14q37 -15 61 -39q27 -27 39 -62q12 -34 6 -75q-6 -44 -27 -78q-23 -37 -51 -60q-35 -28 -72 -39 q-40 -12 -79 -12q-41 0 -76 12t-62 39q-23 23 -36 60t-7 78zM461 1346q-6 -47 18 -74q26 -29 72 -29t78 29q31 28 37 74q6 47 -19 75q-26 29 -72 29q-45 0 -77 -29q-31 -28 -37 -75z" />
<glyph unicode="&#xe6;" horiz-adv-x="1468" d="M1122 1051q58 0 113 -19q52 -18 90 -53q41 -37 59 -78q23 -51 23 -98q0 -55 -29 -115q-26 -54 -98 -98q-76 -47 -188 -72q-129 -29 -304 -29v-20v-20q0 -160 62 -240t172 -80q48 0 90 10q32 7 68 25q35 17 53 33q4 3 20 14.5t23 17.5q26 21 35 27q17 10 32 10 q20 0 35 -18l45 -55q-53 -53 -102 -93q-51 -42 -102 -65q-58 -27 -109 -37q-56 -12 -123 -12q-108 0 -188 59q-81 57 -121 174q-38 -70 -78 -108q-56 -52 -98 -74q-61 -32 -105 -41q-55 -12 -104 -12q-138 0 -211 61q-74 62 -74 184q0 78 33 140q35 65 106 116q72 51 195 82 q132 33 295 33q4 37 6 53q4 28 4 35q0 6 1 13t1 10v14q0 184 -157 184q-59 0 -105 -16q-35 -12 -76 -37q-45 -32 -57 -39q-26 -16 -47 -16q-18 0 -31 10q-13 9 -18 23l-25 55q93 86 180 125q93 41 197 41q113 0 174 -49q62 -50 84 -138q61 85 152 136q84 47 202 47zM625 487 q-124 0 -209 -18q-81 -17 -137 -49q-51 -29 -76 -74q-23 -48 -23 -92q0 -75 39 -111q40 -37 107 -37q42 0 100 21q46 18 86 55q39 39 66 94t36 134zM1100 922q-59 0 -113 -23q-50 -21 -88 -65q-40 -46 -63 -103q-25 -62 -37 -133q124 0 219 20q81 17 137 46q53 27 72 59 q20 33 20 70q0 58 -39 94q-38 35 -108 35z" />
<glyph unicode="&#xe7;" horiz-adv-x="903" d="M770 213l43 -68q-133 -142 -352 -157l-25 -60q94 -22 127 -55q37 -37 31 -80q-6 -44 -25 -69q-21 -28 -51 -46q-65 -38 -166 -38q-73 0 -145 32l24 58q8 16 27 16q8 0 14 -2q3 -1 9.5 -4t9.5 -4q27 -12 65 -12q45 0 66 16q24 18 27 41q3 22 -7 35q-11 14 -30 24 q-28 12 -119 25l53 125q-156 21 -244 137q-114 144 -84 393q29 235 175 381q152 152 380 152q120 0 297 -76l-32 -268h-82q-28 0 -31 28q-3 12 0 78q1 19 2 35.5t1 24.5l1 8q-47 15 -72 18q-52 8 -114 8q-54 0 -117 -26q-62 -26 -107 -76q-91 -105 -112 -287 q-21 -188 45 -291q68 -102 209 -102q125 0 237 86q22 16 41 16q23 0 31 -16z" />
<glyph unicode="&#xe8;" horiz-adv-x="878" d="M821 193q-95 -100 -192.5 -153.5t-241.5 -53.5q-139 0 -228 65.5t-128 179.5q-27 77 -27 175q0 250 146 444q151 201 393 201q105 0 180 -41.5t106 -114.5q17 -41 17 -80q0 -83 -32 -135.5t-97 -91.5q-72 -45 -201 -80q-113 -30 -332 -53q0 -4 -1 -11.5t-1 -11.5v-22 q0 -135 59.5 -208t182.5 -73q120 0 209 68q73 54 78 57q17 10 32 10q20 0 33 -16zM684 807q0 54 -44 83.5t-108 29.5q-189 0 -286 -209q-30 -61 -45 -136q130 15 252 46q87 22 147 53q43 25 63.5 54.5t20.5 78.5zM455 1485q34 0 49 -12q16 -13 26 -33l121 -248h-104 q-21 0 -33 6q-14 7 -27 23l-206 264h174z" />
<glyph unicode="&#xe9;" horiz-adv-x="886" d="M821 193q-95 -100 -192.5 -153.5t-241.5 -53.5q-139 0 -228 65.5t-128 179.5q-27 77 -27 175q0 250 146 444q151 201 393 201q105 0 180 -41.5t106 -114.5q17 -41 17 -80q0 -83 -32 -135.5t-97 -91.5q-72 -45 -201 -80q-113 -30 -332 -53q0 -4 -1 -11.5t-1 -11.5v-22 q0 -135 59.5 -208t182.5 -73q120 0 209 68q73 54 78 57q17 10 32 10q20 0 33 -16zM684 807q0 54 -44 83.5t-108 29.5q-189 0 -286 -209q-30 -61 -45 -136q130 15 252 46q87 22 147 53q43 25 63.5 54.5t20.5 78.5zM852 1485l-270 -264q-18 -18 -31 -23q-15 -6 -37 -6h-108 l182 248q19 25 35 33q18 12 51 12h178z" />
<glyph unicode="&#xea;" horiz-adv-x="882" d="M823 193q-45 -47 -84.5 -80t-92.5 -64t-118 -47t-141 -16q-139 0 -227 65.5t-127 179.5q-27 77 -27 175q0 250 146 444q151 201 393 201q104 0 178.5 -41.5t105.5 -114.5q19 -46 19 -80q0 -83 -32 -135.5t-97 -91.5q-70 -45 -203 -80q-113 -30 -332 -53v-23v-22 q0 -281 240 -281q120 0 209 68q73 54 78 57q17 10 32 10q22 0 35 -16zM684 807q0 54 -42.5 83.5t-106.5 29.5q-190 0 -287 -209q-33 -68 -47 -136q134 15 254 46q83 21 145 53q43 25 63.5 54.5t20.5 78.5zM836 1198h-121q-24 0 -41 14l-115 129l-14 17l-19 -17l-149 -129 q-1 -1 -19 -10q-8 -4 -22 -4h-127l262 270h170z" />
<glyph unicode="&#xeb;" horiz-adv-x="894" d="M825 193q-45 -47 -84.5 -80t-92.5 -64t-118 -47t-141 -16q-139 0 -227 65.5t-127 179.5q-27 77 -27 175q0 250 146 444q151 201 393 201q104 0 178.5 -41.5t105.5 -114.5q19 -46 19 -80q0 -83 -32 -135.5t-97 -91.5q-70 -45 -203 -80q-113 -30 -332 -53v-23v-22 q0 -281 240 -281q120 0 209 68q73 54 78 57q17 10 32 10q22 0 35 -16zM686 807q0 54 -42.5 83.5t-106.5 29.5q-190 0 -287 -209q-33 -68 -47 -136q134 15 254 46q83 21 145 53q43 25 63.5 54.5t20.5 78.5zM471 1321q-3 -26 -14 -45q-12 -21 -29 -35q-16 -13 -41 -24 q-26 -11 -45 -11q-21 0 -43 11q-18 9 -33 24q-14 14 -20 35q-7 23 -4 45q3 26 14 45q12 21 31 37q18 15 39 24q26 11 43 11q23 0 45 -11q16 -8 32 -24q17 -17 23 -37q5 -19 2 -45zM840 1321q-3 -24 -15 -45q-11 -19 -30 -35q-18 -15 -39 -24q-26 -11 -45 -11q-23 0 -45 11 q-23 11 -33 24q-17 21 -21 35q-7 23 -4 45q2 20 17 45q15 26 28 37q18 15 39 24q26 11 45 11q23 0 45 -11q18 -9 33 -24t21 -37q7 -23 4 -45z" />
<glyph unicode="&#xec;" horiz-adv-x="522" d="M416 127q13 -3 20.5 -14t5.5 -25l-10 -88h-332l19 150l92 739q-97 18 -115 22q-29 7 -26 37l10 88h332l-111 -886q97 -19 115 -23zM373 1190q-37 0 -60 29l-207 264h173q33 0 48.5 -10t26.5 -35l123 -248h-104z" />
<glyph unicode="&#xed;" horiz-adv-x="583" d="M387 127q13 -3 21 -14t6 -25l-11 -88h-329l18 150l90 739q-94 18 -112 22q-30 7 -27 37l10 88h330l-109 -886q95 -19 113 -23zM381 1219q-30 -27 -68 -27h-108l182 246q19 25 36 35t50 10h178z" />
<glyph unicode="&#xee;" horiz-adv-x="581" d="M412 127q13 -3 20.5 -14t5.5 -25l-10 -88h-330l19 150l90 739q-97 18 -115 22q-29 7 -26 37l12 88h330l-109 -886q95 -19 113 -23zM197 1210q-16 -12 -43 -12h-125l260 268h170l194 -268h-121q-24 0 -38 12q-21 24 -66 73.5t-66 74.5z" />
<glyph unicode="&#xef;" horiz-adv-x="636" d="M451 127q13 -3 20.5 -14t5.5 -25l-12 -88h-330l19 150l92 739q-97 18 -115 22q-30 7 -27 37l11 88h329l-108 -886q97 -19 115 -23zM690 1364q7 -23 4 -45q-3 -24 -14 -43q-12 -21 -31 -37q-20 -17 -39 -25t-45 -8q-29 0 -45 8q-22 11 -33 25q-15 18 -20 37q-7 23 -4 43 q3 22 16 45q16 28 29 39q18 15 39 24q26 11 45 11q23 0 45 -11q18 -9 33 -24q12 -12 20 -39zM197 1206q-27 0 -43 8t-33 25q-15 15 -21 37q-7 23 -4 43q3 24 15 45q15 27 30 39q18 15 39 24q26 11 43 11q23 0 45 -11q18 -9 33 -24q17 -17 23 -39q5 -19 2 -45q-3 -21 -15 -43 q-15 -26 -28 -37q-18 -15 -41 -25q-19 -8 -45 -8z" />
<glyph unicode="&#xf0;" horiz-adv-x="1050" d="M428 1090q-1 2 -3 7t-3 7v14q3 21 29 37l112 74q-30 14 -92 37q-36 13 -106 32q-15 5 -29 19q-11 14 -8 39q3 16 8 28l29 64q85 -14 184 -47q89 -30 166 -80l186 125l29 -57q6 -12 6 -25q-3 -23 -29 -39l-106 -68q53 -47 98 -114q44 -66 68 -144q25 -84 34 -174 q9 -94 -6 -207q-18 -150 -63 -262q-48 -120 -119 -200q-72 -81 -172 -125q-98 -43 -221 -43q-107 0 -184 32q-84 35 -140 97q-59 65 -82 153q-26 100 -12 207q13 98 55 182q45 89 109 150q66 63 158 102t194 39q101 0 189 -45q85 -43 141 -133q-3 140 -51 236 q-49 98 -138 163l-204 -139zM440 127q69 0 135 29q59 26 111 84q47 53 82 139q32 80 51 199q-13 48 -33 86q-21 43 -55 73q-40 35 -84 51q-52 19 -110 19q-76 0 -140 -25q-54 -21 -104 -71q-46 -46 -72 -105q-29 -65 -37 -131q-9 -83 6 -147q16 -69 52 -111q37 -42 86 -65 q55 -25 112 -25z" />
<glyph unicode="&#xf1;" horiz-adv-x="1173" d="M1067 125q30 -6 27 -37l-11 -88h-331l82 659q30 248 -189 248q-151 0 -297 -143l-94 -764h-182l108 887q-27 5 -53 10.5t-41.5 9t-19.5 4.5q-28 6 -25 39l10 86h256q39 0 45 -37v-112q174 168 365 168q166 0 243.5 -107t55.5 -289l-64 -509q29 -5 55 -11t41 -9.5t19 -4.5 zM780 1358q40 0 60 20q22 22 28 68h111q-6 -46 -25 -90q-20 -45 -45 -70q-29 -29 -61 -43q-37 -16 -78 -16q-37 0 -65 14q-30 15 -54 33q-9 7 -26 18t-23 15q-20 14 -45 14q-76 0 -88 -90h-113q6 53 23 90q18 41 47 70q28 31 63 45t76 14q38 0 66 -14q41 -20 55 -31 q9 -7 26 -18.5t21 -14.5q20 -14 47 -14z" />
<glyph unicode="&#xf2;" horiz-adv-x="1044" d="M571 1053q117 0 201 -37q90 -39 143 -107q57 -73 78 -170q21 -98 6 -219q-15 -123 -61 -221t-119 -168q-73 -71 -168 -108q-93 -37 -211 -37q-116 0 -200 37q-87 38 -142 108q-61 77 -80 168q-22 105 -8 221q14 112 64 219q48 102 119 170t169 107q93 37 209 37zM459 129 q155 0 241 102q91 107 111 287q22 190 -39 289q-64 104 -217 104q-80 0 -139 -26q-54 -24 -105 -78q-42 -45 -71 -123q-30 -81 -41 -166q-11 -80 0 -166q9 -75 41 -121q34 -49 88 -75q56 -27 131 -27zM524 1485q34 0 49 -12q17 -14 27 -33l123 -248h-105q-22 0 -34 6 q-11 6 -25 23l-207 264h172z" />
<glyph unicode="&#xf3;" horiz-adv-x="1046" d="M571 1053q117 0 201 -37q90 -39 143 -107q57 -73 78 -170q21 -98 6 -219q-15 -123 -61 -221t-119 -168q-73 -71 -168 -108q-93 -37 -211 -37q-116 0 -200 37q-87 38 -142 108q-61 77 -80 168q-22 105 -8 221q14 112 64 219q48 102 119 170t169 107q93 37 209 37zM459 129 q155 0 241 102q91 107 111 287q22 190 -39 289q-64 104 -217 104q-80 0 -139 -26q-54 -24 -105 -78q-42 -45 -71 -123q-30 -81 -41 -166q-11 -80 0 -166q9 -75 41 -121q34 -49 88 -75q56 -27 131 -27zM924 1485l-271 -264q-18 -18 -30 -23q-15 -6 -37 -6h-109l182 248 q19 25 35 33q18 12 51 12h179z" />
<glyph unicode="&#xf4;" horiz-adv-x="1044" d="M571 1053q117 0 201 -37q90 -39 143 -107q57 -73 78 -170q21 -98 6 -219q-15 -123 -61 -221t-119 -168q-73 -71 -168 -108q-93 -37 -211 -37q-116 0 -200 37q-87 38 -142 108q-61 77 -80 168q-22 105 -8 221q14 112 64 219q48 102 119 170t169 107q93 37 209 37zM459 129 q155 0 241 102q91 107 111 287q22 190 -39 289q-64 104 -217 104q-80 0 -139 -26q-54 -24 -105 -78q-42 -45 -71 -123q-30 -81 -41 -166q-11 -80 0 -166q9 -75 41 -121q34 -49 88 -75q56 -27 131 -27zM905 1198h-123q-22 0 -39 14l-114 129l-17 17l-18 -17l-148 -129 q-2 -2 -18 -10q-8 -4 -25 -4h-124l260 270h170z" />
<glyph unicode="&#xf5;" horiz-adv-x="1050" d="M573 1053q117 0 201 -37q91 -40 144 -107q53 -68 75 -170q22 -104 8 -219q-15 -123 -61 -221t-119 -168q-72 -69 -170 -108q-93 -37 -209 -37t-200 37q-90 40 -144 108q-58 74 -78 168q-22 105 -8 221q14 118 62 219q46 98 121 170q72 69 167 107q93 37 211 37zM459 129 q157 0 243 102q91 107 111 287q21 188 -41 289q-64 104 -217 104q-78 0 -137 -26q-57 -25 -107 -78q-42 -45 -71 -123q-27 -73 -39 -166q-12 -88 -2 -166q9 -72 43 -121q35 -50 86 -75q56 -27 131 -27zM725 1358q39 0 59 20q23 23 29 68h111q-6 -53 -23 -90q-20 -45 -45 -70 q-28 -28 -63 -43q-37 -16 -76 -16q-38 0 -66 14q-33 17 -55 33q-9 7 -26 18.5t-21 14.5q-20 14 -47 14q-74 0 -86 -90h-115q6 46 25 90q18 41 47 70q28 31 63 45t76 14q38 0 66 -14q35 -18 53 -31q9 -7 26 -18t23 -15q20 -14 45 -14z" />
<glyph unicode="&#xf6;" horiz-adv-x="1046" d="M571 1053q117 0 201 -37q90 -39 143 -107q57 -73 78 -170q21 -98 6 -219q-15 -123 -61 -221t-119 -168q-73 -71 -168 -108q-93 -37 -211 -37q-116 0 -200 37q-87 38 -142 108q-61 77 -80 168q-22 105 -8 221q14 112 64 219q48 102 119 170t169 107q93 37 209 37zM459 129 q155 0 241 102q91 107 111 287q22 190 -39 289q-64 104 -217 104q-80 0 -139 -26q-54 -24 -105 -78q-42 -45 -71 -123q-30 -81 -41 -166q-11 -80 0 -166q9 -75 41 -121q34 -49 88 -75q56 -27 131 -27zM537 1321q-3 -24 -15 -45q-13 -22 -28 -35q-16 -13 -41 -24 q-26 -11 -45 -11q-21 0 -43 11q-18 9 -33 24t-21 35q-7 23 -4 45q3 24 15 45q13 23 30 37q18 15 39 24q26 11 43 11q23 0 45 -11q18 -9 33 -24q17 -17 23 -37q5 -19 2 -45zM905 1319q-3 -24 -14 -43q-10 -17 -31 -35q-18 -15 -39 -24q-26 -11 -45 -11q-23 0 -45 11 q-23 11 -33 24q-16 19 -20 35q-7 23 -4 43q3 22 16 45q16 28 29 39q18 15 39 24q26 11 45 11q23 0 45 -11q18 -9 33 -24q12 -12 20 -39q7 -23 4 -45z" />
<glyph unicode="&#xf7;" horiz-adv-x="997" d="M14 758h981l-16 -140h-983zM412 1051q3 24 16 51q8 16 33 41q16 16 43 26q29 11 51 11q23 0 49 -11q24 -10 37 -26q18 -22 23 -41q7 -27 4 -51q-3 -23 -17 -52q-8 -16 -33 -41q-16 -16 -43 -26t-51 -10q-26 0 -49 10q-24 10 -37 26q-17 20 -22 41q-7 27 -4 52zM324 322 q3 30 14 51q8 16 33 41q16 16 43 26q29 11 51 11q23 0 49 -11q24 -10 37 -26q17 -20 22 -41q7 -30 5 -51q-3 -23 -17 -52q-8 -16 -33 -41q-16 -16 -43 -26t-51 -10q-26 0 -49 10q-24 10 -37 26q-17 20 -22 41q-5 22 -2 52z" />
<glyph unicode="&#xf8;" horiz-adv-x="1118" d="M956 905q55 -70 76 -168t6 -217q-15 -123 -61 -221t-119 -168q-74 -71 -168 -108q-93 -37 -211 -37q-77 0 -141 18q-74 21 -117 49l-65 -76q-28 -31 -58 -43t-61 -12h-70l174 201q-60 73 -84 170q-23 97 -8 227q14 112 64 219q49 103 118 170q70 67 170 107q93 37 209 37 q77 0 148 -19q70 -19 121 -55l79 94q23 25 43 39q15 10 52 10h92zM227 518q-21 -165 27 -262l522 604q-67 58 -182 58q-75 0 -141 -29q-65 -29 -109 -78q-45 -51 -76 -127q-28 -69 -41 -166zM498 123q76 0 137 27q65 29 110 79q48 54 76 123t41 166q18 156 -22 254 l-518 -600q64 -49 176 -49z" />
<glyph unicode="&#xf9;" horiz-adv-x="1167" d="M471 129q156 0 299 143l76 617q-5 1 -19 3.5t-42.5 8t-53.5 10.5q-29 6 -26 39l10 86h147h182l-108 -886q29 -5 55 -10.5t41 -8.5t19 -4q29 -6 26 -39l-10 -88h-258q-37 0 -43 37l-2 113q-169 -166 -365 -166q-167 0 -245 106q-76 101 -54 287l64 512q-25 5 -53.5 10.5 t-42.5 8t-19 3.5q-27 5 -24 39l10 86h330l-82 -659q-15 -119 32 -184q46 -64 156 -64zM575 1483q37 0 50 -10q14 -11 26 -35l121 -246h-104q-21 0 -33 6q-14 7 -27 23l-207 262h174z" />
<glyph unicode="&#xfa;" horiz-adv-x="1167" d="M471 129q156 0 299 143l76 617q-5 1 -19 3.5t-42.5 8t-53.5 10.5q-29 6 -26 39l10 86h147h182l-108 -886q29 -5 55 -10.5t41 -8.5t19 -4q29 -6 26 -39l-10 -88h-258q-37 0 -43 37l-2 113q-169 -166 -365 -166q-167 0 -245 106q-76 101 -54 287l64 512q-25 5 -53.5 10.5 t-42.5 8t-19 3.5q-27 5 -24 39l10 86h330l-82 -659q-15 -119 32 -184q46 -64 156 -64zM975 1483l-273 -262q-18 -18 -30 -23q-15 -6 -35 -6h-109l183 246q22 29 34 35q15 10 52 10h178z" />
<glyph unicode="&#xfb;" horiz-adv-x="1165" d="M471 129q156 0 299 143l76 617q-5 1 -19 3.5t-42.5 8t-53.5 10.5q-29 6 -26 39l10 86h147h182l-108 -886q29 -5 55 -10.5t41 -8.5t19 -4q29 -6 26 -39l-10 -88h-258q-37 0 -43 37l-2 113q-169 -166 -365 -166q-167 0 -245 106q-76 101 -54 287l64 512q-25 5 -53.5 10.5 t-42.5 8t-19 3.5q-27 5 -24 39l10 86h330l-82 -659q-15 -119 32 -184q46 -64 156 -64zM954 1196h-120q-22 0 -41 16l-115 127l-14 19l-19 -19l-149 -127q-1 -1 -19 -10q-12 -6 -22 -6h-127l262 270h170z" />
<glyph unicode="&#xfc;" horiz-adv-x="1167" d="M471 129q156 0 299 143l76 617q-5 1 -19 3.5t-42.5 8t-53.5 10.5q-29 6 -26 39l10 86h147h182l-108 -886q29 -5 55 -10.5t41 -8.5t19 -4q29 -6 26 -39l-10 -88h-258q-37 0 -43 37l-2 113q-169 -166 -365 -166q-167 0 -245 106q-76 101 -54 287l64 512q-25 5 -53.5 10.5 t-42.5 8t-19 3.5q-27 5 -24 39l10 86h330l-82 -659q-15 -119 32 -184q46 -64 156 -64zM588 1319q-3 -21 -15 -43q-11 -19 -30 -35q-16 -13 -41 -24q-26 -11 -45 -11t-41 11t-35 24q-15 15 -21 35q-7 23 -4 43q2 20 17 45q17 30 28 39q18 15 39 24q26 11 45 11q21 0 43 -11 t35 -24q14 -14 21 -39q7 -23 4 -45zM954 1319q-3 -24 -14 -43q-12 -21 -29 -35q-16 -13 -41 -24q-26 -11 -45 -11q-21 0 -43 11q-21 11 -32 24q-17 21 -21 35q-7 23 -4 43q3 26 14 45q16 28 29 39q16 13 41 24q26 11 45 11q21 0 43 -11t35 -24q12 -12 20 -39q5 -19 2 -45z " />
<glyph unicode="&#xfd;" horiz-adv-x="1136" d="M1098 1036h73l-10 -86q-3 -33 -35 -39q-3 -1 -9.5 -2t-19.5 -3.5t-26 -4.5t-26 -5.5t-19.5 -5t-9.5 -1.5l-662 -1196q-23 -45 -71 -45h-136l240 413l-262 832l-90 18q-30 6 -27 39l10 86h465l-10 -86q-3 -33 -35 -39q-70 -14 -114 -22l163 -543q10 -33 17 -92 q21 55 41 94l291 541q-66 13 -109 22q-28 6 -25 39l11 86h385zM965 1483l-271 -262q-18 -18 -30 -23q-15 -6 -37 -6h-109l182 246q21 28 35 35q15 10 51 10h179z" />
<glyph unicode="&#xfe;" horiz-adv-x="1056" d="M-12 -352l229 1859h182l-75 -620q69 71 163 121q86 45 197 45q93 0 158 -33q68 -35 110 -100q46 -71 60 -166q15 -100 0 -230q-15 -116 -58 -213q-42 -96 -110 -170q-64 -70 -154 -114q-83 -41 -192 -41q-104 0 -162 34q-64 37 -107 101l-57 -473h-184zM606 909 q-91 0 -162 -41t-137 -116l-61 -502q43 -67 98 -94q60 -29 129 -29q148 0 236 104q90 107 114 295q11 97 2 174q-9 70 -37 119q-28 47 -73 68q-49 22 -109 22z" />
<glyph unicode="&#xff;" horiz-adv-x="1136" d="M1098 1036h73l-10 -86q-3 -33 -35 -39q-3 -1 -9.5 -2t-19.5 -3.5t-26 -4.5t-26 -5.5t-19.5 -5t-9.5 -1.5l-662 -1196q-23 -45 -71 -45h-136l240 413l-262 832l-90 18q-30 6 -27 39l10 86h465l-10 -86q-3 -33 -35 -39q-70 -14 -114 -22l163 -543q10 -33 17 -92 q21 55 41 94l291 541q-66 13 -109 22q-28 6 -25 39l11 86h385zM578 1319q-3 -21 -15 -43q-13 -22 -28 -35q-16 -13 -41 -24q-26 -11 -45 -11q-21 0 -43 11q-18 9 -33 24t-21 35q-7 23 -4 43q3 26 14 45q14 25 31 39q18 15 39 24q26 11 43 11q23 0 45 -11q18 -9 33 -24 t22 -39q6 -21 3 -45zM946 1319q-3 -24 -14 -43q-10 -17 -31 -35q-18 -15 -39 -24q-26 -11 -45 -11q-23 0 -45 11q-23 11 -33 24q-16 19 -20 35q-7 23 -4 43q3 22 16 45q16 28 29 39q18 15 39 24q26 11 45 11q23 0 45 -11q18 -9 33 -24q12 -12 20 -39q7 -23 4 -45z" />
<glyph unicode="&#x152;" horiz-adv-x="2134" d="M1997 1307h-549l-59 -488h540l-18 -155h-541l-61 -502h549q28 137 30 145q12 35 47 35h101l-43 -342h-881l31 246q-105 -127 -240 -193q-137 -67 -295 -67q-155 0 -268 55q-112 55 -186 154q-76 103 -105 235q-31 140 -10 303t86 303q67 143 162 238q203 209 495 209 q163 0 287 -68q122 -70 193 -194l30 245h881l-21 -159l-22 -193h-100q-34 0 -37 35q0 60 4 158zM1116 489q47 109 62 244q15 139 -2 244q-17 102 -72 182q-54 78 -133 117q-84 41 -189 41q-103 0 -196 -41q-92 -40 -162 -117q-76 -83 -119 -182q-48 -112 -63 -244 q-16 -142 4 -244q22 -113 71 -182q52 -73 136 -114t188 -41t197 41q90 40 161 114q70 73 117 182z" />
<glyph unicode="&#x153;" horiz-adv-x="1564" d="M1225 1051q71 0 121 -17t90 -49q41 -37 59 -78q18 -47 18 -100q0 -46 -10 -80q-10 -35 -41 -74q-22 -28 -76 -63q-49 -31 -118 -55q-95 -32 -170 -46q-124 -22 -226 -32v-11q0 -157 62 -237t174 -80q46 0 88 10q32 7 68 25q27 14 53 33q4 3 20 14.5t23 17.5q17 14 35 25 q17 10 32 10q22 0 35 -16l45 -55q-61 -62 -100 -93q-51 -42 -102 -65q-56 -26 -111 -37q-58 -12 -123 -12q-108 0 -188 59q-81 59 -121 176q-69 -111 -176 -174q-104 -61 -238 -61q-84 0 -145 30q-67 33 -105 82q-38 46 -61 119q-21 67 -21 141q0 169 43 297t117 217 q72 87 172 134q96 45 207 45t184 -52q70 -50 109 -145q65 92 160 145q94 52 217 52zM391 123q83 0 148 41q62 39 106 110q46 74 66 170q22 104 22 213q0 116 -47 187q-46 69 -147 69q-82 0 -144 -39q-61 -38 -108 -110q-46 -70 -70 -172t-24 -223q0 -45 10 -93q8 -38 35 -77 q25 -36 61 -56t92 -20zM1196 922q-63 0 -113 -23q-52 -24 -92 -70q-44 -51 -69 -110q-30 -71 -41 -148q130 16 241 45q92 24 148 56q54 31 71 63q21 40 21 66q0 24 -10 47q-8 18 -29 39q-26 18 -51 26q-30 9 -76 9z" />
<glyph unicode="&#x178;" horiz-adv-x="1333" d="M897 1466h494l-13 -86q-3 -31 -30 -37l-111 -24l-537 -735l-53 -434q45 -9 113 -23q29 -6 26 -39l-10 -88h-147h-199h-147l10 88q3 32 37 39l119 23l53 434l-357 735q-22 5 -42.5 9.5t-37.5 8t-22 4.5q-26 6 -23 39l11 86h493l-10 -86q-3 -33 -37 -39q-31 -6 -59.5 -11 t-42.5 -7.5t-17 -3.5l217 -467q27 -66 43 -131q38 78 76 131l332 467q-3 1 -17 3.5t-41.5 7.5t-56.5 11t-26 39zM635 1706q-4 -28 -14 -43q-16 -24 -29 -35q-16 -13 -41 -24q-21 -9 -45 -9q-23 0 -41 9q-20 10 -31 24q-14 18 -20 35q-7 21 -4 43q3 26 14 45q12 21 29 35 q18 15 39 24q26 11 43 11q21 0 43 -11q21 -11 32 -24q17 -21 21 -35q7 -23 4 -45zM1071 1706q-4 -28 -14 -43q-16 -24 -29 -35q-18 -15 -39 -24t-45 -9q-25 0 -43 9q-23 12 -33 24q-11 14 -18 35t-4 43q3 26 14 45q12 21 29 35q18 15 39 24q26 11 45 11t41 -11 q23 -12 33 -24q16 -19 20 -35q7 -23 4 -45z" />
<glyph unicode="&#x2c6;" horiz-adv-x="780" d="M717 1196h-123q-20 0 -39 16l-115 127l-16 19l-18 -19l-148 -127q-2 -2 -18 -10q-12 -6 -25 -6h-125l260 270h170z" />
<glyph unicode="&#x2dc;" horiz-adv-x="815" d="M543 1356q37 0 59 22q24 24 29 66h110q-6 -47 -24 -88q-20 -45 -45 -70q-27 -27 -64 -43t-76 -16q-37 0 -65 14q-27 13 -53 33q-9 7 -26 18t-23 15q-20 14 -48 14q-74 0 -86 -90h-112q7 56 22 90q18 41 47 70q27 30 64 45q35 14 76 14q37 0 65 -14q44 -22 56 -31 q9 -7 26 -18.5t21 -14.5q22 -16 47 -16z" />
<glyph unicode="&#x2000;" horiz-adv-x="940" />
<glyph unicode="&#x2001;" horiz-adv-x="1880" />
<glyph unicode="&#x2002;" horiz-adv-x="940" />
<glyph unicode="&#x2003;" horiz-adv-x="1880" />
<glyph unicode="&#x2004;" horiz-adv-x="626" />
<glyph unicode="&#x2005;" horiz-adv-x="470" />
<glyph unicode="&#x2006;" horiz-adv-x="313" />
<glyph unicode="&#x2007;" horiz-adv-x="313" />
<glyph unicode="&#x2008;" horiz-adv-x="235" />
<glyph unicode="&#x2009;" horiz-adv-x="376" />
<glyph unicode="&#x200a;" horiz-adv-x="104" />
<glyph unicode="&#x2010;" horiz-adv-x="737" d="M127 692h506l-19 -155h-508z" />
<glyph unicode="&#x2011;" horiz-adv-x="737" d="M127 692h506l-19 -155h-508z" />
<glyph unicode="&#x2012;" horiz-adv-x="737" d="M127 692h506l-19 -155h-508z" />
<glyph unicode="&#x2013;" horiz-adv-x="1046" d="M123 672h819l-16 -135h-820z" />
<glyph unicode="&#x2014;" horiz-adv-x="1589" d="M123 672h1362l-15 -135h-1364z" />
<glyph unicode="&#x2018;" horiz-adv-x="432" d="M147 1036q-19 40 -30 99q-8 46 -2 98q12 94 67 178q49 75 148 154l51 -33q8 -8 10 -12v-13q-4 -18 -12 -24l-37 -43q-21 -24 -35 -47q-13 -21 -24 -54q-13 -40 -15 -57q-4 -47 0 -70q5 -28 25 -73q4 -8 4 -23q-3 -26 -31 -35z" />
<glyph unicode="&#x2019;" horiz-adv-x="425" d="M330 1544q24 -50 30 -98q7 -57 2 -98q-12 -95 -67 -179q-50 -78 -145 -153l-52 33q-8 8 -10 12v12q4 19 12 25q19 19 37 43q34 45 35 47q16 25 25 53q12 36 14 57q3 39 -2 70q-6 37 -23 74q-6 12 -6 20q3 24 33 37z" />
<glyph unicode="&#x201a;" horiz-adv-x="452" d="M297 246q25 -52 31 -99q7 -57 2 -98q-12 -89 -68 -176q-54 -84 -145 -156l-54 35q-6 6 -8 10t-2 13q3 15 15 24q15 15 36 43q14 19 33 49q21 33 27 52q12 35 14 59q3 38 -2 68q-5 31 -24 73q-5 10 -5 23q3 22 33 35z" />
<glyph unicode="&#x201c;" horiz-adv-x="743" d="M147 1036q-19 40 -30 99q-8 46 -2 98q12 94 67 178q49 75 148 154l51 -33q8 -8 10 -12v-13q-4 -18 -12 -24l-37 -43q-21 -24 -35 -47q-13 -21 -24 -54q-13 -40 -15 -57q-4 -47 0 -70q5 -28 25 -73q4 -8 4 -23q-3 -26 -31 -35zM459 1036q-21 43 -31 99q-8 46 -2 98 q12 92 68 178q50 76 147 154l51 -35l10 -10v-13q-4 -18 -12 -24l-37 -43q-21 -24 -35 -47q-13 -21 -24 -54q-12 -35 -14 -59q-4 -45 0 -68q5 -31 24 -73q4 -8 4 -23q-3 -26 -30 -35z" />
<glyph unicode="&#x201d;" horiz-adv-x="737" d="M330 1544q24 -50 30 -98q7 -57 2 -98q-12 -95 -67 -179q-50 -78 -145 -153l-52 33q-8 8 -10 12v12q4 19 12 25q19 19 37 43q34 45 35 47q16 25 25 53q12 36 14 57q3 39 -2 70q-6 37 -23 74q-6 12 -6 20q3 24 33 37zM641 1544q25 -53 31 -98q7 -57 2 -98q-12 -93 -68 -179 q-50 -78 -145 -153l-51 33q-10 10 -11 12v12q4 18 13 25q19 19 37 43q28 37 34 47q16 25 25 53q12 36 14 57q3 39 -2 70q-7 40 -22 74q-6 12 -6 20q3 24 32 37z" />
<glyph unicode="&#x201e;" horiz-adv-x="763" d="M297 246q25 -52 31 -99q7 -57 2 -98q-12 -89 -68 -176q-54 -84 -145 -156l-54 35q-6 6 -8 10t-2 13q3 15 15 24q15 15 36 43q14 19 33 49q21 33 27 52q12 35 14 59q3 38 -2 68q-5 31 -24 73q-5 10 -5 23q3 22 33 35zM608 246q26 -53 31 -96q7 -58 2 -99q-12 -92 -68 -178 q-54 -84 -145 -156l-53 35q-4 4 -8 12q-2 4 -2 13q3 16 14 24q25 25 37 41q14 19 33 49q17 27 26 54q12 36 14 57q3 38 -2 68q-5 31 -24 73q-4 8 -4 23q3 22 33 35z" />
<glyph unicode="&#x2022;" horiz-adv-x="921" d="M78 610q9 78 49 148q41 72 96 121q60 54 129 82q74 30 152 30q80 0 145 -30t111 -82q47 -53 67 -121t11 -148q-10 -87 -47 -149q-44 -74 -97 -121t-133 -80q-76 -31 -151 -31q-77 0 -144 31t-110 80q-44 49 -66 121q-21 68 -12 149z" />
<glyph unicode="&#x2026;" d="M84 113q3 30 14 51q6 12 33 39q19 19 43 28q29 11 51 11q23 0 49 -11q24 -10 39 -28q16 -19 21 -39q7 -27 4 -51q-3 -26 -16 -52q-10 -20 -31 -41q-15 -15 -45 -26q-27 -10 -51 -10q-27 0 -50 10q-22 10 -36 26q-18 22 -23 41q-5 22 -2 52zM1137 113q3 24 16 51 q8 16 31 39q18 18 45 28q29 11 51 11q23 0 49 -11q21 -9 37 -28q19 -23 23 -39q7 -27 4 -51q-3 -23 -17 -52q-8 -16 -33 -41q-15 -15 -45 -26q-27 -10 -51 -10q-26 0 -49 10q-24 10 -37 26q-14 17 -20 41q-7 27 -4 52zM610 113q3 27 15 51q7 14 32 39q19 19 43 28 q29 11 52 11t49 -11q24 -10 39 -28t20 -39q7 -27 4 -51q-3 -26 -16 -52q-10 -20 -31 -41q-15 -15 -45 -26q-27 -10 -51 -10q-26 0 -49 10q-24 10 -37 26q-18 22 -23 41q-5 22 -2 52z" />
<glyph unicode="&#x202f;" horiz-adv-x="376" />
<glyph unicode="&#x2039;" horiz-adv-x="503" d="M53 530l4 25l303 397l58 -28q11 -6 18 -19t4 -24q-3 -20 -14 -33l-197 -268q-21 -28 -32 -37q18 -22 24 -37l129 -268q0 -1 3 -7t3 -10v-18q-4 -32 -32 -43l-64 -29z" />
<glyph unicode="&#x203a;" horiz-adv-x="499" d="M438 553l-2 -23l-305 -397l-55 29q-26 12 -23 41q3 17 15 35l194 268q13 21 33 37q-12 12 -23 37l-131 268q-9 17 -6 33q3 30 35 43l63 28z" />
<glyph unicode="&#x205f;" horiz-adv-x="470" />
<glyph unicode="&#x20ac;" horiz-adv-x="1228" d="M70 922h151q39 133 96 231t144 178q76 71 180 113q95 39 209 39q140 0 229 -51t152 -142l-72 -69q-15 -15 -18 -17q-9 -6 -23 -6q-19 0 -35 19q-10 12 -45 43q-28 25 -75 43q-52 20 -125 20q-149 0 -260 -102q-109 -100 -168 -299h559l-6 -58q-3 -17 -19 -33 q-14 -14 -41 -14h-520q-1 -7 -3 -20.5t-3 -20.5t-2 -21.5t-2 -21.5l-4 -31q-4 -20 -4 -30h479l-8 -58q-3 -16 -19 -32q-15 -15 -39 -15h-418q3 -209 91 -317q85 -105 233 -105q58 0 98 11q44 12 76 26q25 11 57 35q9 7 24.5 21t18.5 16q18 15 33 27q13 10 27 10q6 0 14 -4 q2 -1 12 -11l68 -71q-85 -105 -197 -162q-115 -59 -260 -59q-119 0 -209 41q-87 40 -151 116q-62 74 -92 183q-31 112 -31 241h-145l12 107h137q0 8 4 28l4 33q1 7 2 20.5t2 20.5t3.5 20.5t3.5 20.5h-138z" />
<glyph unicode="&#x2122;" horiz-adv-x="1456" d="M985 1135q1 -6 4 -15l4 -12q3 -12 6 -27q2 5 13 27q1 2 16 27l211 311q13 14 21 16q12 4 24 4h109l-74 -606h-113l45 375l19 76l-230 -344q-16 -29 -49 -29h-18q-31 0 -41 29l-146 342v-74l-47 -375h-112l73 606h109q17 0 25 -4q6 -3 16 -16zM602 1466l-12 -106h-184 l-62 -500h-129l61 500h-184l12 106h498z" />
<glyph unicode="&#x25fc;" horiz-adv-x="1034" d="M0 1034h1034v-1034h-1034v1034z" />
</font>
</defs>
</svg>
