<?xml version="1.0" standalone="no"?>
<!DOCTYPE svg PUBLIC "-//W3C//DTD SVG 1.1//EN" "http://www.w3.org/Graphics/SVG/1.1/DTD/svg11.dtd" >
<svg xmlns="http://www.w3.org/2000/svg" xmlns:xlink="http://www.w3.org/1999/xlink" version="1.1">
<metadata></metadata>
<defs>
<font id="aleolightitalic" horiz-adv-x="1544" >
<font-face units-per-em="2048" ascent="1649" descent="-399" />
<missing-glyph horiz-adv-x="446" />
<glyph unicode="&#xfb01;" horiz-adv-x="1294" d="M1233 1341q7 -20 4 -36q-3 -21 -12 -35q-8 -13 -25 -27q-14 -15 -31 -20q-18 -6 -34 -6q-20 0 -35 6q-12 5 -27 20q-5 5 -14 27q-7 17 -4 35q3 19 12 34q9 18 16 25q-91 56 -229 35q-102 -18 -168 -76q-98 -82 -119 -252l-10 -84h598l-113 -905q13 0 36 -1t32 -1 q11 0 26 -1t19 -1h21q37 -3 34 -37l-4 -41h-172h-98l10 82l103 831h-498l-113 -911q-12 -100 -47 -172q-38 -77 -88 -119q-57 -48 -131 -69q-81 -23 -164 -23v49q0 33 37 33q43 0 102 18q49 15 89 52q41 38 67 94q31 68 39 139l111 909l-142 9q-15 2 -21 7t-5 17l4 41h174 l10 88q12 95 49 170q36 73 96 127q63 57 138 82q85 29 176 29q188 0 282 -111l3 -4l2 -2q9 -11 14 -25z" />
<glyph unicode="&#xfb02;" horiz-adv-x="1402" d="M1317 66q14 0 14 -13l-2 -49q-17 -8 -47 -16q-24 -6 -55 -6q-57 0 -105 20q-22 11 -37 21q-23 19 -30 30q-29 37 -37 78q-9 49 -4 96l143 1162q-78 4 -115 8q-82 4 -108 4q-74 0 -141 -25t-111 -69q-49 -49 -78 -111q-30 -65 -39 -143l-8 -68h295l-10 -74h-291l-113 -909 q-12 -100 -47 -172q-38 -77 -88 -119q-57 -48 -131 -69q-81 -23 -164 -23v49q0 33 37 33q43 0 102 18q49 15 89 52q43 40 67 92q31 67 39 141l111 907l-142 9q-29 3 -26 26l4 39h174l8 68q14 100 47 168q40 82 94 133q63 60 138 88q87 33 178 33q46 0 71 -2q14 -1 38 -3.5 t34 -3.5q30 -2 66 -6q20 -2 51 -2h74l-150 -1229q-9 -81 25 -127q33 -45 116 -45q21 0 41 4q3 1 11.5 3t11.5 2z" />
<glyph horiz-adv-x="0" />
<glyph unicode="&#xd;" horiz-adv-x="385" />
<glyph horiz-adv-x="385" />
<glyph horiz-adv-x="385" />
<glyph unicode=" "  horiz-adv-x="446" />
<glyph unicode="&#x09;" horiz-adv-x="446" />
<glyph unicode="&#xa0;" horiz-adv-x="446" />
<glyph unicode="!" horiz-adv-x="442" d="M369 1450l-74 -586q-2 -14 -5 -43.5t-5 -44.5q-2 -12 -7.5 -40.5t-7.5 -43.5q-8 -61 -14 -90q-11 -58 -18 -102h-68q2 44 6 102q3 46 6 90q1 15 4 43t4 41q0 6 11 88l71 586h97zM53 80q3 16 13 37q7 15 24 28q23 18 31 21q24 8 39 8q17 0 37 -8q8 -3 26 -21 q11 -12 17 -28q7 -20 4 -37q-3 -18 -13 -39q-8 -16 -24 -29q-19 -15 -33 -20q-18 -6 -37 -6q-40 0 -63 26q-27 30 -21 68z" />
<glyph unicode="&#x22;" horiz-adv-x="661" d="M266 1450l-37 -299l-26 -158q-2 -13 -15 -26q-11 -11 -24 -11q-16 0 -23 11q-6 9 -6 26l10 158l37 299h84zM563 1450l-37 -299l-26 -158q-2 -13 -15 -26q-11 -11 -24 -11q-16 0 -23 11q-6 9 -6 26l10 158l37 299h84z" />
<glyph unicode="#" horiz-adv-x="1181" d="M733 455l-151 -455h-43q-15 0 -23 8q-9 9 -6 25q0 2 1 6.5t1 5.5l139 410h-305l-139 -414q-11 -25 -21 -33q-11 -8 -30 -8h-43l151 455h-188q-15 0 -21 6q-8 8 -6 22l2 11q0 2 4 14l4 16h224l133 400h-258l10 39q8 32 49 32h217l141 414q8 23 21 31q17 10 31 10h43 l-154 -455h305l154 455h43q32 0 29 -33q0 -3 -2.5 -7t-2.5 -5l-139 -410h232l-11 -37q-9 -34 -51 -34h-188l-133 -400h231q30 0 27 -24l-11 -45h-266zM365 524h305l133 400h-305z" />
<glyph unicode="$" horiz-adv-x="1075" d="M403 -16q-127 6 -221 57q-91 49 -155 131l32 41q16 16 31 16q9 0 21 -12q4 -3 14 -12.5t16 -16.5q21 -21 41 -36q30 -22 58 -37q48 -25 77 -33q48 -13 101 -16l112 651q-67 21 -131 49q-67 29 -108 68q-51 47 -72 102q-24 62 -12 154q9 70 43 137q32 62 92 116 q61 54 139 84q85 32 176 35l31 172q3 14 12 23q10 10 23 10h37l-37 -207q99 -6 176 -45q73 -37 129 -102l-27 -35q-12 -18 -28 -18q-13 0 -31 18q-14 14 -47 37t-74 39q-46 18 -112 24l-101 -585q16 -5 46.5 -16.5t45.5 -16.5q34 -11 88 -37q47 -23 78 -47q37 -29 58 -62 q25 -40 34 -84q9 -46 3 -108q-13 -96 -50 -166q-43 -82 -102 -135q-65 -59 -150 -96q-79 -35 -190 -41l-39 -215q-4 -17 -10 -23q-8 -8 -23 -8h-37zM866 408q8 62 -12 114q-18 47 -57 80q-40 34 -92 55q-68 27 -113 41l-109 -632q79 6 150 34q67 27 117 74q48 45 77 105 q30 61 39 129zM299 1098q-9 -65 8 -109q19 -48 53 -78q40 -34 82 -55q47 -23 103 -41l98 565q-75 -3 -139 -28q-56 -22 -105 -64q-42 -36 -67 -88q-28 -58 -33 -102z" />
<glyph unicode="%" horiz-adv-x="1495" d="M713 1102q-14 -101 -43 -158q-35 -67 -80 -113q-43 -43 -107 -69q-56 -23 -118 -23q-67 0 -117 23q-51 23 -88 69q-36 44 -51 113q-16 74 -5 158q12 88 43 158q29 65 78 114q41 41 107 68q58 24 121 24t116 -24t88 -68q37 -46 52 -114q16 -71 4 -158zM635 1102 q10 89 0 135q-12 54 -39 92q-25 35 -66 53q-38 17 -86 17q-47 0 -88 -17q-46 -19 -77 -53q-42 -46 -62 -92q-27 -62 -35 -135q-9 -83 2 -135q13 -59 37 -93q28 -39 66 -53q36 -16 86 -16q51 0 90 16q43 18 78 53q37 37 61 93q24 55 33 135zM1305 1430q4 6 16 14q9 6 22 6h70 l-1216 -1432q-15 -18 -37 -18h-70zM1403 344q-14 -101 -43 -158q-33 -65 -80 -112q-42 -42 -106 -68q-54 -22 -119 -22q-69 0 -117 22q-53 24 -88 68q-36 45 -51 112q-16 71 -4 158q12 91 43 160q28 63 77 112q44 44 107 70q56 23 121 23q67 0 117 -23t88 -70 q36 -45 51 -112q16 -72 4 -160zM1325 344q10 89 0 135q-12 57 -39 94t-65 54q-36 16 -84 16q-51 0 -90 -16q-49 -20 -80 -54q-37 -40 -60 -94q-27 -62 -35 -135q-9 -83 2 -135q12 -55 37 -90q28 -39 66 -53q46 -17 86 -17q41 0 90 17q43 15 78 53q38 41 59 90q27 62 35 135z " />
<glyph unicode="&#x26;" horiz-adv-x="1355" d="M760 1466q69 0 127 -24q61 -25 100 -64q42 -42 62 -92t14 -110q-6 -1 -15.5 -4t-11.5 -3q-16 -4 -37 -4q-8 0 -14 6q-5 5 -8 17q-2 22 -16 61q-11 31 -39 66q-26 33 -68 53q-43 21 -102 21q-60 0 -115 -19q-50 -17 -92 -53t-66 -82q-28 -54 -33 -102q-10 -89 23 -162 q35 -77 113 -164l401 -451q52 68 92 154q36 76 55 154q3 12 11 20t18 8h58q-15 -95 -62 -198t-121 -195l269 -299h-93q-12 0 -28 4q-12 3 -25 19l-184 206q-45 -45 -115 -98q-66 -50 -129 -78q-83 -37 -143 -51q-76 -18 -158 -18q-76 0 -147 24q-69 24 -125 76 q-53 50 -80 123q-28 77 -17 164q9 70 45 141q36 70 86 123q45 48 123 98q77 50 146 74q-65 87 -90 158q-27 77 -15 165q10 79 41 134q29 52 88 104q55 49 123 72q76 26 154 26zM160 377q-9 -81 14 -137q25 -61 66 -99q40 -38 100 -57q65 -21 113 -21q64 0 137 17 q72 17 127 45q57 29 110 70q52 40 97 88l-414 462q-9 9 -10 11q-73 -28 -131 -68q-61 -42 -103 -90q-46 -52 -71 -104q-30 -61 -35 -117z" />
<glyph unicode="'" horiz-adv-x="364" d="M266 1450l-37 -299l-26 -158q-2 -13 -15 -26q-11 -11 -24 -11q-16 0 -23 11q-6 9 -6 26l10 158l37 299h84z" />
<glyph unicode="(" horiz-adv-x="577" d="M182 645q-28 -240 8 -440q38 -212 136 -406q4 -8 4 -22q-3 -17 -19 -23l-45 -26q-61 113 -104 235t-60 225q-18 111 -18 226q0 135 12 231q14 111 43 234q24 100 76 225q44 105 115 225q57 96 162 234l38 -27q14 -7 11 -20q0 -11 -9 -23q-143 -191 -235 -408 q-88 -207 -115 -440z" />
<glyph unicode=")" horiz-adv-x="589" d="M397 645q28 240 -8 440q-39 218 -135 408q-4 8 -4 23q3 15 16 20l47 27q59 -109 103 -234q41 -117 59 -225q21 -129 21 -225q0 -114 -15 -234q-13 -105 -43 -231q-24 -103 -76 -226q-46 -111 -114 -225q-61 -104 -160 -233l-41 24q-14 7 -10 25q0 9 8 20q147 197 236 406 q89 210 116 440z" />
<glyph unicode="*" horiz-adv-x="761" d="M326 918l26 219q3 18 6 30q0 2 15 31q-11 -13 -25 -24q-5 -4 -16 -10t-13 -7l-206 -113l-19 46l205 112q14 8 29 12q2 0 13.5 4t18.5 5q-21 3 -30 8q-1 1 -10.5 4.5t-14.5 7.5l-182 113l33 47l180 -113q10 -6 24 -20q9 -9 21 -27q-3 7 -8 35q-3 14 0 31l26 219h54 l-27 -217q-3 -18 -6 -33q-2 -8 -14 -33q20 24 24 27q14 10 29 18l207 111l20 -45l-205 -111q-20 -12 -30 -16q-2 -1 -33 -6q21 -3 31 -6q7 -2 26 -13l180 -114l-30 -46l-183 113q-8 5 -22 19q-15 15 -21 24q3 -15 7 -33q3 -11 0 -28l-27 -221h-53z" />
<glyph unicode="+" horiz-adv-x="1128" d="M668 1186l-58 -461h443l-9 -76h-442l-57 -465h-80l57 465h-440l8 76h440l58 461h80z" />
<glyph unicode="," horiz-adv-x="462" d="M143 86q3 34 33 61t68 27q43 0 65 -31q21 -30 15 -80q-4 -27 -23 -83q-11 -31 -41 -86q-20 -36 -59 -82q-27 -32 -72 -70l-14 14q-6 9 -6 19l4 8q2 4 8 10q4 3 8.5 7.5t11.5 12t11 11.5q14 14 36 47q33 49 37 59q18 42 25 70q-8 -4 -14 -4h-17q-38 0 -59 24 q-23 26 -17 66z" />
<glyph unicode="-" horiz-adv-x="743" d="M141 649h475l-10 -84h-475z" />
<glyph unicode="." horiz-adv-x="450" d="M117 78q3 19 12 37q8 17 25 30q24 19 30 21q24 8 39 8q17 0 37 -8q10 -4 27 -21q9 -9 16 -30q7 -20 4 -37q-3 -18 -12 -37q-7 -15 -25 -29q-20 -16 -32 -20q-24 -8 -37 -8q-39 0 -64 28q-26 29 -20 66z" />
<glyph unicode="/" horiz-adv-x="1009" d="M143 -45q-9 -22 -28 -31q-20 -10 -35 -10h-39l825 1538q22 39 60 39h41z" />
<glyph unicode="0" horiz-adv-x="1241" d="M1139 725q-24 -194 -82 -330q-61 -145 -139 -231q-83 -93 -183 -135q-106 -45 -207 -45q-104 0 -196 45q-90 44 -148 135q-60 94 -84 231q-24 139 0 330q24 194 82 330q61 143 140 231q83 93 180 135q102 45 209 45q104 0 196 -45q90 -44 148 -135q60 -94 84 -231 q24 -139 0 -330zM1036 725q21 179 4 301q-18 124 -65 205q-46 78 -119 117q-68 36 -156 36q-89 0 -165 -36q-78 -37 -146 -117t-117 -205q-50 -128 -71 -301q-21 -174 -2 -301q18 -125 65 -205q44 -75 119 -115q68 -36 156 -36q87 0 163 36q84 40 148 115q66 77 117 205 q47 118 69 301z" />
<glyph unicode="1" horiz-adv-x="847" d="M793 0h-748l4 33q3 27 37 30q2 0 12.5 1t30.5 2t41 2q98 4 145 6l72 4l145 1173q4 40 11 74l-355 -285q-11 -8 -24 -8q-16 0 -25 12l-24 41l463 369h75l-168 -1376q75 -3 143.5 -7t100.5 -6t37 -2q34 -3 31 -30z" />
<glyph unicode="2" horiz-adv-x="1153" d="M965 274h39h10l-27 -217l-2 -14l-6 -43h-934l4 35q0 6 8 22q4 8 17 21l557 500q79 72 127 120q56 56 106 119q44 55 76 121q27 56 37 133q9 83 -8 139q-18 58 -60 97q-43 40 -96 57q-56 18 -119 18q-70 0 -129 -20q-58 -20 -110 -59q-45 -34 -84 -89q-35 -49 -54 -114 q-14 -35 -47 -35h-4h-6l-47 8q23 89 72 166q47 75 110 123q66 51 146 78q71 24 168 24q88 0 155 -22q71 -23 125 -74q53 -50 76 -121q24 -73 12 -172q-9 -81 -43 -151q-37 -76 -86 -136q-56 -68 -114 -124q-15 -14 -136 -125l-510 -463q35 9 70 12q50 4 72 4h557 q3 15 7.5 39.5t6.5 34.5t4.5 24.5t3.5 18.5l4 16q9 49 52 49z" />
<glyph unicode="3" horiz-adv-x="1122" d="M676 1466q82 0 153 -24q73 -25 121 -70q50 -47 74 -115q26 -72 14 -157q-8 -63 -39 -127q-28 -58 -71 -101q-36 -36 -101 -71q-57 -31 -118 -45q155 -30 227 -123q71 -93 53 -236q-12 -90 -57 -164q-50 -81 -115 -133q-72 -57 -158 -86q-89 -30 -188 -30q-127 0 -201 32 q-83 36 -127 86q-45 51 -67 121q-23 74 -31 131l39 17q8 4 25 4q14 0 20 -4q11 -8 14 -21l4 -20q2 -12 13 -45q12 -36 22 -56q17 -34 37 -59q21 -26 60 -51q41 -26 83 -39q46 -14 119 -14q91 0 164 30q74 30 127 80t82 107q32 62 37 112q9 67 -6 125q-14 54 -58 98 q-41 41 -120 66q-80 25 -197 25l8 69q97 3 170 27q83 27 127 61q54 42 84 97q33 61 41 120q9 76 -10 134t-58 94t-92 53q-56 18 -118 18q-74 0 -130 -20q-62 -22 -108 -57t-84 -88q-36 -50 -57 -115q-12 -37 -43 -37h-11l-49 8q24 93 72 168q47 75 110 123q69 53 146 76 q86 26 168 26z" />
<glyph unicode="4" horiz-adv-x="1185" d="M868 494h265l-7 -54q0 -10 -8 -18q-6 -6 -22 -6h-238l-51 -416h-88l51 416h-682q-16 0 -22 6q-9 9 -11 18l-2 47l846 963h86zM872 1253l7 37q4 26 8 39l-727 -835h620z" />
<glyph unicode="5" horiz-adv-x="1101" d="M1038 1407q-3 -23 -18 -35t-45 -12h-524l-146 -483q70 18 133 24q82 8 119 8q107 0 195 -32q76 -28 133 -91q50 -56 69 -139q20 -87 9 -172q-16 -119 -66 -207q-51 -89 -127 -153q-77 -65 -170 -99q-88 -32 -199 -32q-68 0 -112 10q-59 13 -99 29q-43 16 -84 43 q-43 28 -65 47l35 39q13 16 30 16q11 0 37 -16q22 -14 62 -33t88 -33q56 -16 123 -16q88 0 162 26q70 25 135 80q59 50 100 125q38 69 51 170q9 78 -6 143q-16 68 -55 113q-44 50 -111 74q-73 26 -164 26q-50 0 -125 -10q-58 -8 -143 -31l-59 21l192 643h651z" />
<glyph unicode="6" horiz-adv-x="1079" d="M623 866q97 0 170 -30q76 -31 125 -86q50 -56 71 -136q22 -82 10 -178q-12 -103 -57 -182q-45 -81 -117 -143q-69 -60 -161 -95q-85 -32 -199 -32q-106 0 -180 32q-82 36 -133 95q-54 63 -74 149t-8 201q8 77 67 192q55 107 170 240l461 532q22 25 55 25h86l-501 -565 q-7 -9 -31.5 -36.5t-36.5 -41.5q-48 -60 -57 -74q64 58 155 98q80 35 185 35zM162 438q-9 -82 6 -151q14 -65 57 -117q43 -53 103 -78q62 -26 147 -26q91 0 162 26q74 27 129 76q56 50 90 117q37 72 45 145q9 85 -8 150q-19 71 -59 114q-46 49 -105 72q-64 25 -141 25 q-90 0 -166 -31q-68 -28 -129 -82q-57 -50 -90 -113q-31 -59 -41 -127z" />
<glyph unicode="7" horiz-adv-x="1140" d="M229 1448l858 2l-6 -45q-5 -29 -6 -31q-4 -8 -12 -20l-825 -1317q-11 -19 -25 -27q-17 -10 -39 -10h-65l829 1311q15 27 37 49h-762q-2 -13 -23 -137q-9 -49 -51 -49h-49l27 212l8 62h104z" />
<glyph unicode="8" horiz-adv-x="1128" d="M483 -16q-100 0 -186 28t-139 78q-59 55 -82 127q-26 80 -15 166q8 74 41 141q34 70 78 111q48 45 111 76q68 33 133 47q-57 17 -107 49q-43 28 -73 76q-27 44 -39 98q-10 49 -4 115q9 77 47 145q38 69 98 117q69 56 141 80q82 28 179 28q94 0 170 -28q66 -24 122 -80 q49 -49 70 -117q20 -63 10 -145q-6 -59 -30 -115q-24 -55 -64 -98q-47 -50 -92 -76q-54 -31 -119 -49q61 -14 123 -47q51 -28 90 -76q34 -43 51 -111q16 -64 7 -141q-12 -92 -56 -166t-112 -127q-63 -49 -158 -78q-92 -28 -195 -28zM494 61q85 0 153 23q72 25 125 66 q52 41 88 102q34 57 43 133q12 96 -14 158q-25 60 -78 100q-55 41 -113 55q-64 15 -125 15t-129 -15q-63 -14 -127 -55q-57 -37 -100 -100q-43 -64 -55 -158q-9 -72 10 -133q17 -55 64 -102q41 -41 108 -66q62 -23 150 -23zM584 793q80 0 145 24q64 24 111 68q46 43 69 96 q28 65 33 113q7 69 -6 116q-15 56 -51 95q-38 41 -94 61q-64 23 -134 23t-141 -23q-61 -20 -108 -61q-52 -45 -76 -95q-30 -61 -35 -116q-6 -63 4 -111q12 -53 47 -98q36 -45 92 -68q59 -24 144 -24z" />
<glyph unicode="9" horiz-adv-x="1058" d="M451 616q-92 0 -160 29q-74 32 -121 84q-49 55 -70 131q-22 79 -10 170q12 89 57 172q41 74 113 137q68 59 156 93q87 34 190 34q101 0 172 -32q79 -36 127 -95q52 -65 72 -143q22 -85 10 -184q-6 -57 -24 -109q-12 -36 -50 -102q-35 -61 -67 -105q-36 -50 -88 -114 l-449 -557q-19 -25 -53 -25h-88l502 598q15 17 38.5 47.5t26.5 34.5q53 66 58 74q-69 -66 -156 -103q-83 -35 -186 -35zM895 1028q9 83 -8 146q-19 67 -58 112q-42 48 -100 72q-63 26 -135 26q-80 0 -150 -24q-62 -21 -122 -74q-59 -53 -89 -108q-36 -68 -45 -142 q-8 -70 9 -143q15 -67 55 -109q42 -45 98 -67q64 -25 137 -25q92 0 160 29q77 33 125 78q58 55 84 108q34 70 39 121z" />
<glyph unicode=":" horiz-adv-x="481" d="M92 78q3 19 12 37q8 17 25 30q23 18 31 21q24 8 39 8q17 0 37 -8q8 -3 26 -21q10 -11 17 -30q7 -20 4 -37q-2 -15 -13 -37q-8 -16 -24 -29q-19 -15 -33 -20q-24 -8 -37 -8q-38 0 -63 28q-26 30 -21 66zM193 895q3 19 12 37q10 20 24 31q21 17 31 20q24 8 39 8q17 0 37 -8 q15 -9 26 -20q10 -10 17 -31q7 -20 4 -37q-3 -22 -12 -37q-9 -18 -25 -31q-19 -15 -33 -20q-18 -6 -37 -6q-40 0 -63 26q-26 29 -20 68z" />
<glyph unicode=";" horiz-adv-x="497" d="M211 895q3 19 12 37t25 31q21 17 31 20q24 8 38 8q17 0 37 -8q17 -10 27 -20q9 -9 16 -31q7 -20 4 -37q-3 -22 -12 -37q-10 -20 -24 -31q-19 -15 -33 -20q-18 -6 -37 -6q-41 0 -64 26q-26 29 -20 68zM117 88q3 32 33 59t67 27q44 0 66 -31q20 -28 14 -77q-4 -32 -23 -86 q-11 -31 -41 -86q-17 -30 -59 -80q-33 -39 -72 -72l-14 14q-6 9 -6 19q0 2 4 10l8 8q4 3 8.5 7.5t11.5 12t11 11.5q17 17 37 47q33 49 37 59q16 37 24 70q-4 -2 -14 -2q-3 0 -8 -1t-8 -1q-36 0 -60 27q-22 25 -16 65z" />
<glyph unicode="&#x3c;" horiz-adv-x="987" d="M92 709l815 393l-8 -66q0 -8 -8 -20q-4 -5 -23 -17l-602 -286q-38 -18 -78 -27q46 -9 72 -24l531 -289q11 -7 18 -17q4 -6 4 -18l-8 -68l-719 398z" />
<glyph unicode="=" horiz-adv-x="1130" d="M133 569h846l-8 -75h-848zM172 889h846l-8 -74h-848z" />
<glyph unicode="&#x3e;" horiz-adv-x="966" d="M70 270l6 68q0 5 10 20q7 11 23 17l602 287q46 20 75 26q-5 2 -18 5t-18 5q-24 10 -33 15l-533 286q-25 16 -22 37l8 66l721 -393l-6 -41z" />
<glyph unicode="?" horiz-adv-x="802" d="M72 1323q34 31 69 53q49 31 82 45q60 25 94 33q49 12 109 12q67 0 131 -22q61 -21 105 -62q42 -39 63 -98q21 -58 12 -129q-9 -76 -41 -135q-29 -54 -73 -98q-49 -49 -88 -74q-35 -26 -89 -62q-22 -15 -69 -57q-31 -28 -37 -63l-33 -168h-65l16 176v4q6 44 33 74t69 61 q58 43 86 61q44 29 89 70q45 45 71 88q30 49 39 119q6 53 -10 98q-15 45 -49 74q-39 34 -80 47q-43 14 -98 14q-72 0 -119 -16q-38 -13 -88 -41q-42 -23 -60 -39q-21 -18 -28 -18q-15 0 -21 12zM125 78q3 19 12 37q8 17 25 30q23 18 31 21q24 8 38 8q17 0 37 -8 q10 -4 27 -21q9 -9 16 -30q7 -20 4 -37q-3 -18 -12 -37q-8 -16 -24 -29q-19 -15 -33 -20q-24 -8 -37 -8q-39 0 -64 28q-26 29 -20 66z" />
<glyph unicode="@" horiz-adv-x="1650" d="M1122 193q-93 0 -131 47q-39 48 -30 137q-65 -91 -146 -137q-76 -43 -162 -43q-51 0 -96 20q-38 17 -63 53q-21 30 -31 82q-8 44 -2 103q9 83 55 174q44 87 117 157q78 74 170 115q102 45 217 45q50 0 102 -10q43 -8 82 -27l-137 -356q-23 -60 -29 -84q-12 -51 -14 -68 q-5 -43 4 -71q11 -33 25 -45q22 -18 41 -23q16 -4 49 -4q60 0 117 29q47 24 104 88q44 49 82 137q32 75 45 182q19 158 -16 264q-39 118 -113 189q-77 74 -184 110q-110 37 -238 37q-146 0 -272 -53q-139 -58 -240 -151q-103 -95 -178 -232q-74 -135 -92 -297 q-21 -183 18 -317q42 -142 129 -232q85 -88 215 -139q125 -49 277 -49q142 0 280 37q135 36 240 100q9 6 18 6q16 0 19 -16l12 -37q-120 -74 -268 -117q-143 -41 -310 -41q-172 0 -309 54q-145 57 -235 157q-102 113 -142 252q-42 146 -18 342q22 179 98 320q78 144 197 254 q114 105 264 168q146 61 305 61q139 0 258 -43q121 -44 207 -127q86 -86 129 -211q44 -126 23 -289q-11 -100 -56 -202q-40 -91 -100 -160q-55 -63 -133 -103q-71 -36 -154 -36zM680 264q38 0 78 12q33 10 82 46q33 25 78 86q41 57 71 141l121 315q-3 1 -21.5 6.5t-27.5 6.5 q-32 4 -62 4q-89 0 -172 -39q-79 -37 -139 -97q-50 -50 -98 -137q-40 -72 -49 -151q-5 -33 2 -76q7 -42 22 -62q19 -26 45 -40q27 -15 70 -15z" />
<glyph unicode="A" d="M1432 88q37 -3 34 -41l-6 -47h-65h-43h-39h-13h-192l6 47q6 38 51 41q1 0 5 1t8 1q2 0 12 1t18 1q32 0 52 2l-101 355l-6 26h-692l-12 -26l-187 -355q20 -2 51 -2q8 0 17.5 -1t11.5 -1q4 0 8 -1l4 -1q47 -3 41 -41l-4 -47h-192h-15h-39h-41h-67l6 47q3 38 45 41l66 6 l720 1356h105l387 -1356zM874 1257l-370 -704h626l-198 707q-4 14 -8 38q-10 33 -11 45q-9 -24 -18 -45q-4 -8 -12 -23.5t-9 -17.5z" />
<glyph unicode="B" horiz-adv-x="1308" d="M1151 629q81 -90 63 -234q-13 -98 -53 -166q-43 -73 -110 -125q-61 -48 -164 -77q-95 -27 -209 -27h-471h-172l4 41q3 34 45 37h20q4 0 19.5 1t26.5 1q9 0 31.5 1t35.5 1l158 1286q-13 0 -35 1t-31 1q-11 0 -26 1t-19 1h-20q-40 3 -37 37l6 39h172h418q119 0 211 -25 q88 -24 141 -71q53 -50 74 -117q20 -63 10 -156q-6 -57 -33 -110q-26 -51 -71 -99q-36 -39 -101 -77q-56 -33 -133 -52q171 -24 250 -112zM479 1366l-73 -596h315q91 0 174 27q73 24 125 67q55 46 80 94q29 57 35 111q18 144 -66 221q-85 76 -276 76h-314zM985 166 q107 82 125 231q9 67 -10 125q-15 46 -64 92q-46 40 -114 60q-67 20 -160 20h-365l-75 -610h364q192 0 299 82z" />
<glyph unicode="C" horiz-adv-x="1341" d="M1176 236l34 -43q-49 -46 -108 -87q-62 -40 -125 -65q-73 -29 -143 -43q-71 -14 -168 -14q-148 0 -269 53q-122 53 -196 149q-78 100 -111 234q-35 139 -14 305q20 162 90 301q66 132 174 234q99 94 242 151q132 53 295 53q211 0 450 -102l-41 -328h-49q-42 0 -39 49 q1 7 2.5 33.5t5.5 81t8 109.5q-143 67 -348 67q-135 0 -248 -45q-118 -47 -206 -129q-95 -91 -150 -205q-60 -124 -78 -270q-18 -156 11 -274q32 -126 96 -205q70 -85 168 -127q99 -45 225 -45q71 0 139 10q62 9 117 31q56 23 100 49q49 30 97 69q2 1 5 4.5t5 4.5q4 2 10 2 q11 0 19 -8z" />
<glyph unicode="D" horiz-adv-x="1562" d="M1477 1026q33 -131 12 -301q-21 -171 -86 -301q-67 -133 -170 -229q-104 -97 -236 -146q-131 -49 -288 -49h-502h-174l6 41q3 34 45 37h18q4 0 20.5 1t27.5 1q9 0 31.5 1t35.5 1l158 1286q-13 0 -36 1t-32 1q-11 0 -26 1t-19 1h-18q-40 3 -37 37l4 39h174h502 q157 0 276 -49q120 -49 201 -146q79 -94 113 -227zM1307 453q55 119 73 272t-8 270q-27 119 -94 201t-168 125t-233 43h-398l-157 -1280h397q131 0 244 43q117 44 200 125q92 89 144 201z" />
<glyph unicode="E" horiz-adv-x="1273" d="M385 1448h868l-12 -86l-24 -213h-52q-40 0 -37 49q5 46 13 164h-662l-71 -586h575l-10 -84h-576l-75 -604h661q2 19 12 70q2 12 5 26.5t5 23.5t3 15q1 5 2 11.5t1.5 10t0.5 5.5q9 51 49 51h51l-27 -213l-10 -88h-868h-174l6 41q3 34 45 37h18q4 0 20.5 1t27.5 1 q9 0 31.5 1t35.5 1l158 1286q-13 0 -36 1t-32 1q-11 0 -26 1t-19 1h-18q-40 3 -37 37l4 39h174z" />
<glyph unicode="F" horiz-adv-x="1288" d="M1253 1448h13l-37 -299h-49q-42 0 -39 49q0 17 12 164h-674l-76 -608h543l-12 -88h-541l-71 -584q13 0 35.5 -1t31.5 -1q11 0 26 -1t19 -1h19q39 -3 36 -37l-6 -41h-172h-104h-174l6 41q3 34 45 37h18q4 0 20.5 1t27.5 1q9 0 31.5 1t35.5 1l158 1286q-13 0 -36 1t-32 1 q-11 0 -26 1t-19 1h-18q-40 3 -37 37l4 39h174h817h51z" />
<glyph unicode="G" horiz-adv-x="1425" d="M920 657h401l-64 -514q-55 -35 -120 -67q-63 -31 -131 -51q-71 -19 -148 -31q-85 -10 -170 -10q-154 0 -278 53q-130 55 -205 149q-82 102 -115 234q-35 139 -14 305t90 305q70 143 174 234q114 100 246 149q137 51 309 51q121 0 258 -28q144 -29 238 -74l-39 -328h-49 q-42 0 -39 49q1 6 2.5 31t5.5 80.5t8 110.5q-138 69 -399 69q-144 0 -260 -45q-119 -46 -211 -129q-89 -81 -150 -205q-58 -119 -76 -270q-17 -146 11 -274q26 -119 98 -207q67 -81 174 -129q102 -45 240 -45q75 0 137 6q56 5 117 22q33 9 104 39q38 16 102 49l47 392h-278 q-10 0 -16 6q-7 7 -7 16z" />
<glyph unicode="H" horiz-adv-x="1693" d="M1624 1372h-18q-4 0 -19 -1t-26 -1q-9 0 -32 -1t-36 -1l-158 -1286q13 0 35 -1t31 -1q11 0 26 -1t19 -1h20q38 -3 35 -37l-4 -41h-172h-106h-172l4 41q3 34 45 37h20q4 0 19 1t26 1q9 0 32 1t36 1l76 612h-908l-75 -612q13 0 35.5 -1t31.5 -1q11 0 26 -1t19 -1h19 q39 -3 36 -37l-6 -41h-172h-104h-174l6 41q3 34 45 37h18q4 0 20.5 1t27.5 1q9 0 31.5 1t35.5 1l158 1286q-13 0 -36 1t-32 1q-11 0 -26 1t-19 1h-18q-40 3 -37 37l4 39h174h104h173l-5 -39q-3 -34 -45 -37h-20q-4 0 -19 -1t-26 -1q-9 0 -32 -1t-36 -1l-71 -594h907l71 594 q-13 0 -34.5 1t-30.5 1q-11 0 -26 1t-19 1h-21q-39 3 -36 37l6 39h172h106h172l-6 -39q-3 -34 -45 -37z" />
<glyph unicode="I" horiz-adv-x="679" d="M612 1372h-20q-4 0 -19 -1t-26 -1q-9 0 -32 -1t-36 -1l-157 -1286q13 0 35.5 -1t31.5 -1q11 0 26 -1t19 -1h19q39 -3 36 -37l-6 -41h-172h-104h-174l6 41q3 34 45 37h18q4 0 20.5 1t27.5 1q9 0 31.5 1t35.5 1l158 1286q-13 0 -36 1t-32 1q-11 0 -26 1t-19 1h-18 q-40 3 -37 37l4 41h174h104h173l-5 -41q-3 -34 -45 -37z" />
<glyph unicode="J" horiz-adv-x="1030" d="M840 1450h172l-6 -41q-3 -34 -45 -37h-19q-4 0 -19 -1t-26 -1q-9 0 -32 -1t-36 -1l-108 -885q-16 -128 -57 -215q-45 -95 -105 -155t-149 -97q-88 -32 -185 -32q-30 0 -92 8q-37 5 -94 22q1 5 3 14.5t3 14.5t3 14.5t3 14.5q3 9 10 16q6 6 21 6q6 0 22 -4q14 -4 29 -6 q5 -1 19 -4t22 -4q28 -4 53 -4q79 0 144 24q61 23 114 76q49 49 84 127q32 72 45 182l109 887q-13 0 -36 1t-34 1q-13 0 -30.5 1t-22.5 1h-22q-40 3 -37 37l6 41h186h107z" />
<glyph unicode="K" horiz-adv-x="1470" d="M1286 78q40 -3 37 -37l-6 -41h-43h-84h-27h-8h-272l4 41q3 34 45 37h26h62q13 0 35.5 1t31.5 1l-493 575q-9 12 -16 19t-21 14q-9 4 -27 8q-10 2 -41 2h-92l-75 -616q13 0 34.5 -1t30.5 -1q11 0 26 -1t19 -1h21q37 -3 34 -37l-4 -41h-172h-104h-174l6 41q3 34 45 37h18 q4 0 20.5 1t27.5 1q9 0 31.5 1t35.5 1l158 1288q-13 0 -36 1t-32 1q-11 0 -26 1t-19 1h-18q-40 3 -37 37l4 39h174h104h173l-7 -39q-3 -34 -45 -37h-18q-4 0 -19 -1t-26 -1q-9 0 -32 -1t-36 -1l-71 -590h86q22 0 32 2q3 0 27 6q4 2 12.5 5.5t12.5 5.5t22 20l606 551h-65 q-14 0 -33 1t-25 1h-24q-40 3 -37 37l6 41h262h19h143l-4 -41q-3 -34 -45 -37h-12q-2 0 -11 -1t-16 -1h-39l-625 -571q-13 -13 -38 -33q-14 -11 -35 -18q17 -5 35 -19q15 -12 30 -33l516 -616q7 0 20 -1t19 -1h27h12z" />
<glyph unicode="L" horiz-adv-x="1138" d="M999 270h9h41l-19 -149l-10 -82l-4 -39h-19h-18h-772h-174l6 41q3 34 45 37h18q4 0 20.5 1t27.5 1q9 0 31.5 1t35.5 1l158 1286q-13 0 -36 1t-32 1q-11 0 -26 1t-19 1h-18q-40 3 -37 37l4 39h174h102h175l-7 -39q-3 -34 -45 -37h-18q-4 0 -19 -1t-26 -1q-9 0 -32 -1 t-36 -1l-157 -1278h600q3 24 14 72q2 10 4.5 23.5t3.5 17.5q4 16 4 18q9 49 51 49z" />
<glyph unicode="M" horiz-adv-x="2007" d="M1937 1372h-18q-4 0 -19 -1t-26 -1q-9 0 -32 -1t-36 -1l-157 -1286q13 0 34.5 -1t30.5 -1q11 0 26 -1t19 -1h21q38 -3 35 -37l-5 -41h-172h-92h-178l6 41q3 34 45 37h21q4 0 20 1t27 1q9 0 32.5 1t36.5 1l142 1153q2 16 10 57l-696 -1013q-18 -27 -43 -27h-17 q-27 0 -39 27l-460 1013q0 -21 -4 -57l-142 -1153q13 0 36 -1t32 -1q11 0 27 -1t20 -1h20q40 -3 37 -37l-4 -41h-178h-90h-174l6 41q3 34 45 37h18q4 0 20.5 1t27.5 1q9 0 31.5 1t35.5 1l158 1286q-13 0 -36 1t-32 1q-11 0 -26 1t-19 1h-18q-40 3 -37 37l4 39h174h72 q16 0 22 -2q8 -3 15 -16l460 -1008q14 -30 19 -62q3 5 9 16.5t9 16.5l19 31l692 1006q10 13 18 16q6 2 23 2h74h172l-7 -39q-3 -34 -45 -37z" />
<glyph unicode="N" horiz-adv-x="1693" d="M1503 1448h172l-6 -39q-3 -34 -45 -37h-18q-4 0 -19 -1t-26 -1q-9 0 -32 -1t-36 -1l-168 -1368h-51q-24 0 -35 20l-788 1258q0 -14 -5 -59l-139 -1137q13 0 36 -1t32 -1q11 0 27 -1t20 -1h20q40 -3 37 -37l-4 -41h-178h-90h-174l6 41q3 34 45 37h18q4 0 20.5 1t27.5 1 q9 0 31.5 1t35.5 1l158 1286q-13 0 -36 1t-32 1q-11 0 -26 1t-19 1h-18q-40 3 -37 37l4 41h174h51q9 0 21 -4q10 -3 16 -16l784 -1256q0 14 5 59l139 1135q-13 0 -36 1t-32 1q-11 0 -28 1t-21 1h-20q-38 3 -35 37l4 39h178h92z" />
<glyph unicode="O" horiz-adv-x="1529" d="M1458 725q-21 -171 -88 -305q-70 -139 -170 -234q-102 -96 -235 -149t-289 -53q-152 0 -273 53q-124 54 -200 149q-78 97 -113 234q-35 136 -14 305q21 170 88 303q68 136 172 234q106 100 235 151q133 53 287 53t275 -53t200 -151q78 -97 113 -234q34 -132 12 -303z M1350 725q18 151 -9 272q-27 119 -94 205t-168 129q-106 45 -233 45q-124 0 -242 -45q-101 -39 -198 -129q-84 -79 -146 -205q-58 -118 -76 -272q-18 -152 9 -272q28 -124 94 -205q71 -87 170 -129q101 -43 229 -43q133 0 246 43q106 41 198 129q89 86 144 205 q59 128 76 272z" />
<glyph unicode="P" horiz-adv-x="1236" d="M1108 1337q115 -109 90 -319q-12 -98 -57 -174q-46 -79 -119 -137q-69 -55 -172 -91q-106 -32 -219 -32h-248l-61 -502q13 0 34.5 -1t30.5 -1q11 0 26 -1t19 -1h21q37 -3 34 -37l-4 -41h-172h-104h-174l6 41q3 34 45 37h18q4 0 20.5 1t27.5 1q9 0 31.5 1t35.5 1l158 1286 q-13 0 -36 1t-32 1q-11 0 -26 1t-19 1h-18q-40 3 -37 37l4 39h174h352q254 0 371 -111zM1049 879q36 61 45 141q21 166 -72 256t-295 90h-248l-86 -698h248q99 0 176 26t137 74q57 45 95 111z" />
<glyph unicode="Q" horiz-adv-x="1529" d="M1456 725q-11 -105 -47 -207q-37 -108 -84 -178q-56 -85 -119 -145q-71 -68 -145 -111l328 -403h-89q-21 0 -36 6q-21 9 -27 18l-268 334q-51 -20 -142 -39q-78 -16 -153 -16q-152 0 -273 53t-198 149q-81 101 -115 234q-34 131 -12 305q21 170 88 303q70 139 170 234 q104 98 237 151t285 53q156 0 277 -53q118 -52 198 -151q78 -97 113 -234q34 -132 12 -303zM1348 725q18 151 -9 272q-28 123 -92 205q-67 86 -168 129q-106 45 -233 45q-124 0 -242 -45q-106 -40 -201 -129q-83 -77 -145 -205q-58 -118 -76 -272q-17 -147 11 -272 q28 -124 94 -205q72 -88 168 -129q101 -43 231 -43q131 0 244 43q106 41 198 129q89 86 144 205q59 128 76 272z" />
<glyph unicode="R" horiz-adv-x="1318" d="M1210 78q40 -3 37 -37l-6 -41h-53h-80h-10q-17 0 -29 6q-11 5 -20 21l-392 587q-19 26 -32 33q-16 8 -62 8h-172l-69 -573q13 0 34.5 -1t30.5 -1q11 0 26 -1t19 -1h21q37 -3 34 -37l-4 -41h-172h-104h-174l6 41q3 34 45 37h18q4 0 20.5 1t27.5 1q9 0 31.5 1t35.5 1 l158 1286q-13 0 -36 1t-32 1q-11 0 -26 1t-19 1h-18q-40 3 -37 37l4 39h174h350q252 0 365 -96q109 -97 88 -283q-9 -83 -47 -151q-40 -73 -97 -121q-59 -50 -141 -86q-77 -34 -176 -43q24 -17 39 -41l369 -547q6 0 18 -1t18 -1h27h12zM635 733q89 0 176 23q73 19 137 67 q59 44 92 103q37 66 45 135q18 156 -73 229q-95 76 -287 76h-246l-78 -633h234z" />
<glyph unicode="S" horiz-adv-x="1060" d="M930 571q24 -59 12 -147q-13 -97 -51 -172q-41 -80 -109 -139q-71 -61 -157 -95q-87 -34 -201 -34q-202 0 -379 79l2 27l4 27l33 270h49q42 0 39 -49q0 -14 -2 -37q-3 -39 -6 -82q-1 -18 -4 -48.5t-4 -43.5q110 -55 282 -55q93 0 156 24q68 23 123 72q60 53 86 106 q32 66 41 134q9 74 -17 127q-21 44 -71 81t-111 58l-129 43q-53 16 -127 49q-67 29 -108 68q-48 44 -70 102q-24 62 -12 156q9 77 45 141q36 66 96 119q58 52 141 82t183 30q176 0 364 -84l-37 -297h-49q-42 0 -39 52q0 4 2 26t6 69t7 97q-114 51 -265 51q-77 0 -141 -22 q-62 -21 -109 -62q-45 -39 -71 -90q-30 -58 -35 -106q-9 -72 16 -123q22 -45 72 -82q39 -29 111 -57q14 -5 57.5 -21t69.5 -24q58 -19 129 -50q59 -26 106 -67q46 -40 72 -103z" />
<glyph unicode="T" horiz-adv-x="1269" d="M1233 1448h14l-37 -299h-49q-42 0 -39 49q0 2 1.5 19t5 58t6.5 85h-422l-158 -1278q13 0 36 -1t32 -1q11 0 26 -1t19 -1h18q40 -3 37 -37l-4 -41h-174h-105h-172l6 41q3 34 45 37h19q4 0 19 1t26 1q9 0 32 1t36 1l157 1278h-424q-7 -39 -13.5 -78.5t-10 -58.5t-4.5 -25 q-9 -49 -50 -49h-49l37 299h12h31h1067h29z" />
<glyph unicode="U" d="M1354 1448h174l-6 -39q-3 -34 -45 -37h-19q-4 0 -20 -1t-27 -1q-9 0 -32 -1t-36 -1l-98 -815q-14 -116 -65 -223q-49 -104 -131 -183q-78 -75 -189 -120q-107 -43 -235 -43q-131 0 -224 43q-96 44 -157 120q-62 77 -86 183q-25 110 -11 223l99 815q-13 0 -35 1t-31 1 q-11 0 -26 1t-19 1h-20q-38 3 -35 37l4 39h172h106h199l-6 -39q-3 -34 -45 -37h-25q-6 0 -25.5 -1t-33.5 -1q-12 0 -37 -1t-37 -1l-100 -815q-11 -96 8 -188q18 -87 68 -152q49 -64 127 -102q75 -37 182 -37q106 0 190 37q96 42 154 100q65 65 106 154q43 94 54 188l98 815 q-13 0 -36 1t-36 1q-14 0 -33.5 1t-25.5 1h-25q-39 3 -36 37l6 39h196h105z" />
<glyph unicode="V" horiz-adv-x="1546" d="M1442 1448h86l-4 -39q-3 -34 -45 -37h-15q-2 0 -11 -1t-15 -1q-4 0 -18 -1t-21 -1l-733 -1368h-95l-395 1368q-8 0 -21 1t-18 1t-14 1t-12 1h-15q-38 3 -35 37l5 39h86h84h219l-6 -39q-3 -34 -46 -37h-16q-3 0 -16 -1t-23 -1q-8 0 -29.5 -1t-33.5 -1l331 -1149 q14 -53 19 -100q15 45 43 100l610 1149q-12 0 -32.5 1t-28.5 1q-10 0 -23 1t-16 1h-19q-37 3 -34 37l4 39h217h4h82z" />
<glyph unicode="W" horiz-adv-x="2242" d="M2138 1448h86l-4 -39q-3 -34 -45 -37h-14q-3 0 -11 -1t-14 -1q-5 0 -16 -1t-17 -1l-600 -1368h-94l-272 1257q-6 23 -9 52q-12 -36 -20 -52l-584 -1257h-94l-262 1368q-6 0 -18 1t-17 1q-6 0 -13 1t-9 1h-15q-38 3 -35 37l5 39h86h86h217l-6 -39q-3 -34 -46 -37h-16 q-3 0 -17 -1t-24 -1q-8 0 -29 -1t-34 -1l211 -1137q1 -7 2 -22t2 -23t2 -25t2 -24q14 42 16 49q3 9 10 24t9 19l555 1192q6 11 16 19q11 8 27 8h28q14 0 23 -6q8 -5 12 -21l262 -1190q4 -13 8 -43q1 -7 2.5 -24.5t2.5 -24.5q13 34 16 47q7 30 14 45l490 1137q-13 0 -35.5 1 t-30.5 1q-10 0 -25 1t-18 1h-16q-40 3 -37 37l4 39h217h6h80z" />
<glyph unicode="X" horiz-adv-x="1536" d="M1323 78q40 -3 37 -37l-4 -41h-62h-30h-72h-10h-219l4 41q3 34 45 37h16q2 0 14 1t23 1q8 0 29.5 1t33.5 1l-344 610q-4 -11 -18 -28l-481 -582h2q13 0 34 -1t29 -1q10 0 25 -1t18 -1h19q40 -3 37 -37l-7 -41h-233h-10h-58h-39h-65l4 41q3 34 45 37h14q4 0 13 1t16 1 q5 0 19 1t22 1l547 661l-365 625q-8 0 -22 1t-19 1q-7 0 -15.5 1t-10.5 1h-15q-40 3 -37 37l7 39h65h29h74h4h225l-6 -39q-3 -34 -45 -37h-15q-1 0 -13 -1t-23 -1q-8 0 -29 -1t-33 -1l328 -575l8 16q1 2 10 16l451 543q-13 0 -35.5 1t-30.5 1q-10 0 -25 1t-18 1h-18 q-38 3 -35 37l4 39h234h6h63h37h66l-5 -39q-3 -34 -45 -37h-14q-2 0 -12 -1t-17 -1q-5 0 -19 -1t-22 -1l-518 -618l383 -668q7 0 19 -1t16 -1q6 0 15 -1t12 -1h12z" />
<glyph unicode="Y" horiz-adv-x="1392" d="M1307 1448h65l-4 -39q-3 -34 -45 -37q-70 -4 -76 -4l-579 -770l-64 -516q13 0 35 -1t31 -1q11 0 27 -1t20 -1h18q40 -3 37 -37l-6 -41h-172h-105h-174l7 41q3 34 45 37h18q4 0 20 1t27 1q9 0 31 1t35 1l63 516l-389 770q-6 0 -76 4q-38 3 -35 37l5 39h65h10h80h17h206 l-6 -39q-3 -34 -45 -37h-14q-3 0 -15.5 -1t-21.5 -1q-8 0 -26 -1t-29 -1l305 -610q12 -24 18 -45q2 -7 7.5 -22.5t7.5 -22.5q4 7 11 22.5t11 22.5q9 15 31 45l455 610q-11 0 -30 1t-26 1q-9 0 -21.5 1t-15.5 1h-14q-40 3 -37 37l6 39h205h14h82h11z" />
<glyph unicode="Z" horiz-adv-x="1306" d="M1284 1413q-3 -19 -20 -43l-1078 -1284h820q3 14 7 43t7 43q12 54 14 61q6 21 6 27q9 51 50 51h51l-39 -311h-1065l4 39q3 20 16 35l1082 1288h-801q-2 -8 -7 -38t-9 -46q-3 -12 -7 -34.5t-6 -29.5q-6 -21 -6 -26q-9 -49 -49 -49h-51l39 309h1046z" />
<glyph unicode="[" horiz-adv-x="630" d="M51 -270l223 1822h326l-4 -36q-4 -15 -10 -21q-8 -8 -25 -8h-211l-209 -1692h211q15 0 23 -8q9 -9 6 -20l-4 -37h-326z" />
<glyph unicode="\" horiz-adv-x="669" d="M74 1491h43q42 0 51 -39l448 -1538h-41q-15 0 -32 10q-15 9 -21 31z" />
<glyph unicode="]" horiz-adv-x="647" d="M41 -233q3 13 10 20q8 8 25 8h211l207 1692h-211q-16 0 -21 8q-8 12 -6 21l4 36h326l-226 -1822h-323z" />
<glyph unicode="^" horiz-adv-x="907" d="M504 1450h61l273 -631h-70q-9 0 -18 6t-13 19l-192 446q-1 3 -13 33q-4 9 -8 31q-8 -19 -16 -33q-17 -29 -19 -31l-301 -446q-8 -11 -16 -17q-12 -8 -20 -8h-74z" />
<glyph unicode="_" horiz-adv-x="1153" d="M977 -209l-10 -70h-807l10 70h807z" />
<glyph unicode="`" horiz-adv-x="514" d="M221 1466q21 0 37 -8q12 -6 21 -24l131 -246h-56q-8 0 -20 4q-10 3 -17 14l-190 260h94z" />
<glyph unicode="a" horiz-adv-x="1028" d="M879 78q39 -3 36 -37l-6 -41h-135h-22h-25q-20 0 -27 10q-8 12 -8 23l35 319q-41 -84 -86 -149q-44 -64 -98 -115q-47 -45 -111 -74q-56 -26 -121 -26q-63 0 -112 24q-52 25 -82 72q-31 42 -47 111q-17 73 -17 147q0 88 21 174q21 87 65 164q41 76 99 141q61 68 127 111 q75 50 147 74q77 26 162 26q70 0 114 -10q53 -9 107 -37l-111 -905q8 0 24 -1t23 -1h33h15zM662 338q36 64 81 186l52 416q-61 21 -131 21q-67 0 -134 -25q-66 -25 -120 -64q-63 -46 -105 -96q-46 -55 -82 -125q-39 -77 -55 -141q-18 -74 -18 -152q0 -138 47 -215 q46 -75 145 -75q64 0 115 32q52 31 108 93q45 53 97 145z" />
<glyph unicode="b" horiz-adv-x="1069" d="M932 905q87 -127 57 -389q-12 -108 -55 -209q-41 -96 -107 -168q-64 -70 -151 -110q-90 -41 -197 -41q-144 0 -401 57l8 51l160 1313q-10 0 -26 1t-23 1h-31q-3 0 -8.5 1t-7.5 1h-11q-40 3 -37 37l7 41h147h98l-80 -649q79 87 175 141q95 53 206 53q187 0 277 -131z M844 332q32 78 45 184q27 227 -43 334q-70 108 -228 108q-101 0 -190 -53q-85 -50 -164 -145l-80 -654q206 -43 287 -43q95 0 162 33q80 39 125 92q48 54 86 144z" />
<glyph unicode="c" horiz-adv-x="917" d="M778 164l23 -33q-29 -32 -66 -57q-46 -31 -88 -47q-43 -17 -100 -29q-55 -12 -113 -12q-97 0 -172 37q-78 35 -127 102q-48 66 -69 164q-20 96 -5 221q16 127 56 213q45 98 110 166q61 64 158 108q81 37 201 37q38 0 104 -14q29 -6 123 -33l51 -16l-33 -256h-49 q-42 0 -39 49q0 1 0.5 4t1 8.5t0.5 11.5t1.5 25t1.5 33q0 24 4 78q-90 34 -170 34q-90 0 -160 -30q-72 -30 -125 -90q-55 -58 -90 -142q-35 -85 -47 -186q-12 -112 2 -191q16 -88 53 -139q38 -55 102 -86t142 -31q70 0 125 19q58 20 86 37q40 24 57 39q19 16 33 16 q11 0 18 -10z" />
<glyph unicode="d" horiz-adv-x="1091" d="M993 41v-10l-4 -31h-137h-53q-27 0 -27 27l8 161q-82 -94 -176 -147q-95 -53 -209 -53q-187 0 -276 129q-88 129 -58 391q12 108 54 207q42 98 106 168q65 71 154 112q90 41 196 41t174 -39q71 -38 117 -110l66 522q-9 0 -26.5 1t-24.5 1h-31q-3 0 -8 1t-7 1h-10 q-40 3 -37 37l4 41h150h96l-172 -1411h43q7 0 17 -1t12 -1h12h10q40 -3 37 -37zM786 264l66 537q-50 87 -115 123q-67 37 -157 37q-95 0 -162 -33q-72 -35 -125 -94q-48 -54 -86 -144q-33 -78 -45 -182q-27 -229 43 -336q69 -106 227 -106q102 0 191 53q83 49 163 145z" />
<glyph unicode="e" horiz-adv-x="897" d="M840 823q0 -46 -11 -80q-10 -31 -41 -71q-26 -33 -77 -64q-54 -33 -125 -55q-96 -30 -185 -45q-100 -20 -249 -35q-2 -14 -2 -43q0 -7 -1.5 -20.5t-1.5 -20.5q0 -150 70 -239q69 -87 207 -87q51 0 98 13q44 12 78 30q43 23 62 39q24 21 45 39q3 3 16.5 14.5t19.5 16.5 q12 10 27 10q11 0 21 -10l22 -27q-49 -52 -96 -90q-51 -41 -96 -63q-54 -26 -101 -37q-44 -10 -112 -10q-87 0 -152 26q-62 25 -111 80q-40 46 -67 127q-25 77 -25 166q0 67 17 154q16 80 45 149q34 80 73 135q44 62 103 109q57 45 127 72q68 26 149 26q77 0 127 -20 q55 -22 84 -51q30 -26 47 -68q15 -37 15 -70zM563 961q-79 0 -147 -35q-66 -35 -117 -92t-86 -134q-34 -75 -49 -159q141 16 223 32t160 41q67 22 106 45q44 26 64 52q22 25 28 53q9 41 9 57q0 18 -11 47q-9 24 -30 45q-23 23 -60 35q-32 13 -90 13z" />
<glyph unicode="f" horiz-adv-x="970" d="M897 1462q26 -5 55 -16l-10 -47q-3 -15 -20 -15q-19 0 -33 2q-35 5 -51 5q-52 0 -95 -15q-46 -16 -79 -49q-36 -36 -58 -84q-24 -52 -33 -131l-16 -125h332l-10 -74h-328l-113 -911q-12 -100 -47 -172q-36 -74 -90 -119q-58 -49 -129 -69q-81 -23 -164 -23v49q0 33 37 33 q43 0 102 18q49 15 89 52q43 40 67 92q31 67 39 141l111 907l-142 11q-15 2 -21 7t-5 17l4 41h174l14 129q8 80 43 154q30 65 76 108q54 50 106 68q59 20 132 20q43 0 63 -4z" />
<glyph unicode="g" horiz-adv-x="1042" d="M854 756q0 -60 -14 -103q-8 -33 -35 -84q-18 -32 -45 -71q-8 -11 -23 -33.5t-22 -32.5q-22 -31 -33 -63q-14 -40 -14 -70q0 -33 12 -57q16 -32 31 -52q23 -31 39 -49q24 -27 41 -53q16 -23 28 -59q12 -35 12 -74q0 -68 -32 -125q-34 -58 -92 -104q-59 -47 -142 -74 q-89 -29 -186 -29q-71 0 -148 17q-61 13 -116 47q-50 30 -76 75q-27 46 -27 103q0 78 39 131q41 56 105 96q59 37 153 60q84 20 189 20q23 0 69 -4q8 -1 21.5 -1.5t25.5 -1.5t23 -3q-18 24 -29 49q-12 27 -12 59q0 36 12 74q12 36 47 90q-56 -35 -88 -45q-43 -14 -102 -14 t-109 18q-52 19 -86 53t-57 91q-20 50 -20 122q0 65 26 138q25 70 72 123q49 55 117 84q75 32 159 32q53 0 99 -12q35 -9 82 -39h266l-4 -33q0 -4 -9 -18q-8 -8 -20 -10l-166 -13q21 -35 29 -71q10 -45 10 -84zM743 -51q0 46 -16 86q-11 27 -41 65l2 -2q-41 7 -96 11 q-62 4 -86 4q-90 0 -176 -21q-80 -20 -125 -51q-50 -30 -74 -74q-27 -49 -27 -90q0 -45 21 -80q23 -38 57 -57q36 -23 88 -35t117 -12q77 0 145 22q69 22 113 58q51 41 72 82q26 50 26 94zM487 438q67 0 119 27q48 25 86 72q38 44 56 102q18 59 18 115q0 105 -57 159 q-54 54 -152 54q-56 0 -115 -27q-48 -22 -88 -68q-33 -38 -53 -100q-18 -56 -18 -113q0 -110 55 -165q56 -56 149 -56z" />
<glyph unicode="h" horiz-adv-x="1124" d="M995 78q38 -3 35 -37l-4 -41h-147h-99l80 651q18 144 -37 226q-55 79 -192 79q-104 0 -193 -51t-170 -141l-51 -416l-8 -67l-25 -199l-10 -82h-96l8 82l164 1327q-10 0 -26 1t-23 1h-31q-3 0 -8.5 1t-7.5 1h-11q-40 3 -37 37l7 39h147h96l-77 -645q82 88 178 139t209 51 q86 0 145 -26q58 -25 96 -76q37 -48 49 -121q13 -77 2 -160l-71 -569q9 0 27 -1t24 -1q8 0 18.5 -1t12.5 -1h14h12z" />
<glyph unicode="i" horiz-adv-x="452" d="M315 78q38 -3 35 -37l-4 -41h-147h-99l21 164l96 774q-9 0 -26.5 1t-24.5 1h-31q-3 0 -7.5 1t-6.5 1h-12q-38 3 -35 37l4 41h147h99l-115 -938q9 0 26 -1t23 -1q8 0 18.5 -1t12.5 -1h16h10zM248 1307q-10 10 -17 28q-7 17 -4 35t13 35q13 22 22 29q14 14 31 20q18 6 37 6 q17 0 32 -6q17 -7 27 -20q9 -9 17 -29q7 -20 4 -35q-3 -18 -13 -35q-9 -15 -22 -28t-31 -19q-24 -8 -37 -8t-33 8q-12 5 -26 19z" />
<glyph unicode="j" horiz-adv-x="634" d="M602 1405q7 -20 4 -35q-3 -21 -12 -35q-11 -18 -23 -28q-13 -13 -30 -19q-24 -8 -37 -8t-33 8q-13 5 -27 19q-8 8 -16 28q-6 14 -2 35q4 25 10 35q9 15 23 29q13 14 33 20q18 6 34 6q20 0 35 -6q14 -6 25 -20q7 -7 16 -29zM422 1018h98l-141 -1147q-6 -51 -27 -98 q-21 -46 -55 -80q-33 -33 -82 -51q-52 -19 -111 -19q-37 0 -51 4q-31 9 -45 17l10 49q3 12 17 12q2 0 22 -4t41 -4q82 0 127 45q49 49 58 129l131 1067q-10 0 -28 1t-24 1h-30q-3 0 -8 1t-7 1h-10q-40 3 -37 37l4 39h148z" />
<glyph unicode="k" horiz-adv-x="1007" d="M870 1020h109l-6 -41q-3 -34 -45 -37h-13q-4 0 -12.5 -1t-13.5 -1t-17 -1t-18 -1l-408 -346q-4 -3 -20 -19q-9 -9 -23 -16q21 -13 25 -18q3 -4 10.5 -12.5t10.5 -12.5l346 -434q6 0 17.5 -1t16.5 -1h21h12h10q38 -3 35 -37l-4 -41h-45h-80h-6q-15 0 -24 6q-16 11 -21 17 l-371 458q-19 22 -28 27q-12 6 -45 6h-45l-31 -248l-33 -266h-96l8 82l164 1327q-10 0 -26 1t-23 1h-31q-3 0 -8.5 1t-7.5 1h-11q-40 3 -37 37l7 39h147h96l-110 -907h47q10 0 26 4q13 3 31 18l395 336q-33 2 -51 2q-40 3 -37 37l7 41h165h41z" />
<glyph unicode="l" horiz-adv-x="423" d="M291 78q40 -3 37 -37l-6 -41h-148h-96l8 82l164 1327q-10 0 -26 1t-23 1h-31q-3 0 -8.5 1t-7.5 1h-11q-40 3 -37 37l7 41h147h96l-172 -1409q10 0 26 -1t23 -1q8 0 18.5 -1t12.5 -1h17h10z" />
<glyph unicode="m" horiz-adv-x="1679" d="M1542 78q40 -3 37 -37l-4 -41h-150h-96l80 651q18 149 -37 228q-56 77 -174 77q-52 0 -104 -18q-48 -16 -95 -57q-40 -35 -69 -97q-31 -68 -39 -133l-41 -336l-39 -315v0h-98l80 651q18 149 -31 228t-164 79q-81 0 -160 -51q-82 -53 -143 -137l-57 -481l-17 -133l-10 -74 l-10 -82h-97l11 82l104 856q-9 0 -26 1t-23 1h-31q-3 0 -8.5 1t-7.5 1h-10q-40 3 -37 37l6 39h147h54q26 0 26 -25l-8 -147q23 29 74 76q49 45 78 61q55 31 88 39q37 12 92 12q113 0 170 -63q60 -66 69 -183q30 72 64 111q41 47 86 76q46 29 100 45q49 14 105 14 q75 0 133 -24q55 -23 94 -74q37 -48 49 -121q13 -78 2 -164l-69 -569q10 0 26 -1t23 -1q8 0 18.5 -1t12.5 -1h16h10z" />
<glyph unicode="n" horiz-adv-x="1157" d="M1022 78q38 -3 35 -37l-4 -41h-148h-98l80 651q18 144 -37 226q-55 79 -191 79q-103 0 -192 -51q-94 -54 -172 -141l-70 -571l-24 -193h-97l11 82l104 856q-9 0 -26 1t-23 1h-31q-3 0 -8.5 1t-7.5 1h-10q-40 3 -37 37l6 39h147h54q26 0 26 -25l-8 -153q75 83 178 141 q95 53 213 53q87 0 146 -26q58 -25 96 -76q37 -48 49 -121q13 -77 2 -160l-70 -569q9 0 26 -1t24 -1q8 0 18 -1t12 -1h17h10z" />
<glyph unicode="o" horiz-adv-x="1069" d="M590 1036q106 0 192 -39q78 -35 131 -104q55 -70 72 -166q18 -101 4 -217q-16 -125 -57 -215q-47 -102 -111 -166q-66 -66 -159 -104q-90 -37 -201 -37q-110 0 -191 37t-133 104t-71 166q-19 101 -5 215q15 119 58 217q44 100 110 166q65 65 160 104t201 39zM471 63 q89 0 162 31q72 30 125 90q50 56 86 142q32 78 45 184q12 102 0 184q-12 81 -51 142q-40 63 -103 92q-64 30 -155 30q-92 0 -162 -30q-69 -29 -125 -92q-50 -56 -86 -142q-32 -78 -45 -184q-12 -102 0 -184q12 -81 51 -142t102 -90q67 -31 156 -31z" />
<glyph unicode="p" horiz-adv-x="1198" d="M1059 905q87 -127 57 -389q-12 -108 -55 -209q-41 -96 -107 -168q-62 -68 -151 -110q-87 -41 -195 -41q-106 0 -176 37t-117 112l-51 -416q10 0 26 -1t23 -1q8 0 18.5 -1t12.5 -1h14h13q38 -3 35 -36l-5 -41h-147h-98h-148l4 41q3 33 45 36h15h32q7 0 27.5 2t34.5 2 l149 1217q-9 0 -26 1t-23 1h-30q-3 0 -9 1t-8 1h-10q-40 3 -37 37l6 39h148h53q16 0 20 -4q7 -7 7 -21l-11 -157q78 90 176 145t211 55q187 0 277 -131zM971 332q32 78 45 184q27 227 -43 334q-69 106 -228 106q-104 0 -190 -51q-92 -55 -164 -147l-65 -535q44 -84 114 -123 q67 -37 158 -37q95 0 162 33q76 37 123 92q54 64 88 144z" />
<glyph unicode="q" horiz-adv-x="1050" d="M928 -285q38 -3 35 -37l-5 -38h-147h-98l4 26l-4 -26h-148l4 38q3 34 45 37h15q2 0 13 1t20 1q7 0 27 1t34 1l55 461q-80 -88 -174 -141q-92 -51 -207 -51q-187 0 -276 129q-88 128 -58 389q11 105 56 209q39 94 106 168q62 68 154 110q90 41 194 41q145 0 402 -57 l-6 -51l-150 -1207q9 0 27 -1t24 -1h31q3 0 7.5 -1t6.5 -1h13zM788 262l82 653q-206 43 -286 43q-99 0 -164 -32q-72 -35 -123 -92q-52 -58 -88 -144q-32 -78 -45 -184q-27 -227 43 -334q69 -106 227 -106q105 0 191 51q83 49 163 145z" />
<glyph unicode="r" horiz-adv-x="841" d="M741 1026q27 -6 70 -29l-20 -67q-7 -17 -23 -17q-3 0 -18 5q-12 4 -27 10q-10 4 -41 8q-32 4 -55 4q-115 0 -199 -72t-145 -206l-82 -662h-97l11 82l104 856q-9 0 -26 1t-23 1h-31q-3 0 -8.5 1t-7.5 1h-10q-40 3 -37 37l6 39h147h52q18 0 24 -6q4 -4 4 -25l-16 -215 q66 126 153 195t211 69q42 0 84 -10z" />
<glyph unicode="s" horiz-adv-x="851" d="M735 403q19 -45 13 -104q-8 -61 -41 -125q-27 -52 -82 -98q-56 -47 -119 -68q-70 -24 -156 -24q-148 0 -293 57l29 248h51q40 0 37 -49v-25q0 -5 -1 -22.5t-1 -30.5q0 -20 -4 -74q76 -33 197 -33q59 0 114 19q47 16 88 49t60 72q20 41 26 88q6 51 -14 84q-20 34 -57 57 q-44 28 -86 41q-14 4 -48 16t-53 17q-30 9 -100 34q-39 14 -84 50q-38 31 -55 71q-21 50 -13 107q6 52 37 104q32 53 78 88q54 41 113 60q68 22 143 22q118 0 264 -53l-30 -244h-50q-39 0 -36 49v25q0 5 1 21.5t1 29.5q0 47 2 72q-79 27 -158 27q-49 0 -102 -17 q-49 -16 -84 -41t-58 -63q-20 -33 -26 -74q-6 -51 14 -80q24 -35 57 -53q50 -28 86 -39q16 -5 50.5 -16.5t50.5 -16.5q20 -6 55 -20t43 -17q45 -16 86 -49q38 -30 55 -72z" />
<glyph unicode="t" horiz-adv-x="679" d="M328 -16q-103 0 -154 57q-52 58 -37 176l86 696h-145q-10 0 -19 9q-4 4 -4 16l4 37l177 12l67 365q3 9 10 16q8 8 19 8h47l-47 -389h319l-8 -74h-321l-84 -690q-5 -36 2 -71q6 -31 22 -50q15 -18 41 -28q29 -11 55 -11q39 0 64 11q31 14 49 24q28 16 35 23q10 10 20 10 q12 0 17 -8l20 -45q-45 -45 -106 -68q-70 -26 -129 -26z" />
<glyph unicode="u" horiz-adv-x="1155" d="M1012 78q38 -3 35 -37l-5 -41h-147h-53q-30 0 -27 27l8 151q-84 -90 -180 -141q-100 -53 -213 -53q-86 0 -145 26q-57 25 -97 78q-37 48 -49 121q-13 77 -2 160l72 569q-9 0 -27 1t-24 1h-31q-3 0 -7.5 1t-6.5 1h-13q-37 3 -34 37l4 39h147l98 2l-79 -651 q-18 -145 36 -226q57 -82 191 -82q96 0 192 52q94 54 172 141l86 684q-9 0 -27 1t-24 1h-31q-3 0 -7.5 1t-6.5 1h-12q-38 3 -35 37l4 39h148l98 2l-115 -938q9 0 26 -1t23 -1q8 0 18.5 -1t12.5 -1h16h11z" />
<glyph unicode="v" horiz-adv-x="1189" d="M1081 1018h78l-4 -39q-3 -34 -45 -37h-10q-1 0 -9.5 -1t-15.5 -1h-37l-512 -940h-86l-280 940l-68 2q-38 3 -35 37l4 39h74h78h205l-4 -39q-3 -34 -45 -37h-13l-12 -1q-11 -1 -22 -1q-8 0 -28 -1t-32 -1l221 -748q6 -24 9 -45q0 -2 4 -22q2 -10 2 -21q5 17 16 43 q14 33 21 45l405 748q-10 0 -26 1t-23 1h-31q-3 0 -7.5 1t-6.5 1h-12q-38 3 -35 37l4 39h205h73z" />
<glyph unicode="w" horiz-adv-x="1724" d="M1608 1018h86l-4 -39q-3 -34 -45 -37h-11q-1 0 -9 -1t-15 -1h-37l-430 -940h-72q-17 0 -20 23l-179 827q-1 5 -3 14.5t-3 14.5q-4 20 -4 30q-2 -5 -5 -15t-5 -15t-6 -14.5t-6 -14.5l-383 -827q-10 -23 -29 -23h-68l-198 940h-29q-5 0 -11.5 1t-8.5 1h-11h-8q-40 3 -37 37 l6 39h80l76 2l201 -2l-6 -39q-3 -34 -45 -37h-13l-10 -1q-11 -1 -22 -1q-8 0 -29 -1t-33 -1l148 -748q0 -3 3 -20t3 -25q2 -25 2 -43l18 43q1 2 7.5 18.5t11.5 26.5l372 811q10 23 33 23h39q24 0 27 -23l170 -811q12 -64 14 -88q2 7 7 21.5t7 21.5q5 16 19 45l332 748 q-9 0 -26 1t-24 1h-30q-3 0 -9 1t-8 1h-10q-38 3 -35 37l4 39h199h72z" />
<glyph unicode="x" horiz-adv-x="1138" d="M963 78q37 -3 34 -37l-4 -41h-94h-53h-156l4 41q3 34 45 37q23 0 58 2l-226 395q-5 -16 -18 -33l-303 -362q39 -2 61 -2q40 -3 37 -37l-6 -41h-154h-55h-92l4 41q3 34 45 37q18 0 55 2l369 442l-248 418l-61 2q-40 3 -37 37l6 39h47h92h9h155l-6 -39q-3 -34 -45 -37 q-18 0 -49 -2l213 -375q6 18 22 37l279 338q-33 2 -53 2q-40 3 -37 37l6 39h154h12h90h47l-6 -39q-3 -34 -45 -37q-21 0 -64 -2l-350 -414l260 -446q35 -2 58 -2z" />
<glyph unicode="y" horiz-adv-x="1185" d="M1079 1018h78l-6 -39q-3 -34 -45 -37h-10q-1 0 -8.5 -1t-14.5 -1h-37l-706 -1268q-7 -11 -21 -22q-13 -10 -28 -10h-70l229 397l-286 903l-62 2q-40 3 -37 37l6 39h68h80h2h207l-6 -39q-3 -34 -45 -37h-13l-11 -1q-11 -1 -21 -1q-7 0 -28.5 -1t-33.5 -1l229 -737l7 -31 l6 -31q9 23 14 31q9 23 14 31l406 737q-10 0 -26 1t-23 1h-31q-3 0 -7.5 1t-6.5 1h-11q-39 3 -36 37l6 39h205h73z" />
<glyph unicode="z" horiz-adv-x="976" d="M805 256h10h39l-31 -256h-37h-16h-729l6 39q3 16 21 37l745 866h-516q-11 -61 -12 -68q-2 -11 -7 -27t-6 -22q-1 -5 -2 -10.5t-1.5 -8t-0.5 -3.5q-9 -49 -51 -49h-49l31 256l2 8h737l-6 -41q-3 -20 -19 -39l-743 -862h557q4 23 12 63q2 10 6 25.5t5 21.5q1 5 2.5 10 t2.5 7.5t1 3.5q9 49 49 49z" />
<glyph unicode="{" horiz-adv-x="651" d="M203 455q4 40 -4 63q-11 32 -25 49q-14 16 -47 31q-27 12 -66 12l9 62q37 0 67 12q34 13 56 33q17 15 36 49q19 33 21 61q5 50 2 109q-4 72 -8 106q0 2 -6 109q-3 47 4 111q5 56 32 114q24 53 68 94q45 42 98 62t125 20h56l-7 -41q0 -11 -10 -18q-9 -6 -16 -6h-35 q-39 0 -82 -17q-36 -15 -68 -43q-31 -27 -49 -69q-20 -46 -26 -92q-7 -65 -4 -113q6 -107 6 -109q4 -40 8 -108q3 -48 -4 -109q-5 -34 -23 -69q-12 -24 -41 -53q-26 -26 -53 -41q-32 -18 -59 -23q28 -6 55 -23t43 -38q17 -23 27 -56t4 -69q-4 -40 -23 -109q-10 -38 -33 -108 q-27 -84 -34 -109q-18 -68 -23 -113q-6 -48 4 -92q8 -37 33 -69q22 -29 55 -43q39 -17 80 -17h33q7 0 16 -6q6 -4 6 -16l-4 -43h-57q-64 0 -119 22q-51 21 -82 62q-35 47 -45 92q-12 52 -6 114q3 33 25 113q17 65 32 107q28 83 35 106q18 63 23 109z" />
<glyph unicode="|" horiz-adv-x="419" d="M172 1552h76v-1912h-76v1912z" />
<glyph unicode="}" horiz-adv-x="667" d="M410 455q-7 -62 -4 -109q4 -72 8 -106q0 -4 6 -107q3 -46 -4 -110q-6 -57 -33 -117q-23 -50 -68 -92t-98 -62q-58 -22 -123 -22h-57l6 43q0 11 10 18q6 4 17 4h34q40 0 82 17q32 13 68 45q31 27 49 69q22 50 27 90q7 65 4 113l-6 111q-1 19 -4.5 53t-4.5 53q-2 42 5 109 q6 37 22 69q17 34 39 56q19 19 53 38q31 17 60 23q-27 6 -54 23q-23 14 -43 41q-17 22 -26 53q-10 33 -4 69q5 46 22 109q10 37 33 108q33 103 35 109q17 62 22 113q6 48 -4 92q-9 43 -30 69q-24 31 -58 46q-32 14 -80 14h-32q-11 0 -17 6t-6 18l4 43h57q64 0 119 -22 q51 -21 82 -62q35 -47 45 -92q12 -53 6 -116q-4 -36 -24 -111q-14 -51 -33 -107q-28 -83 -35 -106q-16 -56 -22 -111q-3 -39 4 -61q11 -34 24 -49q17 -20 47 -33q27 -12 64 -12l-8 -62q-36 0 -66 -12q-36 -14 -55 -31t-37 -49q-15 -27 -18 -63z" />
<glyph unicode="~" horiz-adv-x="1169" d="M786 582q38 0 72 12q28 10 57 39q27 27 41 59q15 35 21 74h80q-5 -46 -31 -107q-15 -35 -57 -81q-33 -36 -82 -58q-44 -20 -105 -20q-46 0 -104 20q-26 9 -105 45t-98 43q-58 21 -90 21q-35 0 -72 -15q-35 -14 -57 -36q-23 -23 -39 -60q-17 -39 -22 -74h-80q5 46 30 105 q16 39 58 84q28 31 82 55q47 21 104 21q50 0 105 -19q38 -13 104 -45q83 -40 96 -45q50 -18 92 -18z" />
<glyph unicode="&#xa1;" horiz-adv-x="458" d="M76 -360l69 563q1 6 5 38l6 48q2 12 7 40t7 44q8 61 14 90q1 6 9 43.5t12 60.5h65q-3 -54 -6 -104q-3 -47 -6 -90q-1 -15 -4 -42t-4 -40q-2 -25 -10 -88l-68 -563h-96zM186 940q6 42 35 68q31 28 70 28q17 0 37 -8q10 -4 26 -20q11 -11 17 -29q7 -20 4 -37 q-3 -18 -13 -39q-10 -20 -24 -31q-19 -15 -33 -20q-24 -8 -37 -8q-38 0 -63 28t-19 68z" />
<glyph unicode="&#xa2;" horiz-adv-x="937" d="M793 164l22 -33q-31 -34 -65 -57q-49 -33 -86 -47q-39 -15 -103 -29q-46 -10 -110 -10h-19l-37 -215q-4 -15 -12 -23t-23 -8h-36l20 119l23 133q-44 8 -91 29q-74 33 -124 102q-50 68 -70 164q-21 99 -6 221q16 124 57 213q44 96 111 166t157 108q74 30 146 35v2l12 70 l25 141q4 17 10 23q10 10 24 10h37l-24 -135v-4l-19 -105q38 -3 105 -18q58 -13 114 -31l48 -14l-31 -256h-49q-42 0 -39 49v24q0 6 1 25t1 33q0 24 4 78q-90 34 -166 34l-2 -2l-115 -671l-39 -219q5 0 15 -1.5t14 -1.5q72 0 127 19q58 20 86 37q33 20 55 39q19 16 33 16 q12 0 19 -10zM231 180q40 -58 101 -88q15 -8 49 -16l154 878q-45 -5 -99 -26q-72 -30 -125 -90q-51 -54 -88 -142q-35 -85 -47 -186q-12 -112 2 -191q16 -88 53 -139z" />
<glyph unicode="&#xa3;" horiz-adv-x="1228" d="M109 680q4 19 12 25q13 10 29 10h167l37 301q12 97 49 178t97 141q60 61 143 95q81 34 188 34q77 0 136 -18q56 -17 98 -53q38 -32 65 -76q30 -49 44 -94l-41 -23q-6 -4 -23 -4q-18 0 -29 16q-7 14 -37 64q-14 24 -47 53q-28 25 -71 37q-51 14 -105 14q-81 0 -143 -26 q-65 -27 -109 -74q-51 -54 -75 -115q-31 -77 -39 -149l-37 -299h489l-4 -41q0 -11 -10 -21q-8 -8 -25 -8h-458l-39 -311q-12 -92 -56 -154q-42 -60 -114 -104q7 1 22.5 2t22.5 2q28 4 47 4h805l-4 -41q-4 -17 -17 -31q-14 -14 -35 -14h-993l8 66q34 11 72 34q36 22 66 52 q29 29 47 69q21 47 26 92l41 334h-205z" />
<glyph unicode="&#xa4;" horiz-adv-x="1101" d="M197 688q10 69 34 119q23 48 72 100l-139 158l57 51l137 -158q51 38 111 60q56 20 123 20t117 -20q52 -21 94 -57l178 157l43 -51l-176 -158q33 -52 47 -102q15 -56 6 -121q-8 -60 -37 -119t-69 -102l139 -158l-60 -51l-137 158q-46 -35 -110 -58q-56 -20 -121 -20 q-67 0 -117 20q-54 21 -96 58l-178 -158l-43 51l176 156q-30 47 -45 102q-15 57 -6 123zM270 686q-5 -52 11 -106q17 -55 47 -88q38 -41 82 -60q52 -22 104 -22q56 0 111 22q49 20 96 60q45 39 72 88q28 52 34 108q6 60 -8 107q-17 55 -49 90q-37 40 -82 59q-54 23 -106 23 q-54 0 -111 -23q-43 -17 -94 -61q-42 -36 -70 -88q-32 -63 -37 -109z" />
<glyph unicode="&#xa5;" horiz-adv-x="1165" d="M94 631h355l-332 819h82q27 0 37 -27l270 -682q10 -34 10 -36q1 -6 4 -18.5t4 -18.5q6 17 35 73l436 682q5 9 19 19q12 8 24 8h82l-534 -819h356l-8 -60h-375l-14 -120h375l-7 -60h-376l-48 -391h-96l47 391h-374l8 60h375l14 120h-375z" />
<glyph unicode="&#xa6;" horiz-adv-x="430" d="M287 1552h78l-99 -794h-78zM150 434h77l-98 -794h-76z" />
<glyph unicode="&#xa7;" horiz-adv-x="964" d="M874 1323q-10 -14 -24 -14q-12 0 -27 12q-16 13 -45 29q-31 17 -67 28q-44 13 -103 13q-50 0 -106 -17q-42 -13 -84 -43q-41 -30 -60 -63q-20 -36 -26 -76q-6 -46 16 -82q22 -35 60 -61q62 -42 88 -54q19 -9 56.5 -26t47.5 -21q30 -14 102 -53q48 -26 86 -64 q42 -42 58 -83q20 -55 12 -111q-9 -87 -61 -148q-56 -65 -138 -100q54 -44 78 -88q28 -51 19 -121q-9 -66 -39 -125q-27 -52 -82 -98q-56 -47 -119 -68q-70 -24 -156 -24q-105 0 -180 35q-74 34 -129 90l29 35q6 9 12 12q8 4 19 4t30 -16q34 -29 45 -35q45 -27 76 -37 q50 -16 115 -16q63 0 115 18q51 18 88 47q41 33 61 74q22 45 27 88q6 52 -15 92t-61 70q-35 26 -94 53q-2 1 -43.5 20t-63.5 29q-55 24 -108 51q-54 28 -93 64q-43 40 -61 80q-19 41 -12 108q9 81 63 141q59 66 164 101q-51 36 -80 90q-28 55 -20 125q6 55 37 106 q33 55 77 88q52 40 115 60q74 24 141 24q94 0 164 -28t121 -82zM205 743q-5 -38 10 -73q14 -32 47 -62q23 -21 74 -49q53 -29 88 -45q83 -37 96 -43q5 -2 90 -49q80 36 115 82q39 52 45 112q6 47 -8 82q-15 38 -41 64q-33 33 -68 51q-6 3 -35.5 19t-46.5 24q-73 35 -88 41 q-39 15 -86 43q-105 -45 -141 -86q-45 -51 -51 -111z" />
<glyph unicode="&#xa8;" horiz-adv-x="772" d="M309 1315q-4 -21 -10 -31t-23 -27q-11 -11 -28 -18q-15 -6 -33 -6q-16 0 -31 6t-24 18t-15 27q-7 17 -4 31q3 16 13 33q9 15 20 26q12 12 29 19q20 8 33 8q10 0 30 -8q15 -6 25 -19q12 -16 16 -26q5 -13 2 -33zM662 1315q-3 -14 -13 -31q-11 -18 -20 -27q-11 -11 -29 -18 q-15 -6 -35 -6q-15 0 -30 6q-16 7 -25 18q-7 9 -14 27q-7 17 -4 31q3 18 12 33t20 26q12 12 29 19q15 6 33 6q17 0 32 -6t25 -19q8 -10 14 -26q7 -19 5 -33z" />
<glyph unicode="&#xa9;" horiz-adv-x="1652" d="M1071 424q13 10 25 10q8 0 10 -2l4 -4l29 -31q-64 -59 -154 -98q-80 -35 -205 -35q-102 0 -178 33q-77 34 -129 94q-54 63 -74 146q-21 87 -10 188q12 106 57 188q44 82 115 146q66 60 158 96q85 33 190 33q39 0 97 -8q45 -9 79 -23q42 -17 68 -35q27 -19 57 -49l-28 -33 q-9 -12 -23 -12q-9 0 -24 12q-29 23 -43 31q-35 19 -72 29q-54 14 -115 14q-81 0 -160 -29q-69 -25 -127 -77q-53 -47 -92 -121q-34 -63 -47 -162q-12 -93 6 -164t62 -121q46 -52 104 -75q64 -25 142 -25q92 0 153 20q64 21 125 64zM90 725q11 97 51 197q38 95 95 176 q57 80 135 149q72 64 164 115q90 50 184 76q95 26 201 26q104 0 192 -26q99 -29 168 -74q76 -50 135 -117q59 -69 96 -149q40 -88 54 -176q14 -91 2 -197q-12 -105 -49 -197q-35 -89 -97 -176q-57 -80 -135 -149t-164 -117q-83 -46 -184 -74q-95 -26 -201 -26 q-104 0 -192 26q-99 29 -168 74q-77 50 -135 117q-62 71 -97 149q-39 85 -53 176t-2 197zM150 725q-18 -141 20 -266q38 -123 119 -217q86 -98 196 -148q118 -53 258 -53t273 53q120 48 235 148q101 88 172 217q68 124 86 266q18 141 -20 266q-38 123 -119 217 q-79 91 -199 148q-112 53 -260 53q-147 0 -270 -53q-125 -54 -233 -148q-101 -88 -172 -217q-68 -124 -86 -266z" />
<glyph unicode="&#xaa;" horiz-adv-x="702" d="M557 860l-33 -2q-8 0 -16 4q-4 2 -8 17l-2 69q-26 -23 -56 -43q-26 -17 -57 -31q-25 -11 -59 -18q-30 -6 -70 -6q-36 0 -63 8q-28 8 -52 29q-16 14 -30 49q-12 31 -7 68q3 33 29 71q23 33 78 58q62 28 127 41q76 15 186 18l6 51q9 79 -20 119q-30 41 -104 41 q-46 0 -76 -12q-46 -18 -54 -23q-17 -10 -36 -25q-15 -12 -27 -12q-13 0 -20 15l-11 22q57 51 113 74q54 22 125 22q104 0 149 -59q47 -62 35 -160zM283 903q23 0 63 8q14 3 55 21q26 12 52 31q41 31 47 36l18 142q-175 -6 -254 -39q-84 -35 -90 -94q-3 -26 4 -47 q5 -19 23 -33q16 -13 37 -19t45 -6z" />
<glyph unicode="&#xab;" horiz-adv-x="770" d="M88 524l2 15l295 387l29 -17q15 -9 12 -24q0 -12 -10 -25l-223 -299q-5 -7 -27 -29q10 -10 18 -28l152 -303q4 -8 4 -23q-3 -17 -21 -26l-32 -15zM348 524l2 15l295 387l29 -15q17 -10 14 -26q0 -10 -10 -23l-225 -301q-5 -7 -27 -29q14 -14 20 -28l150 -301q4 -8 4 -25 q-4 -19 -18 -26l-33 -15z" />
<glyph unicode="&#xac;" horiz-adv-x="1105" d="M127 725h848l-45 -377h-84l37 301h-764z" />
<glyph unicode="&#xad;" horiz-adv-x="743" d="M141 649h475l-10 -84h-475z" />
<glyph unicode="&#xae;" horiz-adv-x="1652" d="M90 725q11 97 51 197q38 95 95 176q57 80 135 149t164 117q83 46 184 74q95 26 201 26q104 0 192 -26q99 -29 168 -74q76 -50 135 -117q59 -69 96 -149q40 -88 54 -176q14 -91 2 -197q-12 -105 -49 -197q-35 -89 -97 -176q-57 -80 -135 -149t-164 -117q-83 -46 -184 -74 q-95 -26 -201 -26q-104 0 -192 26q-99 29 -168 74q-77 50 -135 117q-62 71 -97 149q-39 85 -53 176t-2 197zM150 725q-18 -141 20 -266q38 -123 119 -217q86 -98 196 -148q118 -53 258 -53t273 53q120 48 235 148q101 88 172 217q68 124 86 266q18 141 -20 266 q-38 123 -119 217q-79 91 -199 148q-112 53 -260 53q-147 0 -270 -53q-125 -54 -233 -148q-101 -88 -172 -217q-68 -124 -86 -266zM635 672l-49 -400h-86l110 908h252q157 0 232 -60q72 -58 57 -180q-12 -103 -86 -168q-77 -67 -197 -82q10 -5 21 -16q10 -10 16 -25 l246 -377h-82q-14 0 -18 2q-5 2 -13 15l-231 358q-6 13 -19 19q-12 6 -40 6h-113zM643 737h152q120 0 190 51q68 50 80 142q12 94 -39 139q-47 41 -172 41h-166z" />
<glyph unicode="&#xaf;" horiz-adv-x="815" d="M145 1348h560l-9 -66h-557z" />
<glyph unicode="&#xb0;" horiz-adv-x="815" d="M111 1161q9 63 39 119q32 58 77 98q38 36 107 64q58 24 123 24t118 -24q56 -26 89 -64q37 -43 55 -98q17 -53 8 -119q-9 -63 -39 -119q-27 -50 -76 -96q-41 -38 -106 -65q-61 -25 -125 -25q-62 0 -117 25q-56 26 -90 65q-35 41 -53 96q-19 57 -10 119zM184 1161 q-6 -49 6 -92q11 -41 41 -74t70 -51q41 -18 90 -18q48 0 94 18q38 15 80 51q37 32 60 74q22 39 28 92q6 49 -6 92q-12 44 -41 76q-32 35 -67 51q-38 17 -90 17q-51 0 -95 -17q-35 -14 -82 -51q-31 -24 -59 -76q-23 -41 -29 -92z" />
<glyph unicode="&#xb1;" horiz-adv-x="1175" d="M717 1180l-51 -414h440l-8 -76h-443l-49 -411h-80l49 411h-440l10 76h441l51 414h80zM70 156h962l-8 -74h-963z" />
<glyph unicode="&#xb2;" horiz-adv-x="692" d="M563 1081h23l-15 -116l-6 -43h-69h-414l2 24q0 5 4 17q2 6 14 14l271 244q40 36 61 57q37 37 51 57q20 25 37 60q16 33 19 63q3 42 -4 64q-8 24 -27 43q-16 16 -43 26q-21 8 -55 8q-68 0 -105 -34q-44 -41 -69 -92q-10 -21 -29 -21h-8q-2 0 -6 1t-5 1l-28 6q27 99 96 150 q71 53 164 53q40 0 84 -14q41 -13 65 -37t37 -64q12 -37 6 -86q-7 -50 -20 -76q-18 -38 -43 -69q-22 -31 -57 -62l-68 -61l-240 -215q15 4 41 8q14 2 41 2h240q1 3 6 23l4 16q0 2 1 5.5t1 4.5q6 43 43 43z" />
<glyph unicode="&#xb3;" horiz-adv-x="671" d="M406 1663q37 0 81 -14q40 -13 64 -37q26 -26 37 -58q12 -35 6 -79q-10 -72 -49 -111q-46 -49 -107 -66q75 -18 107 -59q35 -44 26 -111q-6 -47 -30 -88q-25 -42 -60 -67q-47 -34 -82 -45q-47 -15 -96 -15q-59 0 -100 15q-37 14 -66 43q-25 25 -37 59t-18 72l31 12 q4 4 8 4h10q6 0 14 -4q6 -3 9 -12l2 -8q1 -4 4.5 -15t5.5 -18q5 -19 22 -39q12 -15 45 -33q25 -14 74 -14q36 0 76 14q28 10 57 35q21 19 37 47q16 29 19 53q3 30 -4 60q-6 27 -29 47q-25 21 -57 29q-42 10 -91 10l7 49q93 3 143 41q48 36 57 102q4 42 -4 62q-11 30 -24 43 t-43 24q-21 8 -56 8q-68 0 -106 -32q-47 -40 -68 -94q-9 -21 -26 -21q-13 0 -23 2l-25 4q27 100 97 152q71 53 162 53z" />
<glyph unicode="&#xb4;" horiz-adv-x="559" d="M467 1466l-254 -260q-12 -12 -18 -14q-12 -4 -23 -4h-57l190 246q11 16 27 24t39 8h96z" />
<glyph unicode="&#xb5;" horiz-adv-x="1140" d="M338 1020l-80 -651q-18 -147 37 -226q57 -82 190 -82q95 0 191 52q88 48 172 141l94 766h98l-125 -1020h-53q-29 0 -26 27l8 151q-86 -92 -174 -137q-92 -47 -199 -47q-103 0 -162 39q-66 44 -92 114q0 -28 -4 -90q-1 -17 -4 -44.5t-4 -37.5l-41 -335h-49q-22 0 -31 12 q-10 14 -8 31l164 1337h98z" />
<glyph unicode="&#xb6;" horiz-adv-x="1368" d="M1323 1450l-10 -86h-232l-190 -1559h-88l192 1559h-336l-192 -1559h-88l113 912q-105 0 -187 28q-75 26 -131 78q-55 52 -76 119q-23 72 -14 148q8 76 51 147q43 72 103 115q65 47 151 71q96 27 193 27h741z" />
<glyph unicode="&#xb7;" horiz-adv-x="462" d="M129 606q3 18 14 41q6 12 27 33q15 15 35 25q16 8 39 8q25 0 41 -8q17 -8 30 -25q14 -17 19 -33q6 -17 2 -41q-3 -21 -12 -39q-9 -17 -27 -32q-19 -15 -37 -23q-19 -8 -41 -8q-23 0 -39 8q-10 5 -28 23q-12 12 -19 32t-4 39z" />
<glyph unicode="&#xb8;" horiz-adv-x="583" d="M137 -279q4 0 13 -6q6 -4 22 -12q6 -3 33 -12q18 -6 49 -6q53 0 84 22t37 62q3 26 -8 43q-11 16 -35 28q-22 11 -56 17q-58 10 -71 12l59 135h64l-43 -98q90 -15 133 -45q41 -28 35 -92q-3 -27 -21 -56q-13 -21 -43 -41q-26 -17 -63 -26q-46 -11 -78 -11q-36 0 -80 13 q-30 9 -62 33l13 28q6 12 18 12z" />
<glyph unicode="&#xb9;" horiz-adv-x="552" d="M98 971h162l68 553l8 39l-162 -129q-10 -7 -18 -7q-10 0 -17 11l-18 30l239 189h60l-84 -686h149l-6 -49h-387z" />
<glyph unicode="&#xba;" horiz-adv-x="794" d="M449 1462q68 0 118 -20t86 -62q32 -37 45 -98q13 -59 4 -127q-10 -77 -34 -127q-29 -60 -70 -98q-46 -42 -100 -62q-56 -20 -125 -20q-71 0 -121 20t-86 62q-32 37 -45 98q-13 59 -4 127q10 75 35 127q27 59 69 98q45 42 101 62t127 20zM381 905q106 0 168 68 q61 67 76 182q15 116 -31 182q-47 68 -152 68q-110 0 -172 -68q-60 -66 -75 -182q-15 -117 30 -182q47 -68 156 -68z" />
<glyph unicode="&#xbb;" horiz-adv-x="770" d="M123 137l-29 17q-17 10 -14 26q0 10 10 23l225 301q3 6 13 16q1 1 3.5 4t4.5 5t4 3q-3 6 -8 11q-2 2 -10 18l-150 299q-6 12 -6 25q3 16 20 24l33 17l201 -387l-2 -15zM385 137l-29 17q-17 10 -14 26q0 12 8 23l225 301q1 2 15 16q1 1 3.5 4t4.5 5t4 3q-1 2 -10 11 q-2 2 -4 8.5t-4 9.5l-152 301q-4 8 -4 23q3 17 21 26l32 15l199 -387l-2 -13z" />
<glyph unicode="&#xbc;" horiz-adv-x="1314" d="M1130 254h130l-7 -37q-3 -16 -18 -16h-113l-24 -201h-64l25 201h-334q-23 0 -23 16l-2 33l420 483h68zM72 768h161l68 553l8 39l-162 -131q-6 -4 -18 -4q-11 0 -16 8l-19 33l240 188h59l-84 -686h150l-6 -51h-387zM1108 596q4 35 8 53l-344 -395h293zM223 33 q-14 -22 -28 -27q-15 -6 -33 -6h-41l993 1413q12 18 27 27q17 10 35 10h43z" />
<glyph unicode="&#xbd;" horiz-adv-x="1329" d="M1192 160h22l-14 -117l-6 -43h-70h-415l4 25q0 4 4 16q3 9 14 16l270 242q50 45 62 57q35 35 51 58q21 27 37 59q15 30 18 66q3 40 -4 61q-9 28 -26 45q-14 14 -43 25q-27 10 -56 10q-64 0 -104 -37q-46 -43 -70 -92q-10 -21 -28 -21h-9q-2 0 -5.5 1t-4.5 1l-28 7 q27 97 96 149q71 53 164 53q40 0 84 -14q41 -13 65 -37q25 -25 37 -63q12 -37 6 -86q-7 -50 -20 -76q-19 -41 -43 -70q-16 -22 -60 -61q-12 -10 -32.5 -31t-32.5 -31l-240 -215q22 6 41 9q14 2 41 2h240q2 6 6 22l4 16q0 2 1 6t1 5q6 43 43 43zM78 768h162l67 553l8 39 l-161 -129q-9 -6 -19 -6q-11 0 -16 8l-19 33l240 188h59l-84 -686h150l-6 -49h-387zM180 33q-15 -23 -26 -27q-15 -6 -33 -6h-41l993 1413q12 18 27 27q17 10 33 10h43z" />
<glyph unicode="&#xbe;" horiz-adv-x="1384" d="M1198 254h129l-4 -37q-3 -16 -20 -16h-111l-25 -201h-65l24 201h-331q-25 0 -25 16l-2 33l420 483h69zM389 1458q45 0 82 -12q40 -13 64 -37t36 -59q13 -37 7 -78q-10 -73 -50 -113q-42 -45 -106 -63q71 -17 106 -62q36 -45 27 -110q-5 -45 -31 -88q-26 -45 -59 -68 q-42 -30 -82 -43q-50 -16 -96 -16q-58 0 -101 16q-38 14 -65 41q-24 24 -37 61q-13 36 -18 70l30 14q2 2 8 2q1 0 5 1t6 1q6 0 14 -4q5 -2 8 -12l2 -8q1 -4 5 -15t6 -18q5 -19 22 -39q16 -19 45 -35q25 -14 74 -14q36 0 76 14q28 10 57 35q19 17 37 49q15 27 18 52 q3 31 -4 61q-6 25 -29 45q-25 21 -57 29q-42 10 -90 10l6 51q94 3 144 41q48 36 57 103q3 39 -4 59q-11 29 -25 43q-13 13 -43 24q-29 11 -55 11q-64 0 -107 -37q-45 -39 -67 -90q-9 -21 -27 -21h-4h-6l-4 1q-4 1 -8 1q-5 0 -25 4q27 99 96 150q71 53 162 53zM1176 596 q1 8 10 53l-346 -397h293zM299 31q-12 -18 -29 -25q-15 -6 -30 -6h-41l991 1413q12 18 27 27q13 8 34 8h43z" />
<glyph unicode="&#xbf;" horiz-adv-x="815" d="M735 -229q-43 -38 -67 -54q-49 -31 -82 -45q-54 -22 -94 -32q-54 -13 -109 -13q-66 0 -133 23q-63 21 -103 59q-44 41 -65 96t-12 129t41 134q25 46 73 94q34 34 88 69q8 5 39 26t47 30q45 27 72 51q29 26 35 63l33 166h65l-14 -174l-2 -4q-6 -44 -33 -74 q-26 -29 -68 -57q-59 -39 -86 -55q-56 -33 -88 -62q-41 -38 -69 -84q-31 -50 -39 -114q-6 -58 8 -99q15 -43 49 -73q39 -34 80 -47q47 -15 98 -15q71 0 121 17q38 13 88 41q34 19 56 38t30 19q11 0 15 -4t6 -8zM483 940q3 16 13 37q11 22 22 31q19 15 33 20q18 6 39 6 q20 0 35 -6q20 -12 28 -20q10 -10 17 -31q7 -20 4 -37q-3 -22 -12 -37q-9 -18 -25 -31q-19 -15 -33 -20q-18 -6 -39 -6q-40 0 -63 26q-25 28 -19 68z" />
<glyph unicode="&#xc0;" d="M1432 88q37 -3 34 -41l-6 -47h-65h-43h-39h-13h-192l6 47q6 38 51 41q1 0 5 1t8 1q2 0 12 1t18 1q32 0 52 2l-101 355l-6 26h-692l-12 -26l-187 -355q20 -2 51 -2q8 0 17.5 -1t11.5 -1q4 0 8 -1l4 -1q47 -3 41 -41l-4 -47h-192h-15h-39h-41h-67l6 47q3 38 45 41l66 6 l720 1356h105l387 -1356zM874 1257l-370 -704h626l-198 707q-4 14 -8 38q-10 33 -11 45q-9 -24 -18 -45q-4 -8 -12 -23.5t-9 -17.5zM784 1812q29 0 37 -4q14 -7 25 -18l207 -211h-74q-15 0 -21 2q-9 3 -16 10l-272 221h114z" />
<glyph unicode="&#xc1;" d="M1432 88q37 -3 34 -41l-6 -47h-65h-43h-39h-13h-192l6 47q6 38 51 41q1 0 5 1t8 1q2 0 12 1t18 1q32 0 52 2l-101 355l-6 26h-692l-12 -26l-187 -355q20 -2 51 -2q8 0 17.5 -1t11.5 -1q4 0 8 -1l4 -1q47 -3 41 -41l-4 -47h-192h-15h-39h-41h-67l6 47q3 38 45 41l66 6 l720 1356h105l387 -1356zM874 1257l-370 -704h626l-198 707q-4 14 -8 38q-10 33 -11 45q-9 -24 -18 -45q-4 -8 -12 -23.5t-9 -17.5zM1266 1812l-326 -221l-20 -10q-6 -2 -21 -2h-72l258 211q12 9 29 18q8 4 37 4h115z" />
<glyph unicode="&#xc2;" d="M1432 88q37 -3 34 -41l-6 -47h-65h-43h-39h-13h-192l6 47q6 38 51 41q1 0 5 1t8 1q2 0 12 1t18 1q32 0 52 2l-101 355l-6 26h-692l-12 -26l-187 -355q20 -2 51 -2q8 0 17.5 -1t11.5 -1q4 0 8 -1l4 -1q47 -3 41 -41l-4 -47h-192h-15h-39h-41h-67l6 47q3 38 45 41l66 6 l720 1356h105l387 -1356zM874 1257l-370 -704h626l-198 707q-4 14 -8 38q-10 33 -11 45q-9 -24 -18 -45q-4 -8 -12 -23.5t-9 -17.5zM1229 1579h-76q-10 0 -16 2q-14 5 -17 8l-143 127q-2 2 -5.5 4.5t-4.5 3.5l-6 5q-1 -1 -3.5 -2.5t-3.5 -2.5l-12 -8l-176 -127q-8 -5 -16 -8 q-6 -2 -19 -2h-76l267 203h92z" />
<glyph unicode="&#xc3;" d="M1432 88q37 -3 34 -41l-6 -47h-65h-43h-39h-13h-192l6 47q6 38 51 41q1 0 5 1t8 1q2 0 12 1t18 1q32 0 52 2l-101 355l-6 26h-692l-12 -26l-187 -355q20 -2 51 -2q8 0 17.5 -1t11.5 -1q4 0 8 -1l4 -1q47 -3 41 -41l-4 -47h-192h-15h-39h-41h-67l6 47q3 38 45 41l66 6 l720 1356h105l387 -1356zM874 1257l-370 -704h626l-198 707q-4 14 -8 38q-10 33 -11 45q-9 -24 -18 -45q-4 -8 -12 -23.5t-9 -17.5zM1073 1655q45 0 70 28q27 31 33 72h55q-2 -22 -19 -65q-15 -37 -32 -54q-21 -24 -50 -37q-27 -12 -63 -12q-30 0 -61 17q-30 17 -56 34 q-7 5 -24.5 17t-26.5 18q-27 17 -53 17q-42 0 -68 -29q-27 -31 -33 -72h-57q3 30 17 66q12 30 34 55q19 22 49 35q27 12 64 12q34 0 63 -16q21 -12 56 -35q7 -5 24.5 -17t26.5 -18q26 -16 51 -16z" />
<glyph unicode="&#xc4;" d="M1432 88q37 -3 34 -41l-6 -47h-65h-43h-39h-13h-192l6 47q6 38 51 41q1 0 5 1t8 1q2 0 12 1t18 1q32 0 52 2l-101 355l-6 26h-692l-12 -26l-187 -355q20 -2 51 -2q8 0 17.5 -1t11.5 -1q4 0 8 -1l4 -1q47 -3 41 -41l-4 -47h-192h-15h-39h-41h-67l6 47q3 38 45 41l66 6 l720 1356h105l387 -1356zM874 1257l-370 -704h626l-198 707q-4 14 -8 38q-10 33 -11 45q-9 -24 -18 -45q-4 -8 -12 -23.5t-9 -17.5zM827 1704q-4 -21 -10 -31q-8 -14 -22 -24q-12 -12 -29 -19q-15 -6 -33 -6q-16 0 -31 6q-5 2 -22 19q-14 18 -16 24q-5 14 -2 31q5 25 10 33 q9 15 20 26q12 12 29 19q20 8 33 8q10 0 30 -8q15 -6 25 -19q8 -10 14 -26q7 -18 4 -33zM1253 1704q-4 -21 -10 -31q-8 -14 -22 -24q-12 -12 -29 -19q-15 -6 -31 -6q-18 0 -33 6q-5 2 -22 19q-14 18 -16 24q-6 15 -3 31q3 34 31 59t62 25q15 0 30 -6t25 -19q12 -16 16 -26 q6 -14 2 -33z" />
<glyph unicode="&#xc5;" d="M1432 88q37 -3 34 -41l-6 -47h-65h-43h-39h-13h-192l6 47q6 38 51 41q1 0 5 1t8 1q2 0 12 1t18 1q32 0 52 2l-101 355l-6 26h-692l-12 -26l-187 -355q20 -2 51 -2q8 0 17.5 -1t11.5 -1q4 0 8 -1l4 -1q47 -3 41 -41l-4 -47h-192h-15h-39h-41h-67l6 47q3 38 45 41l66 6 l720 1356h105l387 -1356zM874 1257l-370 -704h626l-198 707q-4 14 -8 38q-10 33 -11 45q-9 -24 -18 -45q-4 -8 -12 -23.5t-9 -17.5zM782 1669q3 36 21 66q15 24 45 51q25 22 57 33q35 12 68 12q35 0 65 -12q32 -13 52 -33q18 -18 28 -51q9 -30 6 -66q-3 -37 -20 -65 q-18 -30 -43 -52q-21 -18 -60 -32q-37 -13 -67 -13q-33 0 -66 13q-28 11 -49 32q-22 22 -31 52q-9 29 -6 65zM836 1669q-6 -49 22 -84q26 -33 82 -33q52 0 88 33q37 34 43 84q6 49 -22 84q-26 33 -80 33t-90 -33q-37 -34 -43 -84z" />
<glyph unicode="&#xc6;" horiz-adv-x="2072" d="M1073 1448h979l-12 -86l-25 -213h-51q-40 0 -37 49q3 24 12 164h-733l2 -586h574l-10 -84h-564l2 -604h572q2 19 12 70q10 54 12 65q1 5 2 11.5t1.5 10t0.5 5.5q9 51 50 51h51l-27 -213l-10 -88h-739h-21h-151l6 41q3 34 45 37h14h35q8 0 25 1t26 1l-2 369h-610 l-238 -355q20 -2 49 -2q8 0 17.5 -1t11.5 -1q4 0 9 -1l5 -1q47 -3 41 -41l-6 -47h-192h-29h-23h-57h-53l6 47q3 38 45 41l66 6l860 1276h-39q-7 0 -17 1t-12 1h-14q-40 3 -37 37l6 39h168h4zM1110 526l-4 842q-5 -11 -14 -28t-11 -21q-13 -27 -26 -47l-502 -746h557z" />
<glyph unicode="&#xc7;" horiz-adv-x="1339" d="M1174 236l34 -43q-49 -46 -108 -87q-66 -42 -123 -65q-73 -29 -143 -43q-82 -14 -156 -14l-4 -9l-31 -67q86 -15 133 -47q43 -30 37 -92q-3 -29 -20 -56q-15 -25 -45 -41q-35 -20 -62 -26q-33 -8 -78 -8q-46 0 -80 10q-31 9 -63 33l14 28q6 12 19 12q3 0 12 -6 q12 -8 20 -12q6 -3 33 -12q18 -6 49 -6q55 0 86 22t37 62q4 29 -8 43q-11 16 -35 28q-23 11 -55 17q-40 7 -74 12l51 117q-116 6 -219 51q-122 53 -196 149q-78 100 -111 234q-33 133 -12 305q21 167 88 301q66 132 174 234q98 92 244 151q132 53 295 53q209 0 448 -102 l-39 -328h-49q-42 0 -39 49q1 7 2.5 33.5t5.5 81t8 109.5q-143 67 -350 67q-135 0 -248 -45q-118 -47 -206 -129q-95 -91 -150 -205q-60 -124 -78 -270q-18 -156 11 -274q31 -123 98 -205q70 -85 168 -127q99 -45 223 -45q73 0 141 10q59 9 115 31q62 25 102 49q41 25 95 69 q2 1 6 4.5t6 4.5q4 2 10 2q9 0 17 -8z" />
<glyph unicode="&#xc8;" horiz-adv-x="1273" d="M385 1448h868l-12 -86l-24 -213h-52q-40 0 -37 49q5 46 13 164h-662l-71 -586h575l-10 -84h-576l-75 -604h661q2 19 12 70q2 12 5 26.5t5 23.5t3 15q1 5 2 11.5t1.5 10t0.5 5.5q9 51 49 51h51l-27 -213l-10 -88h-868h-174l6 41q3 34 45 37h18q4 0 20.5 1t27.5 1 q9 0 31.5 1t35.5 1l158 1286q-13 0 -36 1t-32 1q-11 0 -26 1t-19 1h-18q-40 3 -37 37l4 39h174zM686 1812q29 0 37 -4q14 -7 25 -18l206 -211h-73q-13 0 -19 2q-12 4 -18 10l-273 221h115z" />
<glyph unicode="&#xc9;" horiz-adv-x="1273" d="M385 1448h868l-12 -86l-24 -213h-52q-40 0 -37 49q5 46 13 164h-662l-71 -586h575l-10 -84h-576l-75 -604h661q2 19 12 70q2 12 5 26.5t5 23.5t3 15q1 5 2 11.5t1.5 10t0.5 5.5q9 51 49 51h51l-27 -213l-10 -88h-868h-174l6 41q3 34 45 37h18q4 0 20.5 1t27.5 1 q9 0 31.5 1t35.5 1l158 1286q-13 0 -36 1t-32 1q-11 0 -26 1t-19 1h-18q-40 3 -37 37l4 39h174zM1167 1812l-325 -221q-18 -9 -21 -10q-6 -2 -20 -2h-72l258 211q12 9 29 18q8 4 37 4h114z" />
<glyph unicode="&#xca;" horiz-adv-x="1273" d="M385 1448h868l-12 -86l-24 -213h-52q-40 0 -37 49q5 46 13 164h-662l-71 -586h575l-10 -84h-576l-75 -604h661q2 19 12 70q2 12 5 26.5t5 23.5t3 15q1 5 2 11.5t1.5 10t0.5 5.5q9 51 49 51h51l-27 -213l-10 -88h-868h-174l6 41q3 34 45 37h18q4 0 20.5 1t27.5 1 q9 0 31.5 1t35.5 1l158 1286q-13 0 -36 1t-32 1q-11 0 -26 1t-19 1h-18q-40 3 -37 37l4 39h174zM1130 1579h-75q-11 0 -17 2q-12 4 -16 8l-143 125l-11 10l-6 5q-1 -1 -3 -2.5t-3 -2.5q-6 -6 -12 -10l-176 -125q-7 -5 -17 -8q-6 -2 -18 -2h-76l266 203h92z" />
<glyph unicode="&#xcb;" horiz-adv-x="1273" d="M385 1448h868l-12 -86l-24 -213h-52q-40 0 -37 49q5 46 13 164h-662l-71 -586h575l-10 -84h-576l-75 -604h661q2 19 12 70q2 12 5 26.5t5 23.5t3 15q1 5 2 11.5t1.5 10t0.5 5.5q9 51 49 51h51l-27 -213l-10 -88h-868h-174l6 41q3 34 45 37h18q4 0 20.5 1t27.5 1 q9 0 31.5 1t35.5 1l158 1286q-13 0 -36 1t-32 1q-11 0 -26 1t-19 1h-18q-40 3 -37 37l4 39h174zM729 1704q-4 -21 -10 -31q-7 -12 -23 -24q-13 -13 -28 -19t-33 -6q-16 0 -31 6q-5 2 -22 19q-16 21 -17 24q-5 14 -2 31q5 25 10 33q7 12 21 26q12 12 29 19q15 6 32 6 q16 0 31 -6t25 -19q8 -10 14 -26q7 -18 4 -33zM1155 1704q-4 -21 -10 -31q-7 -12 -23 -24q-13 -13 -28 -19t-31 -6q-18 0 -33 6q-5 2 -22 19q-16 21 -17 24q-5 14 -2 31q3 34 31 59t61 25q16 0 31 -6t25 -19q12 -16 16 -26q6 -14 2 -33z" />
<glyph unicode="&#xcc;" horiz-adv-x="679" d="M612 1372h-20q-4 0 -19 -1t-26 -1q-9 0 -32 -1t-36 -1l-157 -1286q13 0 35.5 -1t31.5 -1q11 0 26 -1t19 -1h19q39 -3 36 -37l-6 -41h-172h-104h-174l6 41q3 34 45 37h18q4 0 20.5 1t27.5 1q9 0 31.5 1t35.5 1l158 1286q-13 0 -36 1t-32 1q-11 0 -26 1t-19 1h-18 q-40 3 -37 37l4 41h174h104h173l-5 -41q-3 -34 -45 -37zM299 1812q27 0 35 -4q12 -6 24 -18l207 -211h-71q-15 0 -21 2q-9 3 -16 10l-275 221h117z" />
<glyph unicode="&#xcd;" horiz-adv-x="786" d="M612 1372h-20q-4 0 -19 -1t-26 -1q-9 0 -32 -1t-36 -1l-157 -1286q13 0 35.5 -1t31.5 -1q11 0 26 -1t19 -1h19q39 -3 36 -37l-6 -41h-172h-104h-174l6 41q3 34 45 37h18q4 0 20.5 1t27.5 1q9 0 31.5 1t35.5 1l158 1286q-13 0 -36 1t-32 1q-11 0 -26 1t-19 1h-18 q-40 3 -37 37l4 41h174h104h173l-5 -41q-3 -34 -45 -37zM780 1812l-325 -221q-18 -9 -21 -10q-6 -2 -22 -2h-72l260 211q12 9 29 18q8 4 37 4h114z" />
<glyph unicode="&#xce;" horiz-adv-x="747" d="M612 1372h-20q-4 0 -19 -1t-26 -1q-9 0 -32 -1t-36 -1l-157 -1286q13 0 35.5 -1t31.5 -1q11 0 26 -1t19 -1h19q39 -3 36 -37l-6 -41h-172h-104h-174l6 41q3 34 45 37h18q4 0 20.5 1t27.5 1q9 0 31.5 1t35.5 1l158 1286q-13 0 -36 1t-32 1q-11 0 -26 1t-19 1h-18 q-40 3 -37 37l4 41h174h104h173l-5 -41q-3 -34 -45 -37zM741 1579h-73q-13 0 -19 2q-9 3 -14 8l-146 125l-10 10l-4 5q-1 -1 -3 -2.5t-3 -2.5q-6 -6 -12 -10l-176 -125q-5 -3 -19 -8q-6 -2 -18 -2h-76l266 203h92z" />
<glyph unicode="&#xcf;" horiz-adv-x="772" d="M612 1372h-20q-4 0 -19 -1t-26 -1q-9 0 -32 -1t-36 -1l-157 -1286q13 0 35.5 -1t31.5 -1q11 0 26 -1t19 -1h19q39 -3 36 -37l-6 -41h-172h-104h-174l6 41q3 34 45 37h18q4 0 20.5 1t27.5 1q9 0 31.5 1t35.5 1l158 1286q-13 0 -36 1t-32 1q-11 0 -26 1t-19 1h-18 q-40 3 -37 37l4 41h174h104h173l-5 -41q-3 -34 -45 -37zM340 1704q-4 -21 -10 -31q-9 -15 -21 -24q-13 -13 -28 -19t-33 -6q-16 0 -31 6q-8 3 -24 19q-12 15 -15 24q-7 17 -4 31q4 20 12 33q7 12 21 26q12 12 29 19q15 6 30 6q18 0 33 -6q13 -5 23 -19q12 -16 16 -26 q6 -14 2 -33zM766 1704q-4 -21 -10 -31q-9 -15 -21 -24q-13 -13 -28 -19t-33 -6q-16 0 -31 6q-10 4 -25 19q-9 13 -14 24q-7 17 -4 31q3 32 33 59q28 25 61 25q16 0 31 -6t25 -19q8 -10 14 -26q6 -14 2 -33z" />
<glyph unicode="&#xd0;" horiz-adv-x="1562" d="M1477 1026q33 -131 12 -301q-21 -171 -86 -301q-67 -133 -170 -229q-104 -97 -236 -146q-131 -49 -288 -49h-502h-174q2 14 6 41q5 34 45 37q49 0 133 4l76 618h-221l8 66h221l74 602q-84 4 -131 4q-42 3 -37 37l4 39h174h502q157 0 276 -49q120 -49 201 -146 q79 -94 113 -227zM1307 453q55 119 73 272t-8 270q-27 119 -94 201t-168 125t-233 43h-398l-73 -598h413l-8 -66h-414l-75 -616h397q131 0 244 43q117 44 200 125q92 89 144 201z" />
<glyph unicode="&#xd1;" horiz-adv-x="1691" d="M1503 1448h172l-6 -39q-3 -34 -45 -37h-18q-4 0 -19 -1t-26 -1q-9 0 -32 -1t-36 -1l-168 -1368h-51q-24 0 -35 20l-788 1258q0 -14 -5 -59l-139 -1137q13 0 36 -1t32 -1q11 0 27 -1t20 -1h20q40 -3 37 -37l-4 -41h-178h-90h-174l6 41q3 34 45 37h18q4 0 20.5 1t27.5 1 q9 0 31.5 1t35.5 1l158 1286q-13 0 -36 1t-32 1q-11 0 -26 1t-19 1h-18q-40 3 -37 37l4 41h174h51q9 0 21 -4q10 -3 16 -16l784 -1256q0 14 5 59l139 1135q-13 0 -36 1t-32 1q-11 0 -28 1t-21 1h-20q-38 3 -35 37l4 39h178h92zM1128 1655q45 0 70 28t31 72h55 q-2 -31 -16 -65q-14 -35 -33 -54q-22 -25 -49 -37t-64 -12q-32 0 -63 17q-24 13 -55 34q-5 3 -24 16t-28 19q-27 17 -51 17q-44 0 -70 -29t-32 -72h-58q2 24 19 66q11 28 35 55q19 22 49 35q27 12 63 12q35 0 64 -16q15 -8 55 -35q8 -5 24 -17.5t25 -17.5q26 -16 53 -16z " />
<glyph unicode="&#xd2;" horiz-adv-x="1529" d="M1458 725q-21 -171 -88 -305q-70 -139 -170 -234q-102 -96 -235 -149t-289 -53q-152 0 -273 53q-124 54 -200 149q-78 97 -113 234q-35 136 -14 305q21 170 88 303q68 136 172 234q106 100 235 151q133 53 287 53t275 -53t200 -151q78 -97 113 -234q34 -132 12 -303z M1350 725q18 151 -9 272q-27 119 -94 205t-168 129q-106 45 -233 45q-124 0 -242 -45q-101 -39 -198 -129q-84 -79 -146 -205q-58 -118 -76 -272q-18 -152 9 -272q28 -124 94 -205q71 -87 170 -129q101 -43 229 -43q133 0 246 43q106 41 198 129q89 86 144 205 q59 128 76 272zM717 1812q27 0 35 -4q12 -6 24 -18l209 -211h-74q-14 0 -20 2q-11 3 -17 10l-272 221h115z" />
<glyph unicode="&#xd3;" horiz-adv-x="1529" d="M1458 725q-21 -171 -88 -305q-70 -139 -170 -234q-102 -96 -235 -149t-289 -53q-152 0 -273 53q-124 54 -200 149q-78 97 -113 234q-35 136 -14 305q21 170 88 303q68 136 172 234q106 100 235 151q133 53 287 53t275 -53t200 -151q78 -97 113 -234q34 -132 12 -303z M1350 725q18 151 -9 272q-27 119 -94 205t-168 129q-106 45 -233 45q-124 0 -242 -45q-101 -39 -198 -129q-84 -79 -146 -205q-58 -118 -76 -272q-18 -152 9 -272q28 -124 94 -205q71 -87 170 -129q101 -43 229 -43q133 0 246 43q106 41 198 129q89 86 144 205 q59 128 76 272zM1198 1812l-326 -221q-3 -1 -7 -3.5t-7 -4t-6 -2.5q-6 -2 -21 -2h-71l258 211q12 9 29 18q8 4 36 4h115z" />
<glyph unicode="&#xd4;" horiz-adv-x="1529" d="M1458 725q-21 -171 -88 -305q-70 -139 -170 -234q-102 -96 -235 -149t-289 -53q-152 0 -273 53q-124 54 -200 149q-78 97 -113 234q-35 136 -14 305q21 170 88 303q68 136 172 234q106 100 235 151q133 53 287 53t275 -53t200 -151q78 -97 113 -234q34 -132 12 -303z M1350 725q18 151 -9 272q-27 119 -94 205t-168 129q-106 45 -233 45q-124 0 -242 -45q-101 -39 -198 -129q-84 -79 -146 -205q-58 -118 -76 -272q-18 -152 9 -272q28 -124 94 -205q71 -87 170 -129q101 -43 229 -43q133 0 246 43q106 41 198 129q89 86 144 205 q59 128 76 272zM1161 1579h-76q-12 0 -18 2q-9 3 -14 8l-146 127q-2 2 -5.5 4.5t-4.5 3.5l-4 5q-1 -1 -3 -2.5t-3 -2.5t-3 -2l-5 -2.5t-5 -3.5l-176 -127q-6 -4 -18 -8q-6 -2 -16 -2h-76l264 203h92z" />
<glyph unicode="&#xd5;" horiz-adv-x="1529" d="M1458 725q-21 -171 -88 -305q-70 -139 -170 -234q-102 -96 -235 -149t-289 -53q-152 0 -273 53q-124 54 -200 149q-78 97 -113 234q-35 136 -14 305q21 170 88 303q68 136 172 234q106 100 235 151q133 53 287 53t275 -53t200 -151q78 -97 113 -234q34 -132 12 -303z M1350 725q18 151 -9 272q-27 119 -94 205t-168 129q-106 45 -233 45q-124 0 -242 -45q-101 -39 -198 -129q-84 -79 -146 -205q-58 -118 -76 -272q-18 -152 9 -272q28 -124 94 -205q71 -87 170 -129q101 -43 229 -43q133 0 246 43q106 41 198 129q89 86 144 205 q59 128 76 272zM1006 1655q44 0 69 28q27 31 33 72h55q-2 -25 -18 -65q-14 -35 -33 -54q-22 -25 -49 -37t-64 -12q-32 0 -63 17q-12 7 -53 34q-30 20 -54 35q-27 17 -51 17q-43 0 -69 -29q-27 -31 -33 -72h-58q2 24 19 66q11 28 35 55q19 22 49 35q27 12 63 12q35 0 64 -16 q15 -8 55 -35q7 -5 24.5 -17t26.5 -18q26 -16 52 -16z" />
<glyph unicode="&#xd6;" horiz-adv-x="1529" d="M1458 725q-21 -171 -88 -305q-70 -139 -170 -234q-102 -96 -235 -149t-289 -53q-152 0 -273 53q-124 54 -200 149q-78 97 -113 234q-35 136 -14 305q21 170 88 303q68 136 172 234q106 100 235 151q133 53 287 53t275 -53t200 -151q78 -97 113 -234q34 -132 12 -303z M1350 725q18 151 -9 272q-27 119 -94 205t-168 129q-106 45 -233 45q-124 0 -242 -45q-101 -39 -198 -129q-84 -79 -146 -205q-58 -118 -76 -272q-18 -152 9 -272q28 -124 94 -205q71 -87 170 -129q101 -43 229 -43q133 0 246 43q106 41 198 129q89 86 144 205 q59 128 76 272zM760 1704q-3 -16 -12 -31t-21 -24q-12 -12 -29 -19q-15 -6 -32 -6q-16 0 -31 6q-10 4 -25 19q-9 13 -14 24q-5 14 -2 31q5 25 10 33q8 12 21 26q13 13 28 19q20 8 33 8q11 0 31 -8q14 -6 24 -19t15 -26q7 -18 4 -33zM1186 1704q-3 -16 -12 -31t-21 -24 q-12 -12 -29 -19q-15 -6 -32 -6q-16 0 -31 6q-10 4 -25 19q-9 13 -14 24q-5 14 -2 31q3 34 31 59t61 25q16 0 31 -6q14 -6 24 -19t15 -26q7 -18 4 -33z" />
<glyph unicode="&#xd7;" horiz-adv-x="995" d="M975 1061l-422 -375l336 -381l-60 -53l-335 381l-431 -383l-47 53l430 383l-329 377l59 55l332 -377l420 375z" />
<glyph unicode="&#xd8;" horiz-adv-x="1562" d="M1477 725q-21 -171 -88 -305q-70 -139 -170 -234q-101 -95 -236 -149q-133 -53 -289 -53q-109 0 -215 32q-93 28 -174 90l-158 -180q-18 -21 -32 -26q-18 -6 -33 -6h-45l219 253q-98 98 -141 244q-42 143 -21 334q21 170 88 303q68 136 172 234q105 99 236 151 q133 53 287 53q124 0 225 -34t180 -101l131 154q16 16 25 22q14 9 30 9h58l-197 -228q90 -98 131 -239q39 -135 17 -324zM203 725q-21 -167 12 -289q35 -130 111 -211l888 1030q-64 58 -153 88q-97 33 -197 33q-123 0 -241 -45q-108 -44 -199 -129q-83 -77 -145 -205 q-58 -118 -76 -272zM1368 725q18 153 -10 279q-26 120 -98 204l-889 -1026q66 -53 147 -80q79 -26 187 -26q127 0 245 45q111 43 199 127q87 84 143 205q59 128 76 272z" />
<glyph unicode="&#xd9;" horiz-adv-x="1542" d="M1354 1448h172l-4 -39q-3 -34 -45 -37h-21q-4 0 -19 -1t-26 -1q-9 0 -32 -1t-36 -1l-100 -815q-14 -116 -65 -223q-49 -104 -131 -183q-78 -75 -189 -120q-107 -43 -233 -43q-131 0 -224 43q-96 44 -157 120q-65 80 -88 183q-25 110 -11 223l101 815q-13 0 -36 1t-32 1 q-11 0 -26 1t-19 1h-18q-40 3 -37 37l6 39h172h104h199l-4 -39q-3 -34 -45 -37h-27q-6 0 -25.5 -1t-33.5 -1q-13 0 -37.5 -1t-36.5 -1l-98 -815q-12 -102 6 -188q18 -84 70 -152q50 -65 125 -102t182 -37q108 0 192 37q93 41 152 100q65 65 106 154q43 94 54 188l100 815 q-13 0 -37 1t-37 1q-14 0 -32.5 1t-24.5 1h-27q-37 3 -34 37l4 39h198h105zM664 1812q28 0 36 -4q10 -5 23 -18l209 -211h-74q-14 0 -20 2q-10 3 -17 10l-272 221h115z" />
<glyph unicode="&#xda;" d="M1354 1448h174l-6 -39q-3 -34 -45 -37h-19q-4 0 -20 -1t-27 -1q-9 0 -32 -1t-36 -1l-98 -815q-14 -116 -65 -223q-49 -104 -131 -183q-78 -75 -189 -120q-107 -43 -235 -43q-131 0 -224 43q-96 44 -157 120q-62 77 -86 183q-25 110 -11 223l99 815q-13 0 -35 1t-31 1 q-11 0 -26 1t-19 1h-20q-38 3 -35 37l4 39h172h106h199l-6 -39q-3 -34 -45 -37h-25q-6 0 -25.5 -1t-33.5 -1q-12 0 -37 -1t-37 -1l-100 -815q-11 -96 8 -188q18 -87 68 -152q49 -64 127 -102q75 -37 182 -37q106 0 190 37q96 42 154 100q65 65 106 154q43 94 54 188l98 815 q-13 0 -36 1t-36 1q-14 0 -33.5 1t-25.5 1h-25q-39 3 -36 37l6 39h196h105zM1147 1812l-328 -221q-3 -2 -9 -5.5t-9 -4.5q-6 -2 -23 -2h-71l258 211q13 11 28 18q8 4 39 4h115z" />
<glyph unicode="&#xdb;" horiz-adv-x="1542" d="M1354 1448h172l-4 -39q-3 -34 -45 -37h-21q-4 0 -19 -1t-26 -1q-9 0 -32 -1t-36 -1l-100 -815q-14 -116 -65 -223q-49 -104 -131 -183q-78 -75 -189 -120q-107 -43 -233 -43q-131 0 -224 43q-96 44 -157 120q-65 80 -88 183q-25 110 -11 223l101 815q-13 0 -36 1t-32 1 q-11 0 -26 1t-19 1h-18q-40 3 -37 37l6 39h172h104h199l-4 -39q-3 -34 -45 -37h-27q-6 0 -25.5 -1t-33.5 -1q-13 0 -37.5 -1t-36.5 -1l-98 -815q-12 -102 6 -188q18 -84 70 -152q50 -65 125 -102t182 -37q108 0 192 37q93 41 152 100q65 65 106 154q43 94 54 188l100 815 q-13 0 -37 1t-37 1q-14 0 -32.5 1t-24.5 1h-27q-37 3 -34 37l4 39h198h105zM1108 1579h-76q-10 0 -16 2q-13 5 -17 8l-145 127q-2 2 -5.5 4.5t-4.5 3.5l-4 5q-1 -1 -3 -2.5t-3 -2.5t-3 -2l-5 -2.5t-5 -3.5l-176 -127q-6 -4 -18 -8q-6 -2 -17 -2h-75l264 203h92z" />
<glyph unicode="&#xdc;" horiz-adv-x="1542" d="M1354 1448h172l-4 -39q-3 -34 -45 -37h-21q-4 0 -19 -1t-26 -1q-9 0 -32 -1t-36 -1l-100 -815q-14 -116 -65 -223q-49 -104 -131 -183q-78 -75 -189 -120q-107 -43 -233 -43q-131 0 -224 43q-96 44 -157 120q-65 80 -88 183q-25 110 -11 223l101 815q-13 0 -36 1t-32 1 q-11 0 -26 1t-19 1h-18q-40 3 -37 37l6 39h172h104h199l-4 -39q-3 -34 -45 -37h-27q-6 0 -25.5 -1t-33.5 -1q-13 0 -37.5 -1t-36.5 -1l-98 -815q-12 -102 6 -188q18 -84 70 -152q50 -65 125 -102t182 -37q108 0 192 37q93 41 152 100q65 65 106 154q43 94 54 188l100 815 q-13 0 -37 1t-37 1q-14 0 -32.5 1t-24.5 1h-27q-37 3 -34 37l4 39h198h105zM707 1704q-3 -14 -13 -31q-10 -16 -20 -24q-12 -12 -29 -19q-15 -6 -33 -6q-15 0 -30 6q-10 4 -25 19q-9 13 -14 24q-5 14 -2 31q5 25 10 33q9 15 20 26q12 12 29 19q20 8 33 8q11 0 31 -8 q14 -6 24 -19q8 -10 14 -26q8 -19 5 -33zM1133 1704q-4 -19 -11 -31q-8 -14 -22 -24q-12 -12 -29 -19q-15 -6 -33 -6q-15 0 -30 6q-10 4 -25 19q-9 13 -14 24q-5 14 -2 31q3 35 30 59q28 25 62 25q16 0 31 -6q14 -6 24 -19q8 -10 14 -26q8 -19 5 -33z" />
<glyph unicode="&#xdd;" horiz-adv-x="1392" d="M1307 1448h65l-4 -39q-3 -34 -45 -37q-70 -4 -76 -4l-579 -770l-64 -516q13 0 35 -1t31 -1q11 0 27 -1t20 -1h18q40 -3 37 -37l-6 -41h-172h-105h-174l7 41q3 34 45 37h18q4 0 20 1t27 1q9 0 31 1t35 1l63 516l-389 770q-6 0 -76 4q-38 3 -35 37l5 39h65h10h80h17h206 l-6 -39q-3 -34 -45 -37h-14q-3 0 -15.5 -1t-21.5 -1q-8 0 -26 -1t-29 -1l305 -610q12 -24 18 -45q2 -7 7.5 -22.5t7.5 -22.5q4 7 11 22.5t11 22.5q9 15 31 45l455 610q-11 0 -30 1t-26 1q-9 0 -21.5 1t-15.5 1h-14q-40 3 -37 37l6 39h205h14h82h11zM1061 1812l-328 -221 q-3 -2 -9 -5.5t-9 -4.5q-6 -2 -23 -2h-71l258 211q13 11 28 18q8 4 39 4h115z" />
<glyph unicode="&#xde;" horiz-adv-x="1101" d="M203 293l-37 -293h-105l179 1450h104l-37 -291h271q252 0 370 -112q114 -109 90 -318q-13 -100 -57 -176q-46 -79 -119 -137q-77 -61 -172 -90q-109 -33 -219 -33h-268zM213 377h268q99 0 176 26q78 27 138 74q55 44 94 111q36 61 45 141q21 166 -72 256q-91 88 -295 88 h-270z" />
<glyph unicode="&#xdf;" horiz-adv-x="1071" d="M692 1466q88 0 152 -24q65 -24 106 -68q42 -45 58 -92q18 -52 12 -102q-9 -64 -39 -111q-31 -48 -70 -84q-44 -40 -86 -65q-18 -11 -50 -33.5t-36 -24.5q-39 -26 -67 -57q-27 -30 -33 -68q-3 -35 10 -61q13 -25 39 -45q22 -16 60 -33q34 -15 69 -33q51 -26 68 -37 q28 -17 57 -53q23 -29 35 -72q10 -37 4 -102q-10 -76 -41 -129q-35 -59 -84 -100q-50 -41 -119 -66q-62 -22 -145 -22q-105 0 -174 34q-67 33 -125 91l29 34q7 11 12 13q8 4 18 4q11 0 31 -17q42 -35 45 -37q28 -19 72 -34q49 -17 108 -17q57 0 109 19q45 16 86 49 q35 28 57 74q24 50 29 90q8 62 -17 108q-22 40 -67 68q-56 34 -90 47q-31 11 -92 45q-43 24 -68 63q-27 42 -18 103q6 47 34 86q26 36 72 70q44 33 88 61q46 30 88 63q40 32 72 78q31 45 37 101q3 31 -6 69q-9 36 -39 70q-29 32 -78 53t-123 21t-141 -21t-119 -67 q-55 -48 -90 -115q-37 -69 -49 -166l-125 -1024h-97l125 1024q11 97 58 186q46 87 110 140q72 59 154 88q80 28 184 28z" />
<glyph unicode="&#xe0;" horiz-adv-x="1017" d="M874 78q40 -3 37 -37l-6 -41h-135h-22h-25q-20 0 -27 10q-8 8 -8 23l35 319q-41 -84 -86 -149q-44 -64 -98 -115q-47 -45 -111 -74q-56 -26 -121 -26q-63 0 -112 24q-52 25 -82 72q-31 42 -47 111q-17 73 -17 147q0 88 21 174q21 87 65 164q42 79 98 141q61 68 127 111 q74 49 148 74q77 26 162 26q56 0 114 -10q63 -14 107 -37l-111 -905q8 0 24 -1t23 -1h33h14zM657 338q39 69 82 186l52 416q-61 21 -132 21q-66 0 -133 -25q-60 -22 -120 -64q-63 -46 -105 -96q-46 -55 -82 -125q-39 -77 -55 -141q-19 -78 -19 -152q0 -136 48 -215 q46 -75 145 -75q64 0 115 32q61 38 108 93q38 43 96 145zM489 1466q19 0 35 -8q12 -6 21 -24l131 -244h-55q-15 0 -21 2t-14 14l-191 260h94z" />
<glyph unicode="&#xe1;" horiz-adv-x="1017" d="M874 78q40 -3 37 -37l-6 -41h-135h-22h-25q-20 0 -27 10q-8 8 -8 23l35 319q-41 -84 -86 -149q-44 -64 -98 -115q-47 -45 -111 -74q-56 -26 -121 -26q-63 0 -112 24q-52 25 -82 72q-31 42 -47 111q-17 73 -17 147q0 88 21 174q21 87 65 164q42 79 98 141q61 68 127 111 q74 49 148 74q77 26 162 26q56 0 114 -10q63 -14 107 -37l-111 -905q8 0 24 -1t23 -1h33h14zM657 338q39 69 82 186l52 416q-61 21 -132 21q-66 0 -133 -25q-60 -22 -120 -64q-63 -46 -105 -96q-46 -55 -82 -125q-39 -77 -55 -141q-19 -78 -19 -152q0 -136 48 -215 q46 -75 145 -75q64 0 115 32q61 38 108 93q38 43 96 145zM838 1466l-254 -260q-12 -12 -19 -14q-6 -2 -20 -2h-60l191 244q11 16 26 24q16 8 39 8h97z" />
<glyph unicode="&#xe2;" horiz-adv-x="1017" d="M874 78q40 -3 37 -37l-6 -41h-135h-22h-25q-20 0 -27 10q-8 8 -8 23l35 319q-41 -84 -86 -149q-44 -64 -98 -115q-47 -45 -111 -74q-56 -26 -121 -26q-63 0 -112 24q-52 25 -82 72q-31 42 -47 111q-17 73 -17 147q0 88 21 174q21 87 65 164q42 79 98 141q61 68 127 111 q74 49 148 74q77 26 162 26q56 0 114 -10q63 -14 107 -37l-111 -905q8 0 24 -1t23 -1h33h14zM657 338q39 69 82 186l52 416q-61 21 -132 21q-66 0 -133 -25q-60 -22 -120 -64q-63 -46 -105 -96q-46 -55 -82 -125q-39 -77 -55 -141q-19 -78 -19 -152q0 -136 48 -215 q46 -75 145 -75q64 0 115 32q61 38 108 93q38 43 96 145zM840 1198h-66q-17 0 -26 12l-140 166q-5 2 -10 13q-1 -1 -3 -4.5t-3 -4.5l-4 -4l-182 -166q-5 -5 -15 -10q-4 -2 -14 -2h-70l254 252h88z" />
<glyph unicode="&#xe3;" horiz-adv-x="1021" d="M877 78q37 -3 34 -37l-4 -41h-135h-24h-23q-20 0 -27 10q-8 8 -8 23l33 319q-46 -94 -84 -149q-41 -59 -100 -115q-47 -45 -111 -74q-56 -26 -121 -26q-63 0 -112 24t-80 72q-34 46 -49 111q-17 73 -17 147q0 80 23 174t63 164q42 79 98 141q61 68 127 111q74 49 148 74 q77 26 164 26q56 0 114 -10q60 -14 105 -37l-109 -905q8 0 23 -1t22 -1h33h17zM659 338q33 59 80 186l52 416q-61 21 -132 21q-66 0 -133 -25q-60 -22 -120 -64q-63 -46 -105 -96q-46 -55 -82 -125q-35 -69 -53 -141q-19 -78 -19 -152q0 -139 46 -215q46 -75 145 -75 q66 0 117 32q57 35 106 93q44 49 98 145zM709 1311q44 0 69 28q28 31 33 76h59q-2 -30 -18 -69q-12 -29 -35 -56q-22 -26 -51 -37q-30 -12 -64 -12q-37 0 -61 16q-33 22 -53 37l-49 37q-23 17 -52 17q-46 0 -69 -29q-24 -30 -33 -76h-63q3 40 18 70q11 25 37 55q22 26 51 37 q35 14 66 14q34 0 61 -18q33 -22 53 -37l49 -37q21 -16 52 -16z" />
<glyph unicode="&#xe4;" horiz-adv-x="1019" d="M877 78q37 -3 34 -37l-4 -41h-135h-24h-23q-20 0 -27 10q-8 8 -8 23l33 319q-46 -94 -84 -149q-41 -59 -100 -115q-47 -45 -111 -74q-56 -26 -121 -26q-63 0 -112 24t-80 72q-34 46 -49 111q-17 73 -17 147q0 80 23 174t63 164q42 79 98 141q61 68 127 111q74 49 148 74 q77 26 164 26q56 0 114 -10q60 -14 105 -37l-109 -905q8 0 23 -1t22 -1h33h17zM659 338q33 59 80 186l52 416q-61 21 -132 21q-66 0 -133 -25q-60 -22 -120 -64q-63 -46 -105 -96q-46 -55 -82 -125q-35 -69 -53 -141q-19 -78 -19 -152q0 -139 46 -215q46 -75 145 -75 q66 0 117 32q57 35 106 93q44 49 98 145zM500 1315q-4 -19 -11 -31q-8 -12 -22 -27q-11 -11 -29 -18q-15 -6 -32 -6q-16 0 -31 6q-16 7 -25 18q-7 9 -14 27q-7 17 -4 31q3 18 12 33q8 12 21 26q13 13 28 19q20 8 33 8q11 0 31 -8q14 -6 24 -19q14 -19 17 -26q5 -13 2 -33z M852 1315q-3 -17 -12 -31q-9 -15 -21 -27q-11 -11 -28 -18q-15 -6 -35 -6q-16 0 -31 6q-16 7 -25 18q-7 9 -14 27q-7 17 -4 31q3 18 12 33q8 12 21 26q13 13 28 19q20 8 33 8t33 -8q15 -6 25 -19q8 -10 14 -26q7 -17 4 -33z" />
<glyph unicode="&#xe5;" horiz-adv-x="1015" d="M874 78q38 -3 35 -37l-4 -41h-135h-25h-22q-20 0 -27 10q-8 8 -8 23l33 319q-46 -94 -84 -149q-41 -59 -100 -115q-47 -45 -111 -74q-56 -26 -121 -26q-63 0 -112 24t-80 72q-35 47 -50 111q-16 69 -16 147q0 80 23 174t63 164q42 79 98 141q61 68 127 111q74 49 148 74 q77 26 164 26q56 0 114 -10q59 -14 105 -37l-109 -905q8 0 23 -1t22 -1h33h16zM657 338q33 59 80 186l51 416q-62 21 -131 21q-66 0 -133 -25q-62 -23 -121 -64q-61 -44 -104 -96q-46 -55 -82 -125q-35 -69 -53 -141q-19 -78 -19 -152q0 -141 45 -215q46 -75 146 -75 q66 0 117 32q57 35 106 93q44 49 98 145zM412 1333q3 36 22 68q22 37 43 53q31 24 62 35q35 12 69 12q36 0 66 -12t53 -35q22 -22 31 -53q9 -30 6 -68q-3 -33 -23 -67q-21 -35 -43 -52q-30 -23 -61 -34q-37 -13 -70 -13q-35 0 -67 13q-28 11 -51 34q-22 22 -31 52t-6 67z M471 1333q-5 -48 23 -84q25 -32 79 -32t89 32q37 34 43 84q5 48 -23 84q-26 33 -80 33q-52 0 -88 -33q-37 -34 -43 -84z" />
<glyph unicode="&#xe6;" horiz-adv-x="1468" d="M1128 1049q52 0 105 -17q48 -16 82 -45q39 -34 55 -72q19 -46 19 -92q0 -58 -31 -112q-28 -50 -107 -93q-76 -42 -194 -65q-128 -25 -301 -25q-4 -58 -4 -84q0 -175 71 -270q70 -94 195 -94q62 0 98 10q39 11 78 31q33 17 61 39q9 8 25.5 21t22.5 18t17.5 15.5t16.5 14.5 q16 13 27 13q7 0 20 -13l23 -24q-44 -47 -96 -92q-53 -43 -97 -64q-55 -27 -100 -37q-44 -10 -113 -10q-120 0 -198 72q-82 76 -111 207q-25 -73 -76 -134q-42 -50 -100 -86q-55 -34 -110 -49q-52 -14 -107 -14q-50 0 -104 14q-44 11 -82 41q-36 28 -54 74q-18 43 -18 106 q0 82 35 142q38 65 112 110q78 47 197 74q125 28 291 31l12 88q4 28 4 39v35q0 107 -47 163t-139 56q-68 0 -117 -21q-56 -24 -86 -43q-28 -18 -59 -45q-23 -20 -39 -20q-23 0 -29 18l-12 29q81 79 168 121q84 41 184 41q117 0 176 -62q58 -61 70 -172q58 108 151 170 q92 62 215 62zM668 526q-158 -7 -242 -24q-100 -18 -166 -56q-65 -35 -96 -86t-31 -114q0 -46 12 -80q10 -30 39 -55t58 -33q38 -10 73 -10q68 0 119 22q60 26 103 66q49 46 77 106q33 70 41 146zM1118 977q-68 0 -131 -29q-59 -27 -104 -78q-44 -47 -76 -122 q-35 -86 -45 -160q172 7 258 24q104 21 168 52q61 28 88 69t27 86q0 73 -50 117q-47 41 -135 41z" />
<glyph unicode="&#xe7;" horiz-adv-x="915" d="M778 164l23 -33q-29 -32 -66 -57q-46 -31 -88 -47q-43 -17 -100 -29q-29 -6 -90 -10l-33 -82q90 -15 133 -45q41 -28 35 -92q-3 -27 -21 -56q-16 -26 -43 -41q-34 -19 -63 -26q-46 -11 -78 -11q-36 0 -80 13q-38 11 -63 30l14 29q6 12 18 12q7 0 13 -4t22 -12 q6 -3 33 -12q18 -6 49 -6q53 0 84 22t37 62q4 29 -8 43q-8 13 -35 26q-29 14 -55 19q-13 2 -37.5 5t-34.5 5l51 121q-65 5 -133 35q-78 35 -127 102q-48 66 -69 164q-20 96 -5 221q16 127 56 213q45 98 110 166q61 64 158 108q81 37 201 37q38 0 104 -14q29 -6 123 -33 l51 -16l-33 -256h-49q-42 0 -39 49q0 1 0.5 4t1 8.5t0.5 11.5t1.5 25t1.5 33q0 24 4 78q-90 34 -170 34q-90 0 -160 -30q-72 -30 -125 -90q-55 -58 -90 -142q-35 -85 -47 -186q-12 -112 2 -191q16 -88 53 -139q38 -55 102 -86t142 -31q70 0 125 19q58 20 86 37q40 24 57 39 q19 16 33 16q11 0 18 -10z" />
<glyph unicode="&#xe8;" horiz-adv-x="888" d="M836 823q0 -46 -11 -80q-10 -31 -41 -71q-26 -33 -77 -64q-54 -33 -125 -55q-96 -30 -185 -45q-99 -19 -250 -35q-2 -14 -2 -43q0 -7 -1 -20.5t-1 -20.5q0 -150 70 -239q69 -87 207 -87q51 0 98 13q44 12 78 30q41 21 61 39q24 21 45 39q24 21 37 31t27 10q10 0 20 -10 l23 -27q-49 -52 -96 -90q-50 -40 -97 -63q-55 -27 -100 -37q-44 -10 -113 -10q-86 0 -151 26q-62 25 -111 80q-40 46 -67 127q-25 77 -25 166q0 67 17 154q16 80 45 149q34 80 73 135q44 62 103 109q57 45 127 72q68 26 149 26q77 0 127 -20q55 -22 84 -51q30 -26 47 -68 q15 -37 15 -70zM559 961q-79 0 -147 -35q-66 -35 -117 -92t-86 -134q-34 -75 -49 -159q141 16 223 32t160 41q67 22 106 45q44 26 64 52q22 25 28 53q9 41 9 57q0 18 -11 47q-9 24 -30 45q-23 23 -60 35q-33 13 -90 13zM457 1466q19 0 35 -8q11 -5 20 -24l131 -246h-55 q-9 0 -21 4q-6 2 -14 14l-191 260h95z" />
<glyph unicode="&#xe9;" horiz-adv-x="888" d="M836 823q0 -46 -11 -80q-10 -31 -41 -71q-26 -33 -77 -64q-54 -33 -125 -55q-96 -30 -185 -45q-99 -19 -250 -35q-2 -14 -2 -43q0 -7 -1 -20.5t-1 -20.5q0 -150 70 -239q69 -87 207 -87q51 0 98 13q44 12 78 30q41 21 61 39q24 21 45 39q24 21 37 31t27 10q10 0 20 -10 l23 -27q-49 -52 -96 -90q-50 -40 -97 -63q-55 -27 -100 -37q-44 -10 -113 -10q-86 0 -151 26q-62 25 -111 80q-40 46 -67 127q-25 77 -25 166q0 67 17 154q16 80 45 149q34 80 73 135q44 62 103 109q57 45 127 72q68 26 149 26q77 0 127 -20q55 -22 84 -51q30 -26 47 -68 q15 -37 15 -70zM559 961q-79 0 -147 -35q-66 -35 -117 -92t-86 -134q-34 -75 -49 -159q141 16 223 32t160 41q67 22 106 45q44 26 64 52q22 25 28 53q9 41 9 57q0 18 -11 47q-9 24 -30 45q-23 23 -60 35q-33 13 -90 13zM803 1466l-252 -260q-11 -12 -19 -14q-12 -4 -22 -4 h-57l190 246q11 16 27 24t37 8h96z" />
<glyph unicode="&#xea;" horiz-adv-x="888" d="M836 823q0 -46 -11 -80q-10 -31 -41 -71q-26 -33 -77 -64q-54 -33 -125 -55q-96 -30 -185 -45q-99 -19 -250 -35q-2 -14 -2 -43q0 -7 -1 -20.5t-1 -20.5q0 -150 70 -239q69 -87 207 -87q51 0 98 13q44 12 78 30q41 21 61 39q24 21 45 39q24 21 37 31t27 10q10 0 20 -10 l23 -27q-49 -52 -96 -90q-50 -40 -97 -63q-55 -27 -100 -37q-44 -10 -113 -10q-86 0 -151 26q-62 25 -111 80q-40 46 -67 127q-25 77 -25 166q0 67 17 154q16 80 45 149q34 80 73 135q44 62 103 109q57 45 127 72q68 26 149 26q77 0 127 -20q55 -22 84 -51q30 -26 47 -68 q15 -37 15 -70zM559 961q-79 0 -147 -35q-66 -35 -117 -92t-86 -134q-34 -75 -49 -159q141 16 223 32t160 41q67 22 106 45q44 26 64 52q22 25 28 53q9 41 9 57q0 18 -11 47q-9 24 -30 45q-23 23 -60 35q-33 13 -90 13zM807 1196h-68q-17 0 -26 12l-140 168q-5 2 -10 13 q-1 -1 -2 -4.5t-2 -4.5t-3 -2t-3 -2l-182 -168q-3 -3 -13 -8q-8 -4 -16 -4h-68l254 254h86z" />
<glyph unicode="&#xeb;" horiz-adv-x="894" d="M838 823q0 -39 -13 -80q-11 -36 -39 -71q-26 -33 -77 -64q-52 -31 -127 -55q-99 -31 -183 -45q-100 -20 -249 -35q-5 -35 -5 -43v-41q0 -153 68 -239q69 -87 209 -87q51 0 98 13q44 12 78 30q36 19 59 39q9 8 25.5 21t22.5 18q7 6 18 16.5t16 14.5q13 10 27 10 q12 0 22 -10l23 -27q-43 -46 -98 -90q-50 -40 -97 -63q-55 -27 -100 -37q-44 -10 -110 -10q-87 0 -152 26t-113 80q-40 46 -67 127q-25 77 -25 166q0 67 17 154q16 80 45 149q31 73 75 135q46 66 101 109q57 45 127 72q68 26 151 26q77 0 127 -20q55 -22 84 -51 q27 -24 45 -68q17 -42 17 -70zM561 961q-81 0 -149 -35q-66 -35 -117 -92q-47 -53 -84 -134q-37 -82 -51 -159q146 17 225 32q82 16 160 41q62 20 104 45q44 26 64 52q24 28 30 53q9 41 9 57q0 18 -11 47q-8 21 -32 45q-23 23 -60 35q-33 13 -88 13zM467 1315 q-3 -17 -12 -31q-9 -15 -21 -27q-9 -9 -31 -18q-15 -6 -32 -6q-16 0 -31 6q-16 7 -25 18q-7 9 -14 27q-5 14 -2 31q4 23 10 33q7 12 21 26q12 12 30 19q20 8 31 8q13 0 33 -8q15 -6 25 -19q8 -10 14 -26q7 -17 4 -33zM817 1315q-4 -21 -10 -31t-23 -27q-11 -11 -28 -18 q-15 -6 -33 -6t-33 6t-24 18t-15 27q-5 14 -2 31q4 23 10 33q8 12 21 26q11 11 31 19t32 8q11 0 31 -8q15 -6 25 -19q12 -16 16 -26q5 -13 2 -33z" />
<glyph unicode="&#xec;" horiz-adv-x="442" d="M319 78q40 -3 37 -37l-4 -41h-149h-97l21 164l94 774q-9 0 -26 1t-23 1h-31q-3 0 -8.5 1t-7.5 1h-10q-40 3 -37 37l6 41h147h97l-115 -938q9 0 26 -1t23 -1q8 0 18.5 -1t12.5 -1h16h10zM221 1466q21 0 37 -8q12 -6 21 -24l131 -246h-56q-8 0 -20 4q-10 3 -17 14l-190 260 h94z" />
<glyph unicode="&#xed;" horiz-adv-x="571" d="M313 78q40 -3 37 -37l-4 -41h-149h-97l21 164l94 774q-9 0 -26 1t-23 1h-31q-3 0 -8.5 1t-7.5 1h-10q-40 3 -37 37l6 41h147h97l-115 -938q9 0 26 -1t23 -1q8 0 18.5 -1t12.5 -1h16h10zM561 1466l-254 -260q-12 -12 -18 -14q-12 -4 -21 -4h-59l190 246q11 16 27 24t39 8 h96z" />
<glyph unicode="&#xee;" horiz-adv-x="595" d="M328 78q40 -3 37 -37l-7 -41h-147h-96l20 164l94 774q-9 0 -26 1t-23 1h-30q-3 0 -9 1t-8 1h-10q-40 3 -37 37l6 41h148h96l-115 -938q9 0 26 -1t23 -1q8 0 18.5 -1t12.5 -1h16h11zM588 1196h-68q-15 0 -24 12l-140 168q-5 2 -10 13q-1 -1 -3 -4.5t-3 -4.5t-3 -2t-3 -2 l-180 -168q-1 -1 -15 -8q-8 -4 -16 -4h-68l254 254h88z" />
<glyph unicode="&#xef;" horiz-adv-x="634" d="M344 78q40 -3 37 -37l-4 -41h-150h-96l21 164l94 774q-10 0 -26 1t-23 1h-31q-3 0 -8.5 1t-7.5 1h-11q-40 3 -37 37l7 41h147h98l-116 -938q10 0 27 -1t24 -1q8 0 18 -1t12 -1h15h10zM270 1315q-3 -17 -12 -31q-11 -18 -20 -27q-11 -11 -29 -18q-15 -6 -35 -6 q-14 0 -29 6t-24 18q-13 18 -17 27q-5 14 -2 31q3 20 11 33q6 10 22 26q12 12 29 19q20 8 31 8q12 0 32 -8q15 -6 25 -19q8 -10 14 -26q7 -17 4 -33zM621 1315q-4 -19 -11 -31q-8 -12 -22 -27q-11 -11 -29 -18q-15 -6 -33 -6q-15 0 -30 6q-16 7 -25 18q-11 15 -16 27 q-5 14 -2 31q4 23 10 33t22 26q12 12 29 19q15 6 33 6q16 0 31 -6q14 -6 24 -19q12 -16 16 -26q6 -15 3 -33z" />
<glyph unicode="&#xf0;" horiz-adv-x="1064" d="M502 1096q-6 9 -6 18q0 5 16 21l141 112q-56 33 -123 58q-60 22 -137 38q-11 3 -18 11q-8 12 -6 22q0 1 1 3t2.5 5.5t2.5 6.5q3 11 6 14l8 20q92 -16 176 -45q86 -30 160 -80l174 140l14 -31q2 -6 2 -16q0 -12 -14 -23l-131 -102q64 -54 107 -111q38 -50 73 -143 q30 -79 39 -180q10 -109 -4 -220q-18 -143 -61 -258q-41 -111 -111 -196q-66 -80 -164 -127q-95 -45 -211 -45q-99 0 -170 32q-78 35 -131 97q-55 65 -78 149t-10 201q12 97 53 184q42 89 105 152q62 62 153 102q84 37 193 37q53 0 106 -12t101 -43q45 -29 86 -76 q39 -45 63 -106q6 189 -49 311q-57 126 -160 201l-186 -150zM451 66q94 0 161 34q79 40 129 101q56 68 93 161q36 92 55 216q-9 51 -33 104t-63 92q-46 46 -99 68q-58 24 -135 24q-91 0 -162 -30q-73 -31 -123 -84q-55 -58 -84 -129q-35 -87 -43 -156q-12 -94 7 -172 q18 -73 61 -125q42 -51 104 -78q59 -26 132 -26z" />
<glyph unicode="&#xf1;" horiz-adv-x="1150" d="M1018 78q40 -3 37 -37l-4 -41h-150h-96l80 651q18 142 -39 226q-55 79 -191 79q-103 0 -192 -51t-170 -141l-72 -571l-22 -193h-99l11 82l106 856q-9 0 -26.5 1t-24.5 1h-31q-3 0 -7.5 1t-6.5 1h-12q-38 3 -35 37l4 39h147h54q28 0 28 -25l-10 -153q73 81 180 141 q95 53 213 53q87 0 146 -26q58 -25 96 -76q34 -45 47 -121q13 -77 2 -160l-70 -569q9 0 26 -1t24 -1q8 0 19 -1t13 -1h15h10zM776 1311q45 0 70 28q28 31 33 76h61q-2 -30 -18 -69q-10 -25 -37 -56q-22 -26 -51 -37q-35 -14 -64 -14q-34 0 -61 18q-42 28 -54 37l-49 37 q-23 17 -51 17q-47 0 -70 -29t-32 -76h-64q3 38 19 70q12 28 36 55q21 24 54 37q30 12 63 12q40 0 64 -16q15 -10 51 -37l49 -37q21 -16 51 -16z" />
<glyph unicode="&#xf2;" horiz-adv-x="1062" d="M586 1036q106 0 192 -39q78 -35 131 -104q55 -70 72 -166q18 -101 4 -217q-16 -125 -57 -215q-47 -102 -111 -166q-65 -65 -160 -104q-90 -37 -200 -37t-191 37t-133 104q-53 69 -72 166q-19 98 -4 215q15 119 58 217q44 100 110 166q65 65 160 104t201 39zM467 63 q89 0 162 31q72 30 125 90q50 56 86 142q32 78 45 184q12 102 0 184q-12 81 -51 142q-40 63 -103 92q-65 30 -156 30t-161 -30q-69 -29 -125 -92q-50 -56 -86 -142q-32 -78 -45 -184q-12 -102 0 -184q12 -81 51 -142t102 -90q67 -31 156 -31zM522 1466q21 0 37 -8 q12 -6 21 -24l131 -244h-56q-14 0 -20 2q-10 3 -17 14l-190 260h94z" />
<glyph unicode="&#xf3;" horiz-adv-x="1062" d="M586 1036q106 0 192 -39q78 -35 131 -104q55 -70 72 -166q18 -101 4 -217q-16 -125 -57 -215q-47 -102 -111 -166q-65 -65 -160 -104q-90 -37 -200 -37t-191 37t-133 104q-53 69 -72 166q-19 98 -4 215q15 119 58 217q44 100 110 166q65 65 160 104t201 39zM467 63 q89 0 162 31q72 30 125 90q50 56 86 142q32 78 45 184q12 102 0 184q-12 81 -51 142q-40 63 -103 92q-65 30 -156 30t-161 -30q-69 -29 -125 -92q-50 -56 -86 -142q-32 -78 -45 -184q-12 -102 0 -184q12 -81 51 -142t102 -90q67 -31 156 -31zM870 1466l-254 -260 q-12 -12 -18 -14t-20 -2h-60l191 244q11 16 26 24q16 8 39 8h96z" />
<glyph unicode="&#xf4;" horiz-adv-x="1062" d="M586 1036q106 0 192 -39q78 -35 131 -104q55 -70 72 -166q18 -101 4 -217q-16 -125 -57 -215q-47 -102 -111 -166q-65 -65 -160 -104q-90 -37 -200 -37t-191 37t-133 104q-53 69 -72 166q-19 98 -4 215q15 119 58 217q44 100 110 166q65 65 160 104t201 39zM467 63 q89 0 162 31q72 30 125 90q50 56 86 142q32 78 45 184q12 102 0 184q-12 81 -51 142q-40 63 -103 92q-65 30 -156 30t-161 -30q-69 -29 -125 -92q-50 -56 -86 -142q-32 -78 -45 -184q-12 -102 0 -184q12 -81 51 -142t102 -90q67 -31 156 -31zM872 1198l-65 -2q-18 0 -27 12 l-139 168q-5 2 -10 13q-1 -1 -3 -4.5t-3 -4.5l-4 -4l-183 -168q-4 -4 -12 -8q-4 -2 -16 -2h-70l254 252h88z" />
<glyph unicode="&#xf5;" horiz-adv-x="1064" d="M588 1036q104 0 190 -39q81 -37 133 -104t70 -166q20 -108 6 -217q-15 -119 -59 -215q-47 -102 -111 -166q-67 -67 -158 -104q-90 -37 -200 -37q-112 0 -193 37t-133 104q-53 69 -72 166q-19 98 -4 215q15 119 58 217q42 96 112 166q65 65 160 104t201 39zM467 63 q91 0 164 31q72 30 125 90q50 56 86 142q32 78 45 184q12 102 0 184q-12 81 -51 142q-40 63 -103 92q-65 30 -155 30q-94 0 -164 -30q-69 -29 -125 -92q-50 -56 -86 -142q-32 -78 -45 -184q-12 -102 0 -184q12 -81 51 -142t102 -90q67 -31 156 -31zM739 1311q45 0 70 28 q28 31 33 76h61q-2 -30 -18 -69q-12 -29 -35 -56q-22 -26 -51 -37q-30 -12 -66 -12q-37 0 -61 16q-42 28 -54 37l-49 37q-23 17 -51 17q-44 0 -67 -29q-27 -33 -35 -76h-62q3 38 19 70q11 25 37 55q22 26 51 37q35 14 63 14q37 0 64 -18q33 -22 53 -37q8 -6 23.5 -18.5 t23.5 -18.5q21 -16 51 -16z" />
<glyph unicode="&#xf6;" horiz-adv-x="1064" d="M588 1036q104 0 190 -39q81 -37 133 -104t70 -166q20 -108 6 -217q-15 -119 -59 -215q-47 -102 -111 -166q-67 -67 -158 -104q-90 -37 -200 -37q-112 0 -193 37t-133 104q-53 69 -72 166q-19 98 -4 215q15 119 58 217q42 96 112 166q65 65 160 104t201 39zM467 63 q91 0 164 31q72 30 125 90q50 56 86 142q32 78 45 184q12 102 0 184q-12 81 -51 142q-40 63 -103 92q-65 30 -155 30q-94 0 -164 -30q-69 -29 -125 -92q-50 -56 -86 -142q-32 -78 -45 -184q-12 -102 0 -184q12 -81 51 -142t102 -90q67 -31 156 -31zM530 1315q-4 -21 -10 -31 q-8 -12 -22 -27q-11 -11 -29 -18q-15 -6 -33 -6q-15 0 -30 6q-16 7 -25 18q-7 9 -14 27q-7 19 -5 31q3 16 13 33q9 15 20 26q12 12 29 19q20 8 33 8q10 0 30 -8q15 -6 25 -19q12 -16 16 -26q5 -13 2 -33zM883 1315q-3 -14 -13 -31q-11 -18 -20 -27q-11 -11 -29 -18 q-15 -6 -35 -6q-15 0 -30 6q-16 7 -25 18q-7 9 -14 27q-7 17 -4 31q3 18 12 33t20 26q12 12 29 19q20 8 33 8t33 -8q14 -6 24 -19t15 -26q7 -17 4 -33z" />
<glyph unicode="&#xf7;" horiz-adv-x="1077" d="M66 725h960l-8 -76h-961zM492 1049q7 44 34 69q32 29 72 29q15 0 35 -8q13 -5 29 -21q8 -8 16 -31q7 -21 4 -38q-3 -18 -12 -37q-8 -15 -25 -29q-19 -15 -33 -20q-27 -9 -39 -9q-37 0 -63 29q-24 27 -18 66zM401 322q6 39 37 67q32 29 70 29q17 0 37 -8q8 -3 26 -21 q10 -10 17 -31q7 -20 4 -36q-3 -21 -12 -39q-8 -15 -25 -29q-21 -17 -33 -21q-18 -6 -37 -6q-39 0 -63 27q-27 30 -21 68z" />
<glyph unicode="&#xf8;" horiz-adv-x="1144" d="M946 893q55 -71 72 -164q20 -109 6 -219q-15 -119 -59 -215q-47 -102 -111 -166q-66 -67 -158 -104q-90 -37 -200 -37q-164 0 -267 80l-96 -113q-16 -19 -33 -25q-24 -8 -34 -8h-41l161 187q-59 65 -84 170q-23 99 -8 231q15 119 58 217q42 96 112 166q65 65 160 104 t201 39q83 0 159 -26q70 -24 121 -72l105 119q16 20 22 24q9 6 31 6h51zM190 510q-12 -108 0 -191q12 -82 56 -141l602 694q-43 46 -98 66q-64 23 -136 23q-82 0 -163 -33q-75 -35 -127 -90q-50 -52 -88 -144q-34 -81 -46 -184zM504 61q83 0 164 33q73 30 127 90t88 142 q32 78 45 184q24 197 -43 313l-598 -690q81 -72 217 -72z" />
<glyph unicode="&#xf9;" horiz-adv-x="1146" d="M1008 78q37 -3 34 -37l-4 -41h-147h-53q-30 0 -27 27l8 151q-84 -90 -180 -141q-100 -53 -213 -53q-86 0 -145 26q-57 25 -97 78q-37 48 -49 121q-13 77 -2 160l72 569q-9 0 -27 1t-24 1h-31q-3 0 -7.5 1t-6.5 1h-13q-38 3 -35 37l5 39h147l98 2l-80 -651 q-18 -144 37 -226q57 -82 191 -82q96 0 192 52q94 54 172 141l86 684q-9 0 -27 1t-24 1h-31q-3 0 -7.5 1t-6.5 1h-12q-38 3 -35 37l4 39h148l98 2l-115 -938q9 0 25.5 -1t23.5 -1q8 0 18.5 -1t12.5 -1h16h11zM559 1466q21 0 37 -8q11 -5 20 -24l132 -244h-56q-14 0 -20 2 q-10 3 -17 14l-190 260h94z" />
<glyph unicode="&#xfa;" horiz-adv-x="1146" d="M1008 78q37 -3 34 -37l-4 -41h-147h-53q-30 0 -27 27l8 151q-84 -90 -180 -141q-100 -53 -213 -53q-86 0 -145 26q-57 25 -97 78q-37 48 -49 121q-13 77 -2 160l72 569q-9 0 -27 1t-24 1h-31q-3 0 -7.5 1t-6.5 1h-13q-38 3 -35 37l5 39h147l98 2l-80 -651 q-18 -144 37 -226q57 -82 191 -82q96 0 192 52q94 54 172 141l86 684q-9 0 -27 1t-24 1h-31q-3 0 -7.5 1t-6.5 1h-12q-38 3 -35 37l4 39h148l98 2l-115 -938q9 0 25.5 -1t23.5 -1q8 0 18.5 -1t12.5 -1h16h11zM907 1466l-254 -260q-12 -12 -18 -14t-21 -2h-59l190 244 q11 16 27 24t39 8h96z" />
<glyph unicode="&#xfb;" horiz-adv-x="1146" d="M1008 78q37 -3 34 -37l-4 -41h-147h-53q-30 0 -27 27l8 151q-84 -90 -180 -141q-100 -53 -213 -53q-86 0 -145 26q-57 25 -97 78q-37 48 -49 121q-13 77 -2 160l72 569q-9 0 -27 1t-24 1h-31q-3 0 -7.5 1t-6.5 1h-13q-38 3 -35 37l5 39h147l98 2l-80 -651 q-18 -144 37 -226q57 -82 191 -82q96 0 192 52q94 54 172 141l86 684q-9 0 -27 1t-24 1h-31q-3 0 -7.5 1t-6.5 1h-12q-38 3 -35 37l4 39h148l98 2l-115 -938q9 0 25.5 -1t23.5 -1q8 0 18.5 -1t12.5 -1h16h11zM909 1198h-65q-18 0 -27 12l-139 166q-5 2 -10 13q-1 -1 -3 -4.5 t-3 -4.5t-3.5 -2t-3.5 -2l-180 -166q-6 -6 -14 -10q-4 -2 -15 -2h-69l254 252h88z" />
<glyph unicode="&#xfc;" horiz-adv-x="1146" d="M1008 78q37 -3 34 -37l-4 -41h-147h-53q-30 0 -27 27l8 151q-84 -90 -180 -141q-100 -53 -213 -53q-86 0 -145 26q-57 25 -97 78q-37 48 -49 121q-13 77 -2 160l72 569q-9 0 -27 1t-24 1h-31q-3 0 -7.5 1t-6.5 1h-13q-38 3 -35 37l5 39h147l98 2l-80 -651 q-18 -144 37 -226q57 -82 191 -82q96 0 192 52q94 54 172 141l86 684q-9 0 -27 1t-24 1h-31q-3 0 -7.5 1t-6.5 1h-12q-38 3 -35 37l4 39h148l98 2l-115 -938q9 0 25.5 -1t23.5 -1q8 0 18.5 -1t12.5 -1h16h11zM567 1315q-3 -17 -12 -31q-11 -18 -20 -27t-31 -18 q-15 -6 -33 -6q-16 0 -31 6t-24 18t-15 27q-5 14 -2 31q3 20 11 33q9 15 20 26t31 19t31 8q12 0 32 -8q15 -6 25 -19q8 -10 14 -26q7 -17 4 -33zM918 1315q-4 -19 -11 -31t-22 -27q-11 -11 -29 -18q-15 -6 -33 -6q-17 0 -32 6q-16 7 -25 18q-7 9 -14 27q-5 14 -2 31 q4 23 10 33q9 15 20 26t31 19t33 8q10 0 30 -8q15 -6 25 -19q12 -16 16 -26q6 -15 3 -33z" />
<glyph unicode="&#xfd;" horiz-adv-x="1181" d="M1077 1018h76l-4 -39q-3 -34 -45 -37h-10q-1 0 -8.5 -1t-14.5 -1h-39l-706 -1268q-8 -14 -19 -22q-13 -10 -28 -10h-70l227 397l-284 903l-64 2q-38 3 -35 37l4 39h68h82h207l-4 -39q-3 -34 -45 -37h-13l-12 -1q-12 -1 -21 -1q-7 0 -28 -1t-33 -1l227 -737 q1 -5 4.5 -15.5t4.5 -15.5t2 -15.5t2 -15.5q9 23 14 31q5 13 16 31l406 737q-10 0 -26 1t-23 1h-31q-3 0 -7.5 1t-6.5 1h-13q-37 3 -34 37l4 39h204h76zM913 1466l-254 -260q-12 -12 -18 -14t-20 -2h-60l191 244q11 16 26 24q16 8 39 8h96z" />
<glyph unicode="&#xfe;" horiz-adv-x="1067" d="M29 -360l225 1851h98l-80 -651q83 92 174 143q95 53 207 53q187 0 277 -131q87 -127 57 -389q-11 -101 -55 -209q-38 -92 -107 -168q-62 -68 -151 -110q-87 -41 -195 -41t-176 39q-71 41 -117 116l-61 -503h-96zM616 958q-101 0 -190 -53q-92 -55 -164 -147l-65 -535 q46 -87 114 -125q63 -35 158 -35t162 33q80 39 125 92q51 59 86 144q32 78 45 184q27 227 -43 334q-70 108 -228 108z" />
<glyph unicode="&#xff;" horiz-adv-x="1183" d="M1077 1018h78l-6 -39q-3 -34 -45 -37h-10q-1 0 -8.5 -1t-14.5 -1h-37l-706 -1268q-7 -11 -21 -22q-13 -10 -28 -10h-70l229 397l-286 903l-62 2q-40 3 -37 37l6 39h68h80h2h207l-6 -39q-3 -34 -45 -37h-13l-12 -1q-12 -1 -21 -1q-7 0 -28 -1t-33 -1l229 -737l7 -31l6 -31 q9 23 14 31q9 23 14 31l406 737q-10 0 -26 1t-23 1h-31q-3 0 -7.5 1t-6.5 1h-11q-39 3 -36 37l6 39h205h73zM573 1315q-4 -21 -10 -31q-7 -12 -22 -27q-11 -11 -29 -18q-15 -6 -33 -6q-15 0 -30 6q-16 7 -25 18q-11 15 -16 27q-5 14 -2 31q4 23 10 33t22 26q12 12 29 19 q20 8 33 8q10 0 30 -8q15 -6 25 -19q12 -16 16 -26q5 -13 2 -33zM926 1315q-3 -14 -13 -31q-11 -18 -20 -27t-31 -18q-15 -6 -33 -6q-15 0 -30 6q-16 7 -25 18q-11 15 -16 27q-5 14 -2 31q4 23 10 33t22 26q12 12 29 19q20 8 33 8t33 -8q14 -6 24 -19t15 -26q7 -17 4 -33z " />
<glyph unicode="&#x152;" horiz-adv-x="2213" d="M1337 1448h856l-10 -86l-26 -213h-50q-24 0 -32.5 12t-6.5 37q0 5 2 27.5t5.5 63.5t5.5 73h-662l-71 -586h577l-10 -84h-578l-73 -604h661q5 28 10 57.5t8 49t6 36.5t3 19q5 25 16.5 38t34.5 13h49l-27 -213l-10 -88h-856l41 342q-54 -91 -110 -149q-55 -61 -138 -113 q-70 -45 -161 -70q-78 -22 -183 -22q-141 0 -246 51t-178 149q-70 94 -98 234q-28 141 -8 303q21 166 82 303q66 145 155 234q98 98 215 149q121 53 261 53q95 0 174 -24q82 -25 145 -70q61 -44 111 -113q46 -67 73 -149zM1165 453q55 125 72 272q18 148 -4 272 q-24 120 -82 205q-57 81 -152 129q-89 45 -208 45q-121 0 -220 -45q-103 -47 -182 -129q-82 -88 -133 -205q-54 -124 -72 -272q-18 -152 6 -272q25 -124 82 -205q62 -87 150 -129q90 -43 209 -43q120 0 221 43q95 40 180 129q79 82 133 205z" />
<glyph unicode="&#x153;" horiz-adv-x="1587" d="M1253 1034q60 0 113 -16q43 -13 84 -45q34 -26 53 -70q19 -43 19 -90q0 -31 -13 -72q-10 -32 -39 -69q-27 -35 -77 -62q-62 -34 -121 -53q-95 -31 -174 -45q-72 -15 -236 -33v-24v-25q0 -176 70 -270t194 -94q63 0 99 10q43 12 78 30q41 21 61 39q16 13 47 39q6 5 18 16 t17 15q15 12 27 12q8 0 20 -12l23 -27q-29 -31 -97 -90q-51 -41 -96 -63q-55 -27 -100 -37q-44 -10 -113 -10q-124 0 -205 78q-82 82 -108 223q-28 -66 -76 -127q-44 -56 -96 -94q-53 -38 -119 -60q-61 -20 -137 -20q-85 0 -140 28q-56 29 -98 80q-39 52 -57 115 q-19 68 -19 135q0 169 39 293q38 123 109 215q71 88 162 135q89 45 200 45q127 0 199 -69t96 -191q59 121 160 191q100 69 233 69zM393 61q65 0 131 27q56 23 103 70t75 102q36 71 54 125q18 56 28 133q9 70 9 135q0 67 -15 125t-43 96q-33 45 -73 64q-48 23 -105 23 q-95 0 -168 -43q-75 -44 -127 -123q-56 -85 -82 -191q-28 -115 -28 -252q0 -54 12 -106q11 -49 41 -94q27 -41 76 -66q48 -25 112 -25zM1241 963q-78 0 -137 -29q-62 -29 -111 -84q-47 -53 -82 -133q-32 -85 -43 -176q191 22 289 49q125 34 176 65q64 39 86 76q23 39 23 80 q0 30 -12 57q-13 29 -37 50q-22 19 -62 32q-41 13 -90 13z" />
<glyph unicode="&#x178;" horiz-adv-x="1392" d="M1307 1448h65l-4 -39q-3 -34 -45 -37q-70 -4 -76 -4l-579 -770l-64 -516q13 0 35 -1t31 -1q11 0 27 -1t20 -1h18q40 -3 37 -37l-6 -41h-172h-105h-174l7 41q3 34 45 37h18q4 0 20 1t27 1q9 0 31 1t35 1l63 516l-389 770q-6 0 -76 4q-38 3 -35 37l5 39h65h10h80h17h206 l-6 -39q-3 -34 -45 -37h-14q-3 0 -15.5 -1t-21.5 -1q-8 0 -26 -1t-29 -1l305 -610q12 -24 18 -45q2 -7 7.5 -22.5t7.5 -22.5q4 7 11 22.5t11 22.5q9 15 31 45l455 610q-11 0 -30 1t-26 1q-9 0 -21.5 1t-15.5 1h-14q-40 3 -37 37l6 39h205h14h82h11zM621 1704q-4 -19 -11 -31 q-8 -14 -22 -24q-12 -12 -29 -19q-15 -6 -33 -6q-13 0 -28 6q-10 4 -25 19q-9 13 -14 24q-7 17 -4 31q5 25 10 33q6 10 22 26q12 12 29 19q15 6 31 6t31 -6q14 -6 24 -19q12 -16 16 -26q6 -16 3 -33zM1047 1704q-4 -19 -11 -31q-10 -16 -20 -24q-12 -12 -29 -19 q-15 -6 -33 -6q-15 0 -30 6q-10 4 -25 19q-9 13 -14 24q-7 17 -4 31q3 33 32 59q28 25 62 25q16 0 31 -6q14 -6 24 -19q8 -10 14 -26t3 -33z" />
<glyph unicode="&#x2c6;" horiz-adv-x="747" d="M645 1196h-67q-16 0 -25 12l-139 168q-6 3 -11 13q-1 -1 -3 -4.5t-3 -4.5t-3 -2t-3 -2l-180 -168q-2 -2 -14 -8q-8 -4 -17 -4h-67l254 254h88z" />
<glyph unicode="&#x2dc;" horiz-adv-x="792" d="M522 1311q45 0 70 28q28 31 33 76h59q-2 -30 -18 -69q-12 -29 -35 -56q-22 -26 -51 -37q-30 -12 -64 -12q-37 0 -61 16q-42 28 -54 37q-8 6 -25.5 18.5t-25.5 18.5q-23 17 -49 17q-47 0 -70 -29q-25 -32 -34 -76h-62q3 38 19 70q12 28 36 55q22 25 52 37t63 12 q40 0 64 -16q33 -22 53 -37l49 -37q21 -16 51 -16z" />
<glyph unicode="&#x2000;" horiz-adv-x="915" />
<glyph unicode="&#x2001;" horiz-adv-x="1831" />
<glyph unicode="&#x2002;" horiz-adv-x="915" />
<glyph unicode="&#x2003;" horiz-adv-x="1831" />
<glyph unicode="&#x2004;" horiz-adv-x="610" />
<glyph unicode="&#x2005;" horiz-adv-x="457" />
<glyph unicode="&#x2006;" horiz-adv-x="305" />
<glyph unicode="&#x2007;" horiz-adv-x="305" />
<glyph unicode="&#x2008;" horiz-adv-x="228" />
<glyph unicode="&#x2009;" horiz-adv-x="366" />
<glyph unicode="&#x200a;" horiz-adv-x="101" />
<glyph unicode="&#x2010;" horiz-adv-x="743" d="M141 649h475l-10 -84h-475z" />
<glyph unicode="&#x2011;" horiz-adv-x="743" d="M141 649h475l-10 -84h-475z" />
<glyph unicode="&#x2012;" horiz-adv-x="743" d="M141 649h475l-10 -84h-475z" />
<glyph unicode="&#x2013;" horiz-adv-x="1067" d="M137 629h807l-10 -72h-805z" />
<glyph unicode="&#x2014;" horiz-adv-x="1589" d="M137 629h1329l-8 -72h-1329z" />
<glyph unicode="&#x2018;" horiz-adv-x="421" d="M156 1081q-19 50 -23 78q-6 39 0 78q9 83 57 154q51 75 117 133l27 -19q6 -6 6 -14q0 -4 -8 -12q-54 -61 -78 -103q-34 -59 -39 -106q-6 -58 23 -123q2 -6 2 -17q-3 -13 -19 -20z" />
<glyph unicode="&#x2019;" horiz-adv-x="415" d="M291 1511q16 -35 22 -75q6 -38 0 -78q-9 -83 -57 -154q-54 -80 -117 -135l-26 18q-7 7 -7 15q0 5 9 14q51 57 78 105q33 57 38 106q6 59 -22 123q-2 6 -2 16q3 15 18 21z" />
<glyph unicode="&#x201a;" horiz-adv-x="452" d="M283 180q15 -33 22 -78q7 -44 2 -77q-9 -81 -57 -152q-51 -76 -119 -135l-27 18q-4 4 -4 15q0 8 6 14q56 63 78 102q34 59 39 109q6 61 -20 121q-4 12 -4 16q3 15 18 21z" />
<glyph unicode="&#x201c;" horiz-adv-x="696" d="M156 1081q-19 50 -23 78q-6 39 0 78q9 83 57 154q51 75 117 133l27 -19q6 -6 6 -14q0 -4 -8 -12q-54 -61 -78 -103q-34 -59 -39 -106q-6 -58 23 -123q2 -6 2 -17q-3 -13 -19 -20zM430 1081q-17 45 -22 78q-6 39 0 78q9 83 57 154t119 133l24 -19q6 -6 6 -14q0 -6 -6 -12 q-51 -57 -78 -105q-33 -57 -38 -106q-6 -63 20 -123q4 -12 4 -17q-3 -14 -18 -20z" />
<glyph unicode="&#x201d;" horiz-adv-x="692" d="M291 1511q16 -35 22 -75q6 -38 0 -78q-9 -83 -57 -154q-54 -80 -117 -135l-26 18q-7 7 -7 15q0 5 9 14q51 57 78 105q33 57 38 106q6 59 -22 123q-2 6 -2 16q3 15 18 21zM565 1511q17 -39 23 -75q7 -44 2 -78q-9 -82 -58 -154q-52 -78 -118 -135l-27 18q-4 4 -4 15 q0 8 6 14q51 57 78 105q34 59 39 106q6 59 -21 121q-4 12 -4 16q3 15 19 21z" />
<glyph unicode="&#x201e;" horiz-adv-x="727" d="M283 180q15 -33 22 -78q7 -44 2 -77q-9 -81 -57 -152q-51 -76 -119 -135l-27 18q-4 4 -4 15q0 8 6 14q56 63 78 102q34 59 39 109q6 61 -20 121q-4 12 -4 16q3 15 18 21zM559 180q16 -37 23 -78q6 -37 0 -77q-9 -79 -58 -152q-55 -82 -116 -135l-27 18q-6 6 -6 15 q0 6 8 14q56 63 78 102q34 59 39 109q6 56 -23 121q-2 6 -2 16q3 15 19 21z" />
<glyph unicode="&#x2022;" horiz-adv-x="831" d="M117 610q6 59 37 117q30 56 75 98q40 37 105 64q58 24 119 24t114 -24q50 -23 88 -64q40 -46 54 -98q14 -53 8 -117q-5 -56 -37 -114q-29 -54 -76 -95q-48 -42 -104 -65q-61 -25 -121 -25q-58 0 -113 25q-48 22 -88 65q-34 37 -53 95q-15 45 -8 114z" />
<glyph unicode="&#x2026;" horiz-adv-x="1454" d="M117 78q3 19 12 37q8 17 25 30q24 19 30 21q24 8 39 8q17 0 37 -8q10 -4 27 -21q9 -9 16 -30q7 -20 4 -37q-3 -18 -12 -37q-7 -15 -25 -29q-20 -16 -32 -20q-24 -8 -37 -8q-39 0 -64 28q-26 29 -20 66zM1122 78q3 16 13 37t22 30q21 17 33 21q24 8 39 8t35 -8 q12 -5 28 -21q10 -11 17 -30q5 -16 2 -37q-2 -15 -13 -37q-10 -19 -22 -29q-19 -15 -33 -20q-24 -8 -39 -8q-38 0 -63 28t-19 66zM618 78q3 16 13 37q9 18 24 30q23 18 31 21q24 8 39 8q17 0 37 -8q8 -3 26 -21q10 -11 17 -30q7 -20 4 -37q-3 -18 -12 -37q-7 -15 -25 -29 q-19 -15 -33 -20q-24 -8 -37 -8q-38 0 -63 28q-26 30 -21 66z" />
<glyph unicode="&#x202f;" horiz-adv-x="366" />
<glyph unicode="&#x2039;" horiz-adv-x="507" d="M88 524l2 15l295 387l29 -17q15 -9 12 -24q0 -12 -10 -25l-223 -299q-5 -7 -27 -29q10 -10 18 -28l152 -303q4 -8 4 -23q-3 -17 -21 -26l-32 -15z" />
<glyph unicode="&#x203a;" horiz-adv-x="509" d="M123 137l-29 17q-17 10 -14 26q0 10 10 23l225 301q3 6 13 16q1 1 3.5 4t4.5 5t4 3q-3 6 -8 11q-2 2 -10 18l-150 299q-6 12 -6 25q3 16 20 24l33 17l201 -387l-2 -15z" />
<glyph unicode="&#x205f;" horiz-adv-x="457" />
<glyph unicode="&#x20ac;" horiz-adv-x="1306" d="M98 885h168q34 135 92 241q58 107 140 183q81 75 176 114t211 39q75 0 121 -10q39 -9 98 -35q44 -20 82 -55q34 -31 71 -78l-36 -35q-9 -9 -11 -10q-4 -2 -14 -2t-18 10q-6 8 -25 27q-6 6 -21 18t-18 15q-24 20 -55 34q-38 17 -76 27q-36 10 -104 10q-87 0 -172 -32 q-89 -39 -148 -95q-67 -63 -115 -153q-44 -82 -77 -213h616l-4 -31q0 -10 -10 -20q-9 -9 -27 -9h-590q-7 -38 -14 -100q-5 -35 -6 -41q-2 -14 -2 -41h528l-4 -31q0 -10 -10 -20q-8 -8 -25 -8h-491q-3 -126 22 -224q25 -97 74 -161q47 -61 123 -97q68 -32 164 -32 q65 0 114 12q40 10 88 31q31 14 70 41q6 4 49 41q5 4 12.5 10.5t13 11t9.5 8.5q16 13 25 13t18 -9l33 -36q-60 -65 -90 -87q-55 -42 -103 -65q-52 -26 -119 -41q-69 -16 -135 -16q-114 0 -204 41q-94 43 -150 116q-60 79 -90 189q-30 111 -27 252h-164l7 61h161q0 29 2 41 q0 2 3 17.5t4 23.5q8 63 14 98h-162z" />
<glyph unicode="&#x2122;" horiz-adv-x="1437" d="M983 1034q6 15 18 31l263 373q2 3 12 8q8 4 14 4h60l-74 -590h-64l58 455l10 45l-272 -389q-10 -17 -29 -17h-10q-18 0 -25 17l-180 385v-41l-55 -455h-66l74 590h57q10 0 14 -4l4 -2q5 -2 7 -6l178 -373zM588 1448l-6 -59h-205l-66 -529h-71l63 529h-205l8 59h482z" />
<glyph unicode="&#x25fc;" horiz-adv-x="1013" d="M0 1014h1014v-1014h-1014v1014z" />
</font>
</defs>
</svg>
